osu file format v9

[General]
AudioFilename: Game Brain.mp3
AudioLeadIn: 1
PreviewTime: 31639
Countdown: 0
SampleSet: Soft
StackLeniency: 0.7
Mode: 0
LetterboxInBreaks: 1

[Editor]
Bookmarks: 41113,51849,71349,81534,102376,112481,122823,156692
DistanceSpacing: 1
BeatDivisor: 4
GridSize: 4

[Metadata]
Title:Game Brain
Artist:BRZion
Creator:Zapy
Version:Extra
Source:
Tags:8bit

[Difficulty]
HPDrainRate:5
CircleSize:4
OverallDifficulty:7
ApproachRate:9
SliderMultiplier:1.9
SliderTickRate:1

[Events]
//Background and Video events
0,0,"BG2.jpg"
//Break Periods
2,102562,111867
//Storyboard Layer 0 (Background)
//Storyboard Layer 1 (Fail)
//Storyboard Layer 2 (Pass)
//Storyboard Layer 3 (Foreground)
//Storyboard Sound Samples
//Background Colour Transformations
3,100,163,162,255

[TimingPoints]
1310,315.789473684211,4,1,0,40,1,0
3521,-100,4,2,0,60,0,0
3836,-100,4,1,0,40,0,0
6047,-100,4,2,0,60,0,0
6363,-100,4,1,0,40,0,0
8573,-100,4,2,0,60,0,0
8888,-100,4,1,0,40,0,0
11100,-100,4,2,0,60,0,0
11415,-100,4,1,0,40,0,0
11889,-100,4,2,0,40,0,0
12679,-100,4,1,0,40,0,0
13310,-100,4,2,0,40,0,0
13942,-100,4,1,0,40,0,0
14415,-100,4,2,0,40,0,0
15204,-100,4,1,0,40,0,0
15836,-100,4,2,0,40,0,0
16468,-100,4,1,0,40,0,0
16942,-100,4,2,0,40,0,0
17731,-100,4,1,0,40,0,0
18363,-100,4,2,0,40,0,0
18994,-100,4,1,0,40,0,0
19468,-100,4,2,0,40,0,0
21205,-100,4,2,0,60,0,0
21521,-100,4,1,0,40,0,1
31863,-100,4,2,0,80,0,1
32021,-100,4,1,0,40,0,1
32573,-100,4,2,0,80,0,1
32651,-100,4,1,0,40,0,1
33205,-100,4,2,0,80,0,1
33283,-100,4,1,0,40,0,1
33836,-100,4,2,0,80,0,1
34152,-100,4,1,0,40,0,1
34468,-100,4,2,0,80,0,1
34547,-100,4,1,0,40,0,1
35100,-100,4,2,0,80,0,1
35178,-100,4,1,0,40,0,1
35731,-100,4,2,0,80,0,1
35809,-100,4,1,0,40,0,1
36363,-100,4,2,0,80,0,1
36678,-100,4,1,0,40,0,1
36993,-100,4,2,0,80,0,1
37071,-100,4,1,0,40,0,1
37623,-100,4,2,0,80,0,1
37701,-100,4,1,0,40,0,1
38253,-100,4,2,0,80,0,1
38331,-100,4,1,0,40,0,1
38883,-100,4,2,0,80,0,1
39198,-100,4,1,0,40,0,1
39513,-100,4,2,0,80,0,1
39591,-100,4,1,0,40,0,1
40143,-100,4,2,0,80,0,1
40221,-100,4,1,0,40,0,1
40468,-100,4,2,0,40,0,1
41100,-100,4,2,0,5,0,1
41731,-100,4,2,0,40,0,0
51836,-100,4,1,0,50,0,0
60679,-100,4,2,0,50,0,0
61942,-100,4,1,0,50,0,0
70784,-100,4,2,0,50,0,0
72047,-100,4,1,0,50,0,0
82152,-100,4,1,0,45,0,0
85310,-100,4,2,0,50,0,0
86257,-100,4,1,0,50,0,0
86336,-100,4,2,0,50,0,0
86889,-100,4,1,0,50,0,0
86968,-100,4,2,0,50,0,0
87205,-100,4,1,0,45,0,0
90363,-100,4,2,0,45,0,0
91310,-100,4,1,0,45,0,0
91389,-100,4,2,0,45,0,0
91942,-100,4,1,0,45,0,0
95415,-100,4,2,0,45,0,0
96363,-100,4,1,0,45,0,0
96442,-100,4,2,0,45,0,0
96994,-100,4,1,0,45,0,0
97073,-100,4,2,0,45,0,0
97310,-100,4,1,0,45,0,0
100468,-100,4,2,0,45,0,0
101415,-100,4,1,0,45,0,0
101573,-100,4,2,0,45,0,0
102047,-100,4,1,0,45,0,0
112468,-100,4,2,0,45,0,0
122336,-100,4,1,0,5,0,0
123836,-100,4,1,0,40,0,0
125731,-100,4,1,0,75,0,0
126363,-100,4,1,0,45,0,0
126679,-100,4,2,0,80,0,0
126757,-100,4,1,0,45,0,0
127310,-100,4,2,0,80,0,0
127547,-100,4,1,0,40,0,0
128572,-100,4,2,0,80,0,0
128807,-100,4,1,0,40,0,0
129202,-100,4,2,0,80,0,0
129280,-100,4,1,0,40,0,0
129679,-100,4,2,0,80,0,0
129915,-100,4,1,0,40,0,0
129993,-100,4,2,0,80,0,0
130071,-100,4,1,0,40,0,0
130465,-100,4,2,0,80,0,0
130543,-100,4,1,0,40,0,0
131016,-100,4,2,0,80,0,0
131331,-100,4,1,0,40,0,0
131725,-100,4,2,0,80,0,0
131803,-100,4,1,0,40,0,0
132355,-100,4,2,0,80,0,0
132591,-100,4,1,0,40,0,0
133626,-100,4,2,0,80,0,0
133862,-100,4,1,0,40,0,0
134256,-100,4,2,0,80,0,0
134334,-100,4,1,0,40,0,0
134731,-100,4,2,0,80,0,0
134967,-100,4,1,0,40,0,0
135045,-100,4,2,0,80,0,0
135205,-100,4,1,0,40,0,0
135521,-100,4,2,0,80,0,0
135599,-100,4,1,0,40,0,0
136151,-100,4,2,0,80,0,0
136468,-100,4,1,0,40,0,0
136781,-100,4,2,0,80,0,0
136859,-100,4,1,0,40,0,0
137411,-100,4,2,0,80,0,0
137647,-100,4,1,0,40,0,0
138673,-100,4,2,0,80,0,0
138909,-100,4,1,0,40,0,0
139303,-100,4,2,0,80,0,0
139381,-100,4,1,0,40,0,0
139784,-100,4,2,0,80,0,0
140011,-100,4,1,0,40,0,0
140100,-100,4,2,0,80,0,0
140179,-100,4,1,0,40,0,0
140562,-100,4,2,0,80,0,0
140640,-100,4,1,0,40,0,0
141192,-100,4,2,0,80,0,0
141521,-100,4,1,0,40,0,0
141823,-100,4,2,0,80,0,0
141901,-100,4,1,0,40,0,0
142453,-100,4,2,0,80,0,0
142689,-100,4,1,0,40,0,0
143715,-100,4,2,0,80,0,0
143951,-100,4,1,0,40,0,0
144363,-100,4,2,0,80,0,0
144441,-100,4,1,0,40,0,0
144756,-100,4,2,0,80,0,0
144913,-100,4,1,0,40,0,0
144992,-100,4,2,0,80,0,0
145070,-100,4,1,0,40,0,0
145148,-100,4,2,0,80,0,0
145226,-100,4,1,0,40,0,0
145620,-100,4,2,0,80,0,0
145698,-100,4,1,0,40,0,0
146100,-100,4,2,0,80,0,0
146328,-100,4,1,0,40,0,0
146415,-100,4,2,0,80,0,0
146573,-100,4,2,0,5,0,1
147363,-100,4,2,0,80,0,1
151626,-100,4,2,0,5,0,1
152415,-100,4,2,0,80,0,1
156679,-100,4,1,0,20,0,0
156836,-100,4,2,0,30,0,0
159205,-100,4,1,0,32,0,0
159363,-100,4,2,0,30,0,0
159679,-100,4,1,0,34,0,0
159836,-100,4,2,0,34,0,0
160152,-100,4,1,0,36,0,0
160231,-100,4,2,0,36,0,0
160468,-100,4,1,0,38,0,0
160547,-100,4,2,0,38,0,0
160784,-100,4,1,0,38,0,0
160942,-100,4,2,0,38,0,0
161100,-100,4,1,0,38,0,0
161336,-100,4,1,0,40,0,0
166784,-100,4,2,0,30,0,0
169626,-100,4,1,0,40,0,0

[Colours]
Combo1 : 196,211,255
Combo2 : 255,255,255
Combo3 : 176,234,255

[HitObjects]
176,144,1309,1,0
176,240,1467,1,0
256,192,1625,1,0
256,192,2257,2,0,B|328:192,2,47.5
364,148,2573,1,0
400,236,2731,1,0
440,148,2888,1,0
476,236,3046,1,0
168,192,3520,5,2
304,328,3836,5,0
208,328,3994,1,0
256,248,4152,1,0
256,248,4783,2,0,B|256:184,2,47.5
208,168,5099,1,0
304,136,5257,1,0
208,92,5415,1,0
304,56,5573,1,0
208,16,6046,5,2
372,192,6362,5,0
256,192,6520,1,0
140,192,6678,1,0
256,48,7310,2,0,B|256:96,2,47.5
256,144,7625,1,0
256,240,7783,1,0
256,144,7941,1,0
256,336,8099,1,0
256,48,8573,5,2
128,192,8888,5,0
128,192,9046,1,0
224,192,9204,1,0
224,192,9836,2,0,B|288:192,2,47.5
384,192,10152,1,0
384,192,10310,1,0
288,192,10467,1,0
288,192,10625,1,0
256,104,11099,5,6
72,144,11415,6,0,B|72:184|72:184|80:192|80:192|80:240,1,95
80,328,11731,1,0
160,280,11888,2,2,B|208:288,4,47.5
352,280,12362,2,2,B|304:288,3,47.5
352,280,12678,1,0
312,192,12836,1,0
256,264,12994,1,0
200,192,13152,1,0
208,96,13310,2,2,B|192:48,2,47.5
304,96,13625,2,2,B|320:48,2,47.5,6|2|2
440,144,13941,6,0,B|440:184|440:184|432:192|432:192|432:240,1,95
432,328,14257,1,0
384,248,14415,2,2,B|384:200,4,47.5
304,200,14888,2,2,B|304:256,3,47.5
304,200,15204,1,0
256,120,15362,1,0
200,200,15520,1,0
256,280,15678,1,0
160,280,15836,2,2,B|112:272,2,47.5
160,104,16152,2,2,B|112:112,3,47.5,6|2|2|2
160,104,16467,6,0,B|232:88|232:88|272:104,1,95
352,104,16783,1,0
312,192,16941,1,2
312,192,17020,1,2
312,192,17099,1,2
312,192,17178,1,2
312,192,17257,1,2
240,128,17415,1,2
208,152,17494,1,2
200,192,17573,1,2
208,232,17652,1,2
240,256,17731,5,0
256,344,17888,1,0
336,296,18046,1,0
416,344,18204,1,0
416,248,18362,2,2,B|416:296,2,47.5
416,136,18678,2,2,B|416:88,3,47.5,6|2|2|2
416,136,18994,6,0,B|400:192|400:192|352:192,1,95,0|0
320,104,19310,1,0
304,192,19467,1,2
296,224,19546,1,2
256,232,19625,1,2
216,224,19704,1,2
208,192,19783,1,2
192,104,19941,1,2
208,56,20020,1,2
256,48,20099,1,2
304,56,20178,1,2
320,104,20257,5,2
352,192,20415,1,2
256,312,20573,1,2
160,192,20731,1,2
256,192,21204,1,6
336,360,21520,6,0,B|384:376|384:376|432:360,1,95
424,264,21836,2,0,B|376:248|376:248|328:264,1,95,8|0
256,312,22152,1,0
176,360,22310,1,0
88,264,22467,1,8
136,248,22546,1,0
176,264,22625,1,0
256,312,22783,1,0
336,360,22941,1,0
424,264,23099,1,8
376,248,23178,1,0
336,264,23257,1,0
104,152,23415,5,0
392,152,23572,1,0
200,176,23730,1,8
296,176,23888,1,8
200,176,24046,6,0,B|176:216|176:216|200:256,1,95
296,176,24362,2,0,B|320:135|320:135|296:96,1,95,8|0
368,32,24678,1,0
296,94,24836,1,0
144,32,24994,1,8
176,64,25073,1,0
208,96,25152,1,0
184,192,25310,1,0
264,248,25467,1,0
448,184,25625,1,8
408,216,25704,1,0
368,240,25783,1,0
368,144,25941,5,0
368,240,26099,1,0
432,72,26257,1,8
432,312,26415,1,8
480,152,26573,6,0,B|496:176|496:176|472:192|496:208|496:208|480:232,1,95
392,200,26888,1,8
304,232,27046,1,0
120,184,27204,1,0
208,152,27362,1,0
32,152,27520,1,8
16,192,27599,1,0
32,232,27678,1,0
120,184,27836,5,0
200,232,27994,1,0
392,200,28152,1,8
352,176,28231,1,0
312,152,28310,1,0
240,256,28467,5,0
272,128,28625,1,0
300,324,28783,1,8
212,60,28941,1,8
212,344,29099,6,0,B|217:292|217:292|240:256,1,95
300,40,29415,2,0,B|294:91|294:91|272:128,1,95,8|0
160,192,29731,1,0
352,192,29888,1,0
256,288,30046,2,0,B|256:336,2,47.5,8|0|0
352,312,30362,5,0
160,312,30520,1,0
256,96,30678,2,0,B|256:40,2,47.5,8|0|0
160,72,30994,1,0
352,72,31152,1,0
352,312,31310,1,8
352,312,31388,1,0
352,312,31467,1,8
160,312,31625,6,0,B|104:312|104:312|80:256,1,95
352,312,31941,2,0,B|408:312|408:312|432:256,1,95,4|0
256,248,32257,1,0
256,136,32415,1,0
224,52,32573,1,4
256,20,32652,1,0
288,52,32731,1,0
256,136,32888,5,0
256,248,33046,1,0
288,332,33204,1,4
256,364,33283,1,0
224,332,33362,1,0
156,264,33520,5,0
356,120,33678,1,0
356,264,33836,1,4
156,120,33994,1,2
88,192,34152,5,0
156,264,34310,1,0
64,280,34467,2,0,B|64:232|64:232|88:192,1,95,4|0
156,264,34783,2,0,B|196:240|196:240|245:240,1,95
224,332,35099,2,0,B|288:332,2,47.5,4|0|0
244,240,35415,5,0
268,144,35573,1,0
288,52,35731,2,0,B|240:52,2,47.5,4|0|0
392,72,36046,5,0
456,240,36204,1,0
456,144,36362,1,4
392,312,36520,1,2
296,320,36678,6,0,B|256:296|256:296|216:320,1,95
128,312,36994,2,0,B|128:216,2,95,4|0|0
128,312,37467,1,0
32,328,37625,1,4
80,320,37704,1,0
128,312,37783,1,0
128,72,37941,6,0,B|128:168,2,95,0|0|4
80,64,38336,1,0
32,56,38415,1,0
48,136,38573,5,0
128,312,38731,1,0
48,248,38888,1,4
128,72,39046,1,2
126,216,39204,6,0,B|104:248|104:248|48:248,1,95
385,167,39520,2,0,B|408:136|408:136|464:136,1,95,4|0
464,248,39836,1,0
48,136,39994,1,0
256,144,40152,1,4
256,192,40231,1,0
256,248,40310,1,0
184,344,40467,6,0,B|152:392,2,47.5,2|0|2
256,192,40783,1,2
256,64,40941,1,2
324,344,41099,1,4
64,240,41731,5,0
64,144,41888,1,0
148,192,42046,1,2
148,144,42125,1,0
64,192,42283,1,0
104,104,42441,1,0
104,56,42520,1,0
104,56,42678,1,2
256,96,42836,1,0
256,192,42994,5,0
256,288,43152,1,0
304,376,43310,1,2
352,376,43388,1,0
256,376,43546,1,0
160,376,43704,1,0
208,376,43783,1,0
256,288,43941,1,2
256,192,44099,1,0
256,96,44257,5,0
384,84,44415,1,0
480,132,44573,1,2
480,84,44652,1,0
384,136,44810,1,0
432,216,44967,1,0
432,168,45046,1,0
432,56,45204,1,2
432,56,45362,1,0
432,168,45520,5,0
432,264,45678,1,0
336,252,45836,1,2
304,284,45915,1,0
256,192,46073,1,0
176,252,46231,1,0
208,284,46310,1,0
80,264,46468,1,2
136,340,46625,1,0
376,340,46783,5,0
256,324,46941,1,0
256,228,47099,2,0,B|256:172,1,47.5,2|0
352,196,47336,1,0
256,136,47494,2,0,B|256:80,1,47.5
160,196,47731,1,2
68,220,47888,1,0
444,164,48046,5,0
346,86,48204,2,0,B|298:102|298:102|256:88,1,95,0|2
256,32,48467,1,0
256,232,48599,2,0,B|256:137,1,95
256,88,48836,1,0
152,88,48994,1,2
72,144,49152,6,0,B|80:192|80:192|72:248,1,95
160,192,49467,1,0
72,144,49625,1,2
56,192,49704,1,0
160,192,49862,1,0
256,192,50020,1,0
256,192,50099,1,0
352,192,50257,1,2
440,144,50415,6,0,B|432:192|432:192|440:248,2,95
352,192,50888,1,2
320,232,50967,1,0
256,160,51125,1,0
328,104,51283,1,0
360,64,51362,1,0
152,64,51520,1,2
256,40,51678,1,4
184,104,51836,6,0,B|80:112,1,95
328,104,52152,2,0,B|432:112,1,95,8|0
472,192,52467,2,0,B|368:184,1,95
40,192,52783,2,0,B|152:200,1,95,8|0
184,280,53099,6,0,B|93:310,1,95
184,104,53415,2,0,B|93:73,1,95,8|0
328,280,53731,2,0,B|418:310,1,95
328,104,54046,2,0,B|418:73,1,95,8|0
472,152,54362,5,0
472,152,54520,1,0
416,60,54678,2,0,B|326:91,1,95,8|0
40,152,54994,1,0
40,152,55152,1,0
96,60,55310,2,0,B|187:91,1,95,8|0
352,192,55625,2,0,B|256:192,1,95,0|0
161,192,55941,2,8,B|257:192,1,95,8|0
200,272,56257,1,8
256,192,56415,1,8
312,272,56573,1,8
285,312,56652,1,0
256,352,56731,1,8
200,272,56888,6,0,B|88:272,1,95
64,192,57204,1,8
64,192,57283,2,0,B|160:192,1,95,0|0
152,96,57599,1,0
184,64,57678,1,0
256,136,57836,2,0,B|360:136,1,95,8|0
447,232,58152,6,0,B|352:232,1,95
352,136,58467,1,8
400,136,58546,1,0
400,232,58704,2,0,B|296:232,1,95
256,232,58941,1,0
121,320,59099,2,0,B|216:320,1,95,8|0
176,232,59415,6,0,B|64:232,1,95
128,144,59732,1,8
128,144,59810,2,0,B|232:144,1,95,0|0
256,232,60125,1,0
256,232,60204,1,0
384,144,60362,2,0,B|289:144,1,95,8|0
384,48,60678,5,0
424,64,60757,1,0
464,96,60836,1,0
472,144,60915,1,0
464,192,60994,1,0
432,224,61073,1,0
384,232,61152,1,0
344,248,61231,1,0
328,288,61310,1,0
104,192,61625,5,2
104,192,61783,1,2
104,96,61941,6,0,B|136:56|136:56|192:56,1,95
208,152,62257,1,8
208,152,62336,2,0,B|303:152,1,95,0|0
208,236,62652,1,0
208,236,62731,1,0
256,332,62888,2,0,B|344:332|344:332|384:292|384:292|384:228,1,190,8|0
384,152,63362,5,0
304,236,63520,1,8
304,236,63599,2,0,B|240:236|240:236|176:236,1,95,0|0
108,120,63915,1,0
108,120,63994,2,0,B|203:120,1,95,0|8
256,56,64310,2,0,B|256:0,2,47.5,8|0|0
308,120,64625,5,0
224,192,64783,2,0,B|176:192,1,47.5,8|0
100,248,65020,1,0
161,320,65178,1,0
161,320,65257,2,0,B|256:320,1,95,0|8
352,320,65573,1,0
312,240,65731,6,0,B|392:240|392:240|420:204|420:204|344:208,1,190,0|8
200,240,66204,2,0,B|120:240|120:240|91:204|91:204|168:208,1,190,0|8
256,96,66678,1,8
256,144,66757,1,0
256,192,66836,1,8
328,40,66994,6,0,B|336:88|336:88|384:136,1,95,0|0
184,40,67310,2,0,B|176:88|176:88|128:136,1,95,8|0
48,152,67625,1,0
16,64,67783,1,0
96,240,67941,2,0,B|120:280|120:280|112:328,1,95,8|0
416,240,68257,6,0,B|392:280|392:280|400:328,1,95,0|0
288,216,68573,2,0,B|232:200|232:200|208:168,1,95,8|0
216,288,68888,2,0,B|272:304|272:304|296:344,1,95,0|0
280,112,69204,1,8
256,24,69362,1,0
208,48,69441,1,8
192,96,69520,1,0
280,112,69678,6,0,B|344:112|344:112|360:72,1,95,0|8
432,32,69994,1,0
312,192,70152,2,0,B|208:200,1,95
120,208,70467,1,8
120,208,70625,1,8
72,288,70783,5,0
40,248,70862,1,0
32,200,70941,1,0
48,152,71020,1,0
88,120,71099,1,0
136,112,71178,1,0
184,128,71257,1,0
224,152,71336,1,0
256,112,71415,1,0
256,16,71731,5,2
256,16,71888,1,2
352,24,72046,6,0,B|432:32|480:112|432:200,1,190,0|8
360,120,72520,2,0,B|370:199|303:264|206:237,1,190
264,152,72994,2,8,B|216:176|168:136,1,95
176,48,73310,6,0,B|88:56|72:136|96:200,1,190,0|8
336,336,73783,2,0,B|424:328|440:248|416:184,1,190
256,192,74257,1,8
256,192,74415,1,8
336,240,74573,6,0,B|360:181|328:136,1,95
174,237,74888,2,0,B|206:288|268:282,1,95,8|0
257,98,75204,2,0,B|192:104|171:157,1,95,0|0
256,192,75520,1,8
256,192,75678,1,8
256,192,75836,6,0,B|224:248|264:336|344:328,1,190,0|8
184,336,76310,2,0,B|152:280|144:200|192:128,1,190
232,72,76783,2,0,B|304:56,2,47.5,8|0|8
144,56,77099,6,0,B|32:40,1,95
96,128,77415,2,0,B|120:176,1,47.5,8|0
256,192,77652,1,0
416,128,77810,2,0,B|384:176,1,47.5
256,144,78046,1,8
256,48,78204,1,8
352,144,78362,6,0,B|240:144,1,95,0|0
176,240,78678,2,0,B|104:240,1,47.5,8|0
256,328,78915,1,0
336,240,79073,2,0,B|392:240,1,47.5
256,240,79310,1,8
112,144,79467,1,8
200,36,79625,5,0
200,36,79783,1,0
200,36,79941,2,0,B|200:100,1,47.5,8|0
340,144,80178,1,0
312,348,80336,2,0,B|312:292,1,47.5
172,240,80573,1,8
256,144,80731,1,8
256,192,80810,1,0
256,240,80888,5,2
32,192,81204,1,2
480,192,81520,5,2
256,144,81678,1,2
212,76,81836,1,2
256,60,81915,1,2
300,76,81994,1,2
176,176,82152,6,0,B|176:272,1,95
96,216,82467,2,0,B|96:320,1,95
256,144,82783,1,0
256,192,82862,1,0
256,240,82941,1,0
340,100,83099,1,0
340,148,83178,1,0
340,196,83257,1,0
424,56,83415,1,0
424,104,83494,1,0
424,152,83573,1,0
504,204,83731,5,4
504,298,83888,1,0
425,244,84046,1,0
425,339,84204,1,0
342,292,84362,1,4
342,292,84520,1,0
280,28,84678,5,0
256,216,84836,1,0
232,120,84994,1,4
256,312,85152,1,0
160,320,85310,1,2
112,312,85388,1,0
80,280,85467,1,0
56,240,85546,1,0
48,192,85625,1,2
56,144,85704,1,0
80,104,85783,1,0
112,72,85862,1,0
160,64,85941,5,2
256,80,86099,1,0
352,56,86257,1,4
256,80,86415,1,0
448,56,86573,1,2
256,160,86731,1,0
64,56,86888,1,4
64,56,86967,1,0
64,56,87046,1,0
204,59,87204,6,0,B|192:104|192:104|200:152,1,95
307,60,87520,2,0,B|320:104|320:104|312:152,1,95,4|0
408,56,87836,1,0
416,104,87915,1,0
408,152,87994,1,0
104,152,88152,1,4
96,104,88231,1,0
104,56,88310,1,0
256,56,88467,1,0
256,104,88546,1,0
256,152,88625,1,0
256,328,88783,6,0,B|256:264|256:264|256:208,1,95,4|0
408,328,89099,1,0
104,328,89257,1,0
256,192,89415,1,4
408,56,89573,1,0
304,80,89731,6,0,B|256:88|256:88|200:80,1,95
112,56,90046,1,4
256,136,90204,1,0
352,64,90362,1,2
400,72,90441,1,0
432,104,90520,1,0
456,144,90599,1,0
464,192,90678,1,2
456,240,90757,1,0
432,280,90836,1,0
400,312,90915,1,0
352,320,90994,5,2
344,192,91152,1,0
240,233,91310,2,0,B|256:192|256:192|240:144,1,95,4|0
256,320,91625,1,0
256,64,91783,1,0
256,192,91941,1,4
256,192,92020,1,0
256,192,92099,1,0
160,64,92257,6,0,B|64:128,1,95
352,64,92573,2,0,B|448:128,1,95,0|0
192,192,92888,2,0,B|136:240,2,47.5,4|0|0
320,192,93204,2,0,B|376:240,2,47.5,4|0|0
256,264,93520,2,0,B|256:328,2,47.5
176,312,93836,5,4
96,256,93994,1,0
176,312,94152,2,0,B|256:360,1,95
336,312,94467,1,4
416,256,94625,1,0
336,312,94783,6,0,B|256:360,1,95
256,264,95099,1,4
256,168,95257,1,0
256,72,95415,5,2
304,104,95494,1,0
304,48,95573,1,0
256,16,95652,1,0
208,48,95731,1,2
208,104,95810,1,0
256,128,95888,1,0
304,104,95967,1,0
256,72,96046,5,2
160,80,96204,1,0
160,80,96362,2,0,B|136:176,1,95,4|0
64,96,96678,1,2
64,96,96836,1,0
64,96,96994,2,0,B|44:188,1,95,4|0
64,280,97310,5,0
64,280,97467,1,0
152,312,97625,1,4
152,312,97783,1,0
152,312,97941,6,0,B|168:256,2,47.5,4|0|0
256,224,98257,2,0,B|256:160,2,47.5,4|0|0
360,72,98573,2,0,B|344:128,2,47.5,4|0|0
432,136,98888,6,0,B|416:192|416:192|424:240,1,95,4|0
336,272,99204,1,0
422,228,99362,1,0
336,272,99520,2,0,B|320:226|320:226|328:178,1,95,4|0
185,178,99836,5,0
327,180,99994,1,0
176,270,100152,2,0,B|192:224|192:224|184:178,1,95,4|0
256,312,100467,5,2
307,337,100546,1,0
259,365,100625,1,0
207,339,100704,1,0
211,282,100783,1,2
259,254,100862,1,0
304,284,100941,1,0
307,337,101020,1,0
256,312,101099,5,2
112,256,101257,1,0
256,192,101415,1,4
256,312,101573,1,0
112,152,101731,1,2
256,72,101888,1,0
400,152,102046,1,0
329,172,102125,1,0
256,192,102204,1,0
112,8,102362,1,4
304,192,112467,6,2,B|400:192,1,95,2|0
256,280,112783,1,2
224,240,112862,1,2
208,192,112941,1,2
224,144,113020,1,2
256,104,113099,1,2
304,192,113257,1,2
112,192,113573,5,2
113,192,113731,2,0,B|208:192,1,95,2|0
256,280,114046,1,2
288,240,114125,1,2
304,192,114204,1,2
288,144,114283,1,0
256,104,114362,2,0,B|256:40,1,47.5,2|2
394,68,114678,1,0
424,256,114994,6,0,B|376:232|376:232|328:256,1,95,2|0
376,336,115310,1,2
416,312,115388,1,2
424,256,115467,1,2
400,216,115546,1,0
352,200,115625,1,2
256,192,115783,1,2
64,192,116099,6,0,B|112:176|112:176|160:184,1,95,2|0
208,104,116415,1,2
132,48,116573,1,2
92,72,116652,1,2
84,128,116731,1,2
108,168,116810,1,0
156,184,116888,1,2
208,104,117046,1,2
256,192,117204,1,2
424,96,117520,5,2
408,192,117678,1,0
376,104,117836,1,2
336,136,117915,1,2
320,184,117994,1,2
328,232,118073,1,0
360,264,118152,1,2
256,240,118310,1,0
256,240,118625,5,2
152,264,118783,1,0
360,264,118941,1,2
152,264,119099,1,2
184,232,119178,1,2
192,184,119257,1,2
176,136,119336,1,0
136,112,119415,2,0,B|88:176,1,63.3333333333333,2|0
256,336,119731,1,2
376,192,120046,6,0,B|384:240|384:240|416:288,1,95,2|0
464,200,120362,1,2
424,184,120441,1,2
376,192,120520,1,2
344,232,120599,1,0
344,280,120678,1,2
168,280,120836,1,0
256,96,121152,5,2
256,192,121310,2,0,B|160:152,1,95,2|0
256,96,121625,1,2
304,96,121704,1,2
344,120,121783,1,2
368,160,121862,1,2
368,208,121941,1,0
352,248,122020,1,2
320,280,122099,1,0
272,296,122178,1,2
224,288,122257,6,0,B|184:272|168:256,1,47.5
152,232,122415,1,0
144,184,122494,1,0
384,192,123836,5,4
192,192,124152,1,4
256,80,124363,1,0
256,16,124468,1,4
320,192,124784,5,4
256,264,124942,1,0
192,192,125099,1,4
256,120,125257,1,0
448,192,125415,1,4
256,264,125573,1,4
64,192,125731,5,0
64,192,125810,1,0
448,192,126046,1,0
448,192,126125,1,0
304,80,126362,6,0,B|256:64|256:64|192:88,1,95,0|0
256,168,126678,1,4
256,168,126757,1,0
256,312,126915,2,0,B|256:161,1,142.5
344,256,127310,5,4
432,192,127467,1,4
80,192,127625,1,0
168,256,127783,1,0
168,208,127862,1,0
256,216,128020,1,0
256,168,128099,1,0
344,256,128257,1,0
344,208,128336,1,0
256,328,128494,1,0
256,280,128573,1,4
168,304,128731,1,4
344,304,128888,5,0
256,248,129046,1,0
344,112,129204,1,4
256,152,129362,1,0
168,112,129520,1,0
256,328,129678,1,4
256,56,129836,1,4
256,56,129915,1,0
256,56,129994,1,4
352,48,130152,6,0,B|396:55|396:55|448:32,1,95
160,48,130467,2,0,B|116:55|116:55|64:32,1,95,4|0
104,120,130783,1,0
320,192,130941,1,0
192,192,131099,1,4
408,120,131257,1,4
192,192,131415,6,0,B|64:192,1,95,0|0
320,192,131731,2,0,B|273:192,1,47.5,4|0
424,192,131967,1,0
88,192,132204,1,0
208,264,132362,5,4
192,168,132520,1,4
304,120,132678,1,0
320,216,132836,1,0
320,216,132915,1,0
192,168,133073,1,0
192,168,133152,1,0
408,148,133310,1,0
408,148,133388,1,0
104,236,133546,1,0
104,236,133625,1,4
256,192,133783,1,4
352,192,133941,6,0,B|400:184|400:184|456:192,1,95
440,288,134257,1,4
160,192,134415,2,0,B|104:200|104:200|56:192,1,95
64,96,134731,1,4
256,48,134888,1,4
256,96,134967,1,0
256,144,135046,1,4
256,240,135204,5,0
336,192,135362,1,0
176,192,135520,1,4
432,176,135678,1,0
80,208,135836,1,0
384,272,135994,1,0
128,112,136152,1,4
432,176,136310,1,4
80,208,136467,6,0,B|184:192,1,95,4|0
256,240,136783,1,4
256,288,136862,1,0
160,280,137020,2,0,B|16:304,1,142.5
128,112,137415,2,4,B|240:88,1,95
80,208,137731,6,0,B|144:192|144:192|192:208,1,95
432,208,137967,2,0,B|368:200|368:200|320:176,1,95
256,56,138204,2,0,B|248:80|248:80|264:112|264:112|256:160,1,95
256,192,138441,1,0
256,320,138599,1,0
256,320,138678,1,4
176,268,138836,1,4
256,320,138994,5,0
336,268,139152,1,0
140,360,139309,1,4
372,360,139467,1,0
88,292,139625,1,0
424,292,139783,1,4
256,320,139941,1,4
256,320,140020,1,0
256,320,140099,1,4
320,192,140257,5,0
368,112,140415,1,0
448,160,140573,1,4
400,240,140731,1,0
320,192,140888,1,0
456,60,141046,1,0
500,244,141204,1,4
316,284,141362,1,4
272,108,141520,6,0,B|240:68|240:68|196:48,1,95
200,280,141836,2,0,B|244:336,1,47.5,4|0
120,244,142073,1,0
392,140,142309,1,0
391,237,142467,6,0,B|357:261|357:261|304:264,1,95,4|4
120,146,142783,2,0,B|155:123|155:123|208:120,1,95,0|0
208,120,143020,1,0
192,232,143178,1,0
192,232,143257,1,0
256,376,143415,1,0
256,376,143494,1,0
320,152,143652,1,0
320,152,143731,1,4
256,8,143888,1,4
402,104,144046,6,0,B|306:160,1,95
144,72,144362,1,4
138,311,144520,2,0,B|194:231,1,95
368,312,144836,1,4
260,295,144994,1,4
288,256,145073,1,0
314,217,145152,1,4
336,120,145309,5,0
256,64,145467,1,0
176,120,145625,1,4
336,120,145783,1,0
256,64,145941,1,0
80,96,146099,1,4
256,160,146257,1,0
432,96,146415,1,4
256,160,146573,6,0,B|240:216|240:216|256:248|256:248|280:288|280:288|256:352,1,190
224,304,146967,1,0
200,264,147046,1,0
176,224,147125,1,0
192,176,147204,1,0
256,64,147362,5,2
192,176,147520,5,0
216,216,147599,1,0
256,240,147678,1,0
296,216,147757,1,0
320,176,147836,1,0
408,136,147994,5,2
408,136,148073,1,0
384,176,148152,1,2
384,176,148231,1,0
360,216,148309,1,0
328,304,148467,1,2
344,352,148546,1,2
176,256,148704,1,2
160,304,148783,1,2
256,240,148941,1,2
66,241,149178,5,2
50,289,149257,1,0
256,240,149415,1,2
256,144,149573,2,0,B|256:96,2,47.5
240,48,149888,1,2
272,336,150046,1,4
256,240,150362,6,0,B|192:248|192:248|168:272,1,95,0|2
344,112,150678,1,4
400,296,150994,6,0,B|352:240|352:240|344:200,1,95,0|2
112,88,151309,2,0,B|152:120|152:120|168:184,1,95,0|2
349,221,151625,5,4
160,160,151941,5,0
160,160,152020,1,0
120,184,152099,1,0
80,208,152178,1,0
32,192,152257,1,0
72,104,152415,1,2
232,224,152573,5,0
272,192,152652,1,0
312,160,152731,1,0
352,128,152809,1,0
392,96,152888,1,0
328,24,153046,5,2
328,24,153125,1,0
280,32,153204,1,2
280,32,153283,1,0
256,72,153362,1,0
184,24,153520,1,2
232,32,153599,1,0
176,120,153757,1,2
160,168,153836,1,0
256,152,153994,1,6
336,120,154152,5,2
344,144,154231,1,0
352,168,154309,1,2
256,152,154467,1,6
216,240,154625,2,2,B|200:280,5,23.75
216,240,154941,1,2
304,344,155099,1,4
304,344,155415,6,0,B|224:328|224:328|192:336,1,95
392,296,155731,1,4
336,112,156046,2,0,B|296:168|296:168|264:176,1,95,0|2
256,80,156362,1,0
216,112,156441,1,0
184,144,156520,1,2
416,192,156678,5,4
328,232,156836,1,0
288,320,156994,1,0
256,280,157073,1,0
160,304,157231,1,0
256,192,157467,1,0
184,144,157625,5,8
256,80,157783,1,8
328,144,157941,1,0
256,80,158099,1,0
256,32,158178,1,0
328,144,158336,1,0
352,96,158415,1,0
256,224,158573,1,0
256,272,158652,1,0
184,144,158809,1,0
160,96,158888,1,8
256,32,159046,1,8
48,136,159204,6,0,B|56:192|56:192|40:240,1,95
136,176,159520,1,8
208,248,159678,2,0,B|256:240|256:240|312:256,1,95,0|0
376,176,159994,1,8
464,136,160152,1,8
456,184,160231,1,0
472,232,160309,1,8
376,176,160467,6,0,B|272:224,1,95,0|8
272,120,160783,2,0,B|183:85,1,95,0|8
96,56,161099,1,0
272,120,161257,1,0
256,16,161415,1,8
288,216,161573,1,8
192,192,161731,6,0,B|160:280,1,95,0|0
96,208,162046,2,0,B|72:264,1,47.5,8|0
0,216,162283,1,0
24,360,162520,1,0
112,328,162678,2,8,B|136:288|136:288|192:280,1,95
256,344,162994,5,0
328,280,163152,1,0
328,280,163231,1,0
400,328,163388,1,0
400,328,163467,1,0
408,232,163625,1,0
408,232,163704,1,0
104,232,163862,1,0
104,232,163941,1,8
256,192,164099,1,8
343,83,164257,6,0,B|304:112|304:112|256:120,1,95,0|8
200,40,164573,1,0
168,300,164731,2,0,B|208:272|208:272|256:264,1,95,8|0
192,192,165046,1,8
256,120,165204,1,8
304,112,165283,1,0
344,83,165362,1,8
384,176,165520,6,0,B|432:192|432:192|472:240,1,95,0|8
128,208,165836,2,8,B|80:192|80:192|40:144,1,95,8|8
304,48,166152,1,0
208,336,166309,1,0
224,96,166467,1,8
288,288,166625,1,8
256,192,166783,1,4
256,216,168046,5,2
256,200,168125,1,2
256,184,168204,1,2
256,168,168283,1,2
384,192,169625,5,4
192,192,169941,1,4
256,80,170152,1,0
256,16,170257,1,4
320,192,170573,5,4
256,264,170731,1,0
192,192,170888,1,4
256,120,171046,1,0
448,192,171204,1,4
256,264,171362,1,4
64,192,171520,1,4
