osu file format v14

[General]
AudioFilename: Subarashiki FUN!TASY.mp3
AudioLeadIn: 1000
PreviewTime: 60628
Countdown: 0
SampleSet: Soft
StackLeniency: 0.7
Mode: 0
LetterboxInBreaks: 0
WidescreenStoryboard: 0

[Editor]
DistanceSpacing: 2
BeatDivisor: 4
GridSize: 4
TimelineZoom: 1

[Metadata]
Title:Subarashiki FUN!TASY
TitleUnicode:素晴ラシキFUN!TASY
Artist:BRILLIANT4
ArtistUnicode:BRILLIANT4
Creator:Kawaiwkyik
Version:Insane
Source:Amagi Brilliant Park
Tags:甘城ブリリアントパーク awaken einess sammy711 smallboat
BeatmapID:590739
BeatmapSetID:237995

[Difficulty]
HPDrainRate:6
CircleSize:4
OverallDifficulty:7
ApproachRate:9
SliderMultiplier:1.6
SliderTickRate:1

[Events]
//Background and Video events
0,0,"bg.jpg",0,0
//Break Periods
2,167041,177166
//Storyboard Layer 0 (Background)
//Storyboard Layer 1 (Fail)
//Storyboard Layer 2 (Pass)
//Storyboard Layer 3 (Foreground)
//Storyboard Sound Samples

[TimingPoints]
368,346.820809248555,4,2,1,60,1,0
12853,-133.333333333333,4,2,1,40,0,0
14414,-100,4,2,1,70,0,0
15628,-100,4,2,1,60,0,0
32275,-133.333333333333,4,2,1,60,0,0
35050,-100,4,2,1,60,0,0
37824,-133.333333333333,4,2,1,60,0,0
48576,-90.9090909090909,4,2,1,60,0,0
48922,-100,4,2,1,60,0,0
60714,-166.666666666667,4,2,1,60,0,0
61235,-100,4,2,1,70,0,1
71813,-100,4,2,1,60,0,0
72506,-100,4,2,1,70,0,1
86379,-100,4,2,1,60,0,0
115512,-133.333333333333,4,2,1,60,0,0
118287,-100,4,2,1,60,0,0
121061,-133.333333333333,4,2,1,60,0,0
131813,-90.9090909090909,4,2,1,60,0,0
132159,-100,4,2,1,60,0,0
143951,-166.666666666667,4,2,1,60,0,0
144472,-100,4,2,1,70,0,1
155050,-100,4,2,1,60,0,0
155743,-100,4,2,1,70,0,1
166841,-100,4,2,1,60,0,0
214703,-166.666666666667,4,2,1,60,0,0
215223,-100,4,2,1,70,0,1
225801,-100,4,2,1,60,0,0
226495,-100,4,2,1,70,0,1
240368,-100,4,2,1,60,0,0

[Colours]
Combo1 : 245,220,171
Combo2 : 128,64,64
Combo3 : 77,166,255
Combo4 : 255,0,0

[HitObjects]
120,100,1755,6,0,L|228:92,1,80,4|0,0:0|0:0,0:0:0:0:
272,232,2102,2,0,P|284:184|276:140,1,80,8|0,0:0|0:0,0:0:0:0:
120,100,2448,2,0,P|108:148|116:192,1,80,8|2,0:0|0:0,0:0:0:0:
292,56,2795,1,8,0:0:0:0:
160,16,2969,1,0,0:0:0:0:
188,232,3142,6,0,L|200:148,1,80,8|0,0:0|0:0,0:0:0:0:
104,272,3489,2,0,L|92:356,1,80,8|0,0:0|0:0,0:0:0:0:
236,320,3836,2,0,P|276:316|316:288,1,80,8|0,0:0|0:0,0:0:0:0:
104,272,4183,2,0,P|64:276|24:304,1,80,8|0,0:0|0:0,0:0:0:0:
248,232,4529,5,8,0:0:0:0:
172,172,4703,1,0,0:0:0:0:
88,220,4876,2,0,L|-28:208,1,80,8|0,0:0|0:0,0:0:0:0:
164,367,5223,2,0,P|185:334|187:295,1,80,8|0,0:0|0:0,0:0:0:0:
260,136,5570,1,8,0:0:0:0:
104,272,5743,1,0,0:0:0:0:
296,308,5917,6,0,L|288:260,1,40,8|0,0:3|0:0,0:0:0:0:
220,232,6090,2,0,L|213:271,1,40
196,356,6263,1,8,0:3:0:0:
356,376,6437,2,0,P|408:380|460:296,1,160,4|0,0:0|0:0,0:0:0:0:
412,112,6957,2,0,L|396:224,1,80,8|8,0:0|0:0,0:0:0:0:
400,191,7217,1,0,0:0:0:0:
400,191,7304,5,4,0:0:0:0:
384,304,7477,1,0,0:0:0:0:
276,360,7651,1,8,0:0:0:0:
260,247,7824,1,0,0:0:0:0:
176,120,7998,2,0,L|160:224,1,80,8|0,0:0|0:0,0:0:0:0:
240,360,8344,2,8,L|189:297,1,80,8|0,0:0|0:0,0:0:0:0:
28,312,8691,6,0,P|68:296|108:256,1,80,8|0,0:0|0:0,0:0:0:0:
76,112,9038,1,8,0:0:0:0:
20,216,9211,1,0,0:0:0:0:
180,303,9385,2,0,P|185:264|172:227,1,80,8|0,0:0|0:0,0:0:0:0:
76,112,9732,2,0,P|70:151|83:188,1,80,8|0,0:0|0:0,0:0:0:0:
152,32,10078,6,0,L|256:20,1,80,8|0,0:0|0:0,0:0:0:0:
344,128,10425,2,0,L|240:116,1,80,8|0,0:0|0:0,0:0:0:0:
440,84,10772,1,8,0:0:0:0:
456,252,10946,1,0,0:0:0:0:
508,164,11119,1,8,0:0:0:0:
356,228,11292,1,0,0:0:0:0:
312,108,11466,6,0,L|300:48,1,40,8|0,0:3|0:0,0:0:0:0:
228,44,11639,2,0,L|220:83,1,40
256,196,11813,1,8,0:3:0:0:
88,168,11986,6,0,P|72:128|144:40,1,160,4|0,0:0|0:0,0:0:0:0:
112,264,12506,2,0,L|24:272,1,80,8|8,0:0|0:0,0:0:0:0:
32,271,12766,1,0,0:0:0:0:
32,271,12853,5,6,0:0:0:0:
132,356,13026,1,0,0:0:0:0:
200,304,13200,2,0,L|264:308,1,60.0000022888184,2|0,0:3|0:0,0:0:0:0:
404,244,13547,1,2,0:0:0:0:
340,192,13720,1,0,0:0:0:0:
264,228,13894,2,0,L|204:224,1,60.0000022888184,2|0,0:3|0:0,0:0:0:0:
204,224,14240,5,2,0:0:0:0:
32,271,14414,2,0,P|12:208|76:132,1,160,8|2,0:0|0:0,0:0:0:0:
212,72,14934,2,0,L|204:160,1,80,8|0,0:3|0:0,0:0:0:0:
332,120,15281,1,8,0:0:0:0:
332,120,15628,6,0,P|260:112|140:88,2,160,4|8|2,0:0|0:0|0:0,0:0:0:0:
360,228,16495,1,2,0:0:0:0:
360,228,16668,2,0,P|344:296|336:336,1,80,8|0,0:0|0:0,0:0:0:0:
196,212,17015,6,0,P|262:191|301:178,1,80,2|0,0:0|0:0,0:0:0:0:
220,352,17362,2,0,P|150:348|109:347,1,80,8|0,0:0|0:0,0:0:0:0:
36,252,17709,1,2,0:0:0:0:
196,212,17882,1,2,0:0:0:0:
140,347,18055,1,8,0:0:0:0:
48,240,18229,1,0,0:0:0:0:
181,134,18402,6,0,P|195:172|196:212,1,80,2|0,0:0|0:0,0:0:0:0:
140,348,18749,2,0,P|172:324|210:313,1,80,8|0,0:0|0:0,0:0:0:0:
372,352,19096,1,2,0:0:0:0:
300,304,19269,1,2,0:0:0:0:
448,216,19443,2,0,L|440:296,1,80,8|0,0:0|0:0,0:0:0:0:
296,172,19789,5,2,0:0:0:0:
388,124,19963,1,0,0:0:0:0:
208,112,20136,2,0,L|192:212,1,80,8|0,0:0|0:0,0:0:0:0:
280,344,20483,2,0,L|267:265,1,80,2|2,0:0|0:0,0:0:0:0:
195,190,20830,1,8,0:0:0:0:
168,328,21003,1,0,0:0:0:0:
348,288,21177,5,2,0:0:0:0:
348,288,21350,1,0,0:0:0:0:
420,336,21524,2,0,P|432:292|424:244,1,80,8|0,0:0|0:0,0:0:0:0:
368,112,21870,2,0,P|356:156|364:204,1,80,2|2,0:0|0:0,0:0:0:0:
276,324,22217,2,0,L|192:316,1,80,8|0,0:0|0:0,0:0:0:0:
144,204,22564,5,2,0:0:0:0:
268,152,22737,1,0,0:0:0:0:
276,324,22911,2,0,L|355:331,1,80,8|0,0:0|0:0,0:0:0:0:
376,152,23258,2,0,P|356:200|364:264,1,80,2|2,0:0|0:0,0:0:0:0:
268,152,23604,1,8,0:0:0:0:
456,88,23778,1,0,0:0:0:0:
440,212,23951,6,0,L|356:200,1,80,2|0,0:0|0:0,0:0:0:0:
260,252,24298,2,0,L|268:340,1,80,8|0,0:0|0:0,0:0:0:0:
172,192,24645,2,0,L|180:104,1,80,2|2,0:0|0:0,0:0:0:0:
268,152,24992,1,8,0:0:0:0:
168,292,25165,1,0,0:0:0:0:
68,188,25339,5,8,0:0:0:0:
184,88,25512,1,0,0:0:0:0:
208,236,25685,1,8,0:0:0:0:
88,72,25859,5,8,0:0:0:0:
88,72,26206,1,8,0:0:0:0:
88,72,26552,1,8,0:0:0:0:
60,316,26726,6,0,P|44:264|24:144,1,160,4|8,0:0|0:0,0:0:0:0:
88,72,27246,1,2,0:0:0:0:
164,244,27420,2,0,P|170:204|180:165,1,80,0|2,0:0|0:0,0:0:0:0:
288,224,27766,2,0,P|281:263|271:302,1,80,8|0,0:0|0:0,0:0:0:0:
160,128,28113,5,2,0:0:0:0:
292,72,28287,1,0,0:0:0:0:
380,200,28460,2,0,L|284:192,1,80,8|2,0:0|0:0,0:0:0:0:
200,264,28807,2,0,P|191:303|196:342,1,80,0|2,0:0|0:0,0:0:0:0:
208,144,29154,2,0,P|216:104|211:65,1,80,8|0,0:0|0:0,0:0:0:0:
3,149,29500,6,0,P|58:204|136:204,1,160,2|8,0:0|0:0,0:0:0:0:
208,144,30021,1,2,0:0:0:0:
279,271,30194,2,0,L|200:264,1,80,0|2,0:0|0:0,0:0:0:0:
160,60,30541,2,0,L|239:52,1,80,8|0,0:0|0:0,0:0:0:0:
376,116,30888,5,2,0:0:0:0:
240,172,31061,1,0,0:0:0:0:
380,244,31235,1,8,0:0:0:0:
280,272,31408,1,2,0:0:0:0:
412,352,31581,2,0,L|504:348,1,80,0|2,0:0|0:0,0:0:0:0:
380,244,31928,1,8,0:0:0:0:
276,360,32102,1,2,0:0:0:0:
168,152,32275,6,0,P|196:108|272:104,1,120.000004577637,4|2,0:0|0:0,0:0:0:0:
259,98,32795,1,0,0:0:0:0:
233,231,32969,2,0,L|240:172,1,60.0000022888184,8|2,0:0|0:0,0:0:0:0:
336,60,33315,2,0,L|342:119,1,60.0000022888184,8|0,0:0|0:0,0:0:0:0:
368,264,33662,5,2,0:0:0:0:
368,264,33836,1,2,0:0:0:0:
368,264,34009,2,0,L|448:248,1,60.0000022888184,8|0,0:0|0:0,0:0:0:0:
280,212,34356,2,0,P|268:256|276:292,1,60.0000022888184,8|2,0:0|0:0,0:0:0:0:
376,152,34703,1,8,0:0:0:0:
292,84,34876,1,2,0:0:0:0:
180,168,35050,6,0,L|80:160,1,80,4|0,0:0|0:0,0:0:0:0:
32,228,35396,1,8,0:0:0:0:
124,304,35570,1,0,0:0:0:0:
200,140,35743,1,2,0:0:0:0:
40,92,35917,1,2,0:0:0:0:
112,204,36090,1,8,0:0:0:0:
192,24,36263,5,8,0:0:0:0:
192,24,36610,1,8,0:0:0:0:
192,24,36957,1,8,0:0:0:0:
200,140,37131,5,8,0:0:0:0:
312,176,37304,1,8,0:3:0:0:
288,60,37477,1,12,0:3:0:0:
288,60,37824,6,0,P|292:96|308:132,1,60.0000022888184,4|0,0:0|0:0,0:0:0:0:
372,176,38171,2,0,P|405:190|444:194,1,60.0000022888184,0|2,0:0|0:0,0:0:0:0:
312,260,38518,2,0,P|278:245|239:241,1,60.0000022888184,2|0,0:0|0:0,0:0:0:0:
344,340,38865,2,0,P|373:318|396:286,1,60.0000022888184,8|0,0:0|0:0,0:0:0:0:
260,332,39211,6,0,P|208:348|140:312,1,120.000004577637
149,323,39732,1,2,0:0:0:0:
220,204,39905,2,0,L|208:276,1,60.0000022888184,2|0,0:0|0:0,0:0:0:0:
144,152,40252,2,0,L|132:224,1,60.0000022888184,8|0,0:0|0:0,0:0:0:0:
24,316,40599,6,0,P|72:304|160:292,2,120.000004577637,0|0|2,0:0|0:0|0:0,0:0:0:0:
44,228,41466,1,0,0:0:0:0:
44,228,41639,2,0,L|32:156,1,60.0000022888184,8|0,0:0|0:0,0:0:0:0:
76,88,41986,5,0,0:0:0:0:
76,88,42159,1,2,0:0:0:0:
140,216,42333,2,0,L|130:275,1,60.0000022888184,0|2,0:0|0:0,0:0:0:0:
144,132,42680,2,0,L|200:110,1,60.0000022888184,0|2,0:0|0:0,0:0:0:0:
324,180,43026,1,8,0:0:0:0:
324,180,43373,6,0,P|360:188|424:144,1,120.000004577637
424,143,43894,1,0,0:0:0:0:
472,220,44067,2,0,L|464:304,1,60.0000022888184
380,260,44414,2,0,L|372:344,1,60.0000022888184,8|0,0:0|0:0,0:0:0:0:
288,292,44761,5,0,0:0:0:0:
288,292,44934,1,2,0:0:0:0:
216,348,45107,2,0,P|204:312|204:284,1,60.0000022888184,0|2,0:0|0:0,0:0:0:0:
232,156,45454,2,0,P|244:192|244:220,1,60.0000022888184,2|0,0:0|0:0,0:0:0:0:
120,244,45801,2,0,P|145:215|169:201,1,60.0000022888184,8|0,0:0|0:0,0:0:0:0:
120,344,46148,6,0,P|80:352|0:316,1,120.000004577637
8,324,46668,1,2,0:0:0:0:
120,244,46841,2,0,P|160:236|240:272,1,120.000004577637,2|8,0:0|0:0,0:0:0:0:
24,176,47535,6,0,L|32:116,1,60.0000022888184,0|2,0:0|0:0,0:0:0:0:
124,40,47882,2,0,L|116:100,1,60.0000022888184,8|2,0:0|0:0,0:0:0:0:
184,168,48229,2,0,L|268:160,1,60.0000022888184
320,228,48576,6,0,P|340:188|328:100,1,132.00000402832,8|0,0:0|0:0,0:0:0:0:
268,4,48922,6,0,P|256:56|264:108,1,80,4|0,0:0|0:0,0:0:0:0:
372,164,49269,2,0,L|460:156,1,80,8|0,0:0|0:0,0:0:0:0:
312,268,49616,1,2,0:0:0:0:
184,168,49789,1,0,0:0:0:0:
336,68,49963,2,0,L|328:148,1,80,8|0,0:0|0:0,0:0:0:0:
228,304,50310,5,2,0:0:0:0:
184,168,50483,1,0,0:0:0:0:
228,304,50657,2,0,P|272:316|332:304,1,80,8|0,0:0|0:0,0:0:0:0:
120,264,51003,2,0,L|40:284,1,80,2|0,0:0|0:0,0:0:0:0:
240,324,51350,1,8,0:0:0:0:
224,168,51524,1,0,0:0:0:0:
324,332,51697,6,0,P|336:288|352:248,1,80,2|0,0:0|0:0,0:0:0:0:
436,160,52044,2,0,P|450:197|460:236,1,80,8|0,0:0|0:0,0:0:0:0:
320,136,52391,2,0,P|323:96|330:56,1,80,2|0,0:0|0:0,0:0:0:0:
436,160,52737,1,8,0:0:0:0:
308,252,52911,1,0,0:0:0:0:
232,88,53084,6,0,P|229:128|222:168,1,80,2|0,0:0|0:0,0:0:0:0:
308,32,53431,1,8,0:0:0:0:
152,116,53604,1,0,0:0:0:0:
296,228,53778,2,0,L|376:216,1,80,2|0,0:0|0:0,0:0:0:0:
204,188,54125,2,0,L|124:200,1,80,8|0,0:0|0:0,0:0:0:0:
252,356,54472,6,0,P|276:308|224:208,1,160,0|8,0:0|0:0,0:0:0:0:
32,312,54992,2,0,B|92:300|92:300|136:304|136:304|200:292,1,160,12|0,0:0|0:0,0:0:0:0:
104,136,55512,2,0,L|96:228,1,80,8|0,0:0|0:0,0:0:0:0:
276,328,55859,6,0,L|269:248,1,80,0|0,0:0|0:0,0:0:0:0:
252,128,56206,1,8,0:0:0:0:
164,276,56379,1,0,0:0:0:0:
352,236,56552,5,8,0:0:0:0:
176,160,56726,1,8,0:0:0:0:
176,160,57073,6,0,P|232:156|344:124,1,160,4|0,0:0|0:0,0:0:0:0:
264,48,57593,1,8,0:0:0:0:
228,236,57766,1,0,0:0:0:0:
320,208,57940,1,0,0:0:0:0:
144,124,58113,1,0,0:0:0:0:
144,288,58287,2,0,L|232:272,1,80,8|0,0:0|0:0,0:0:0:0:
60,164,58633,5,8,0:0:0:0:
48,292,58807,2,0,L|40:356,2,40,0|0|8,0:0|0:0|0:0,0:0:0:0:
148,204,59154,1,0,0:0:0:0:
148,204,59240,1,0,0:0:0:0:
148,204,59327,1,8,0:0:0:0:
224,332,59500,1,0,0:0:0:0:
224,332,59586,1,0,0:0:0:0:
224,332,59674,2,0,P|288:320|352:312,1,120,8|0,0:0|0:0,0:0:0:0:
384,316,60021,5,8,0:0:0:0:
276,196,60194,1,2,0:0:0:0:
320,352,60368,1,8,0:0:0:0:
380,132,60541,1,8,0:0:0:0:
456,352,60714,5,0,0:0:0:0:
456,352,60888,2,0,P|464:320|460:296,1,47.9999985351563,2|0,0:1|0:0,0:0:0:0:
380,132,61235,6,0,P|364:188|376:296,1,160,4|0,0:0|0:0,0:0:0:0:
456,240,61755,1,8,0:0:0:0:
292,184,61928,1,0,0:0:0:0:
328,360,62102,1,0,0:0:0:0:
472,215,62275,2,0,P|470:176|457:138,1,80,0|8,0:0|0:0,0:0:0:0:
336,348,62622,5,0,0:0:0:0:
336,348,62709,1,0,0:0:0:0:
336,348,62795,5,0,0:0:0:0:
456,280,62969,1,0,0:0:0:0:
272,216,63142,2,0,L|256:324,1,80,8|0,0:0|0:0,0:0:0:0:
204,144,63489,1,0,0:0:0:0:
204,144,63576,1,0,0:0:0:0:
204,144,63662,1,0,0:0:0:0:
356,264,63836,1,8,0:0:0:0:
156,336,64009,1,0,0:0:0:0:
156,336,64096,1,0,0:0:0:0:
156,336,64183,6,0,P|148:284|136:228,1,80
191,67,64529,2,0,P|199:119|211:175,1,80,8|0,0:0|0:0,0:0:0:0:
272,236,64876,1,0,0:0:0:0:
360,112,65050,1,0,0:0:0:0:
200,176,65223,1,8,0:0:0:0:
360,224,65396,1,0,0:0:0:0:
244,16,65570,6,0,L|232:116,1,80,0|0,0:0|0:0,0:0:0:0:
112,228,65917,2,0,L|102:148,1,80,8|0,0:0|0:0,0:0:0:0:
192,280,66263,1,0,0:0:0:0:
60,336,66437,1,0,0:0:0:0:
60,336,66524,1,0,0:0:0:0:
60,336,66610,1,8,0:0:0:0:
256,331,66784,2,0,P|265:314|271:295,1,40
192,280,66957,6,0,P|148:284|104:180,1,160,4|8,0:0|0:0,0:0:0:0:
148,68,67477,1,0,0:0:0:0:
272,156,67651,1,0,0:0:0:0:
64,192,67824,2,0,L|79:105,1,80,0|8,0:0|0:0,0:0:0:0:
139,326,68171,6,0,L|60:336,1,80,0|0,0:0|0:0,0:0:0:0:
88,198,68518,1,0,0:0:0:0:
224,380,68691,2,0,P|240:336|228:284,1,80,8|0,0:0|0:0,0:0:0:0:
272,156,69038,1,0,0:0:0:0:
168,240,69211,1,0,0:0:0:0:
328,264,69385,1,8,0:0:0:0:
160,328,69558,1,0,0:0:0:0:
168,144,69732,6,0,L|252:128,1,80,8|0,0:0|0:0,0:0:0:0:
344,240,70078,2,0,L|260:256,1,80,8|0,0:0|0:0,0:0:0:0:
168,144,70425,2,0,P|160:92|176:52,1,80,8|0,0:0|0:0,0:0:0:0:
344,240,70772,2,0,P|352:292|336:332,1,80,8|0,0:0|0:0,0:0:0:0:
176,280,71119,5,8,0:0:0:0:
364,260,71292,1,8,0:0:0:0:
280,120,71466,1,0,0:0:0:0:
256,332,71639,1,12,0:0:0:0:
200,80,71813,5,0,0:0:0:0:
172,108,71899,1,0,0:0:0:0:
145,111,71986,1,0,0:0:0:0:
112,108,72073,1,0,0:0:0:0:
82,97,72159,2,0,L|76:48,1,40,8|0,0:0|0:0,0:0:0:0:
4,84,72333,2,0,L|0:123,1,40
32,240,72506,6,0,P|72:252|180:192,1,160,4|8,0:0|0:0,0:0:0:0:
300,224,73026,1,0,0:0:0:0:
136,284,73200,1,0,0:0:0:0:
288,340,73373,2,0,L|300:236,1,80,0|8,0:0|0:0,0:0:0:0:
364,140,73720,5,0,0:0:0:0:
392,312,73894,1,0,0:0:0:0:
380,152,74067,2,0,L|392:56,1,80,0|8,0:0|0:0,0:0:0:0:
264,24,74414,1,0,0:0:0:0:
200,144,74587,1,0,0:0:0:0:
200,144,74674,1,0,0:0:0:0:
200,144,74761,1,0,0:0:0:0:
348,240,74934,2,0,L|448:232,1,80,8|0,0:0|0:0,0:0:0:0:
264,184,75281,6,0,P|248:228|256:288,1,80,0|0,0:0|0:0,0:0:0:0:
380,152,75628,2,0,P|396:108|388:48,1,80,8|0,0:0|0:0,0:0:0:0:
228,32,75974,1,0,0:0:0:0:
372,80,76148,1,0,0:0:0:0:
256,160,76321,1,8,0:0:0:0:
448,104,76495,1,0,0:0:0:0:
328,241,76668,6,0,L|408:252,1,80
192,296,77015,2,0,P|180:252|188:212,1,80,8|0,0:0|0:0,0:0:0:0:
268,60,77362,2,0,P|280:104|272:144,1,80,0|0,0:0|0:0,0:0:0:0:
185,218,77709,1,8,0:0:0:0:
316,272,77882,1,0,0:0:0:0:
152,128,78055,6,0,P|104:160|100:268,1,160,4|8,0:0|0:0,0:0:0:0:
284,108,78576,2,0,P|268:164|268:196,1,80
400,296,78922,2,0,P|396:256|383:218,1,80,0|8,0:0|0:0,0:0:0:0:
336,356,79269,1,0,0:0:0:0:
464,188,79443,6,0,P|444:156|312:160,1,160,4|8,0:0|0:0,0:0:0:0:
272,240,79963,1,0,0:0:0:0:
212,60,80136,2,0,L|192:160,1,80
264,320,80483,2,0,L|248:241,1,80,8|0,0:0|0:0,0:0:0:0:
28,196,80830,6,0,P|72:240|176:216,1,160,4|8,0:0|0:0,0:0:0:0:
124,76,81350,2,0,L|108:164,1,80
164,320,81697,1,0,0:0:0:0:
272,240,81870,1,8,0:0:0:0:
88,276,82044,1,8,0:0:0:0:
88,276,82131,1,8,0:0:0:0:
88,276,82217,6,0,B|64:236|64:236|80:116,1,160,4|8,0:0|0:0,0:0:0:0:
264,88,82737,1,8,0:0:0:0:
264,88,82824,1,8,0:0:0:0:
264,88,82911,2,0,B|288:128|288:128|272:248,1,160,4|8,0:0|0:0,0:0:0:0:
256,344,83431,1,0,0:0:0:0:
184,272,83604,5,4,0:0:0:0:
360,208,83778,1,0,0:0:0:0:
240,168,83951,1,0,0:0:0:0:
288,356,84125,1,0,0:0:0:0:
392,296,84298,1,0,0:0:0:0:
264,252,84472,1,0,0:0:0:0:
440,312,84645,1,0,0:0:0:0:
416,144,84818,1,8,0:3:0:0:
416,144,84905,1,4,0:3:0:0:
416,144,84992,1,8,0:3:0:0:
232,48,85165,6,0,P|189:113|204:190,1,160,8|0,0:0|0:0,0:0:0:0:
280,336,85685,2,0,P|322:270|307:193,1,160,8|0,0:0|0:0,0:0:0:0:
76,152,86379,6,0,L|104:240,1,80,4|0,0:0|0:0,0:0:0:0:
256,192,86726,2,0,L|165:172,1,80,8|0,0:0|0:0,0:0:0:0:
140,324,87073,2,0,L|202:255,1,80,8|0,0:0|0:0,0:0:0:0:
268,336,87420,1,8,0:0:0:0:
56,360,87593,1,0,0:0:0:0:
96,168,87766,6,0,P|112:220|112:280,1,80,8|0,0:0|0:0,0:0:0:0:
40,92,88113,2,0,P|45:52|58:14,1,80,8|0,0:0|0:0,0:0:0:0:
173,186,88460,2,0,P|133:181|96:168,1,80,8|0,0:0|0:0,0:0:0:0:
256,248,88807,2,0,P|272:200|268:160,1,80,8|0,0:0|0:0,0:0:0:0:
156,284,89154,5,8,0:0:0:0:
284,352,89327,1,0,0:0:0:0:
320,168,89500,2,0,L|212:148,1,80,8|0,0:0|0:0,0:0:0:0:
360,284,89847,2,0,L|468:264,1,80,8|0,0:0|0:0,0:0:0:0:
415,84,90194,2,0,P|401:120|401:160,1,80,8|0,0:0|0:0,0:0:0:0:
360,312,90541,6,0,L|348:264,1,40,8|0,0:3|0:0,0:0:0:0:
280,232,90714,2,0,L|270:270,1,40
240,360,90888,1,0,0:3:0:0:
196,175,91061,2,0,P|261:133|339:144,1,160,4|0,0:0|0:0,0:0:0:0:
456,284,91581,2,0,L|364:276,1,80,8|8,0:0|0:0,0:0:0:0:
376,277,91841,1,0,0:0:0:0:
376,277,91928,5,4,0:0:0:0:
428,176,92102,1,0,0:0:0:0:
292,188,92275,1,8,0:0:0:0:
320,356,92448,1,0,0:0:0:0:
180,288,92622,2,0,L|188:200,1,80,8|0,0:0|0:0,0:0:0:0:
300,92,92969,2,0,L|292:180,1,80,8|0,0:0|0:0,0:0:0:0:
376,277,93315,5,8,0:0:0:0:
460,176,93489,1,0,0:0:0:0:
300,92,93662,2,0,P|284:132|288:192,1,80,8|0,0:0|0:0,0:0:0:0:
320,356,94009,2,0,P|336:316|332:256,1,80,8|0,0:0|0:0,0:0:0:0:
220,292,94356,2,0,L|128:280,1,80,8|0,0:0|0:0,0:0:0:0:
96,192,94703,5,8,0:0:0:0:
240,144,94876,1,0,0:0:0:0:
304,284,95050,2,0,P|300:323|280:357,1,80,8|0,0:0|0:0,0:0:0:0:
204,256,95396,2,0,P|220:219|250:194,1,80,8|0,0:0|0:0,0:0:0:0:
420,324,95743,2,0,P|380:327|343:314,1,80,8|0,0:0|0:0,0:0:0:0:
420,128,96090,6,0,L|472:116,1,40,8|0,0:3|0:0,0:0:0:0:
360,184,96263,2,0,L|308:172,1,40
440,216,96437,1,8,0:3:0:0:
232,208,96610,2,0,P|224:160|304:84,1,160,4|0,0:0|0:0,0:0:0:0:
324,280,97131,1,8,0:0:0:0:
200,336,97304,1,0,0:0:0:0:
136,136,97477,5,8,0:0:0:0:
312,72,97651,1,8,0:0:0:0:
376,248,97824,1,8,0:0:0:0:
200,312,97998,1,8,0:0:0:0:
256,192,98344,5,2,0:0:0:0:
256,192,98518,1,4,0:3:0:0:
256,192,98865,6,0,P|268:144|252:88,1,80,4|0,0:0|0:0,0:0:0:0:
176,56,99211,1,8,0:0:0:0:
168,240,99385,2,0,L|344:220,1,160,2|2,0:0|0:0,0:0:0:0:
432,208,99905,1,8,0:0:0:0:
432,208,100078,1,0,0:0:0:0:
388,292,100252,5,0,0:0:0:0:
308,184,100425,1,2,0:0:0:0:
476,128,100599,1,8,0:0:0:0:
468,240,100772,2,0,L|288:228,1,160,2|2,0:0|0:0,0:0:0:0:
231,363,101292,2,0,P|213:329|213:289,1,80,8|0,0:0|0:0,0:0:0:0:
280,164,101639,5,2,0:0:0:0:
148,208,101813,1,0,0:0:0:0:
312,264,101986,1,8,0:0:0:0:
200,112,102159,2,0,L|188:288,1,160,2|2,0:0|0:0,0:0:0:0:
324,344,102680,1,8,0:0:0:0:
316,156,102853,5,0,0:0:0:0:
316,156,102940,1,0,0:0:0:0:
316,156,103026,2,0,L|320:256,1,80,2|2,0:0|0:0,0:0:0:0:
436,192,103373,1,8,0:0:0:0:
404,64,103547,1,2,0:0:0:0:
256,92,103720,5,0,0:0:0:0:
225,102,103806,1,0,0:0:0:0:
194,102,103893,1,0,0:0:0:0:
163,93,103980,1,0,0:0:0:0:
138,74,104067,2,0,L|124:28,1,40,8|0,0:0|0:0,0:0:0:0:
24,140,104240,2,0,L|82:150,1,40
124,264,104414,6,0,P|144:220|144:184,1,80,2|0,0:0|0:0,0:0:0:0:
112,80,104761,1,8,0:0:0:0:
228,204,104934,2,0,P|272:220|368:160,1,160,2|2,0:0|0:0,0:0:0:0:
288,44,105454,2,0,P|280:96|288:140,1,80,8|0,0:0|0:0,0:0:0:0:
420,92,105801,5,2,0:0:0:0:
288,44,105974,1,2,0:0:0:0:
440,128,106148,1,8,0:0:0:0:
312,208,106321,2,0,L|332:44,1,160,2|2,0:0|0:0,0:0:0:0:
488,216,106841,2,0,L|400:244,1,80,8|0,0:0|0:0,0:0:0:0:
244,260,107188,6,0,P|228:224|288:124,1,160,2|8,0:0|0:0,0:0:0:0:
352,344,107709,2,0,B|304:340|304:340|248:348|248:348|192:344,1,160,2|2,0:0|0:0,0:0:0:0:
192,344,108142,1,0,0:0:0:0:
192,344,108229,1,8,0:0:0:0:
216,172,108402,1,2,0:0:0:0:
356,304,108576,6,0,L|268:336,1,80,8|0,0:0|0:0,0:0:0:0:
344,172,108922,1,8,0:0:0:0:
456,312,109096,5,8,0:0:0:0:
456,312,109443,1,8,0:0:0:0:
456,312,109789,1,8,0:0:0:0:
268,348,109963,6,0,P|272:280|296:168,1,160,4|8,0:0|0:0,0:0:0:0:
328,84,110483,1,2,0:0:0:0:
400,224,110657,2,0,L|500:208,1,80,0|2,0:0|0:0,0:0:0:0:
347,335,111003,2,0,L|247:351,1,80,8|0,0:0|0:0,0:0:0:0:
280,200,111350,5,2,0:0:0:0:
420,244,111524,1,0,0:0:0:0:
280,200,111697,2,0,P|284:152|312:108,1,80,8|2,0:0|0:0,0:0:0:0:
352,300,112044,2,0,P|308:320|256:318,1,80,0|2,0:0|0:0,0:0:0:0:
164,288,112391,2,0,P|132:251|124:200,1,80,8|0,0:0|0:0,0:0:0:0:
288,84,112737,6,0,L|244:244,1,160,2|8,0:0|0:0,0:0:0:0:
352,300,113258,1,2,0:0:0:0:
376,184,113431,2,0,L|296:172,1,80,0|2,0:0|0:0,0:0:0:0:
184,92,113778,2,0,L|153:204,1,80,8|0,0:0|0:0,0:0:0:0:
200,300,114125,5,2,0:0:0:0:
296,172,114298,1,0,0:0:0:0:
140,200,114472,1,8,0:0:0:0:
368,224,114645,2,0,P|384:168|308:84,1,160,2|2,0:0|0:0,0:0:0:0:
284,280,115165,2,0,P|285:319|268:355,1,80,8|2,0:0|0:0,0:0:0:0:
238,178,115512,6,0,P|267:169|296:172,1,60.0000022888184,4|0,0:0|0:0,0:0:0:0:
368,224,115859,2,0,P|376:252|374:282,1,60.0000022888184,8|0,0:0|0:0,0:0:0:0:
236,360,116206,2,0,L|244:292,1,60.0000022888184,0|2,0:0|0:0,0:0:0:0:
148,168,116552,2,0,L|155:227,1,60.0000022888184,8|0,0:0|0:0,0:0:0:0:
80,300,116899,5,2,0:0:0:0:
80,300,117073,1,2,0:0:0:0:
88,112,117246,2,0,P|120:92|156:88,1,60.0000022888184,8|0,0:0|0:0,0:0:0:0:
141,87,117506,1,0,0:0:0:0:
141,87,117593,1,0,0:0:0:0:
236,120,117766,1,2,0:0:0:0:
156,248,117940,1,8,0:0:0:0:
96,144,118113,1,2,0:0:0:0:
284,52,118287,6,0,L|264:232,1,160,4|8,0:0|0:0,0:0:0:0:
320,300,118807,1,0,0:0:0:0:
155,247,118980,2,0,P|158:208|178:174,1,80,2|2,0:0|0:0,0:0:0:0:
232,320,119327,1,8,0:0:0:0:
80,348,119500,5,8,0:0:0:0:
80,348,119847,1,8,0:0:0:0:
80,348,120194,1,8,0:0:0:0:
8,272,120368,5,0,0:0:0:0:
32,180,120541,1,4,0:3:0:0:
56,88,120714,1,0,0:3:0:0:
56,88,121061,6,0,L|68:168,1,60.0000022888184,4|0,0:0|0:0,0:0:0:0:
148,128,121408,2,0,L|136:208,1,60.0000022888184,0|2,0:0|0:0,0:0:0:0:
132,28,121755,1,2,0:0:0:0:
132,28,121928,1,0,0:0:0:0:
204,72,122102,2,0,P|216:32|208:0,1,60.0000022888184,8|0,0:0|0:0,0:0:0:0:
232,152,122448,6,0,L|304:136,1,60.0000022888184,0|0,0:0|0:0,0:0:0:0:
364,192,122795,2,0,P|380:156|380:124,1,60.0000022888184,0|2,0:0|0:0,0:0:0:0:
324,12,123142,2,0,L|336:100,1,60.0000022888184,2|0,0:0|0:0,0:0:0:0:
456,104,123489,1,8,0:0:0:0:
456,104,123662,1,0,0:0:0:0:
435,221,123836,6,0,P|441:162|456:104,1,120.000004577637,2|0,0:0|0:0,0:0:0:0:
368,112,124356,1,0,0:0:0:0:
368,112,124529,2,0,L|292:104,1,60.0000022888184,2|0,0:0|0:0,0:0:0:0:
228,148,124876,2,0,P|220:188|228:232,1,60.0000022888184,8|0,0:0|0:0,0:0:0:0:
252,292,125223,5,0,0:0:0:0:
336,264,125396,1,2,0:0:0:0:
408,316,125570,2,0,L|480:304,1,60.0000022888184,0|2,0:0|0:0,0:0:0:0:
432,168,125917,2,0,L|420:244,1,60.0000022888184,2|0,0:0|0:0,0:0:0:0:
328,352,126263,1,8,0:0:0:0:
328,352,126610,6,0,L|256:336,1,60.0000022888184
180,344,126957,2,0,P|144:328|120:308,1,60.0000022888184,0|2,0:0|0:0,0:0:0:0:
192,204,127304,2,0,P|196:243|190:273,1,60.0000022888184,2|0,0:0|0:0,0:0:0:0:
64,263,127651,2,0,P|87:245|114:232,1,60.0000022888184,8|0,0:0|0:0,0:0:0:0:
48,348,127998,5,0,0:0:0:0:
48,348,128171,1,2,0:0:0:0:
24,260,128344,2,0,L|40:184,1,60.0000022888184,0|2,0:0|0:0,0:0:0:0:
80,124,128691,2,0,L|64:48,1,60.0000022888184
160,168,129038,2,0,L|236:152,1,60.0000022888184,8|0,0:0|0:0,0:0:0:0:
284,220,129385,6,0,P|308:168|288:96,1,120.000004577637
296,108,129905,1,2,0:0:0:0:
200,244,130078,2,0,P|176:296|196:368,1,120.000004577637,2|8,0:0|0:0,0:0:0:0:
452,284,130772,6,0,L|384:268,1,60.0000022888184,0|2,0:0|0:0,0:0:0:0:
364,184,131119,2,0,L|396:124,1,60.0000022888184,8|2,0:0|0:0,0:0:0:0:
308,256,131466,2,0,L|316:324,1,60.0000022888184
204,344,131813,6,0,P|164:328|64:336,1,132.00000402832,8|0,0:0|0:0,0:0:0:0:
12,360,132159,6,0,L|4:268,1,80,4|0,0:0|0:0,0:0:0:0:
88,144,132506,2,0,L|96:236,1,80,8|0,0:0|0:0,0:0:0:0:
224,264,132853,1,2,0:0:0:0:
92,332,133026,1,0,0:0:0:0:
288,360,133200,2,0,L|372:352,1,80,8|0,0:0|0:0,0:0:0:0:
332,172,133547,6,0,P|317:208|318:248,1,80,2|0,0:0|0:0,0:0:0:0:
296,84,133894,2,0,P|264:108|245:143,1,80,8|0,0:0|0:0,0:0:0:0:
396,304,134240,2,0,P|410:267|409:227,1,80,2|0,0:0|0:0,0:0:0:0:
232,252,134587,1,8,0:0:0:0:
288,360,134761,1,0,0:0:0:0:
332,172,134934,6,0,L|236:160,1,80,2|0,0:0|0:0,0:0:0:0:
176,316,135281,2,0,P|152:280|156:232,1,80,8|0,0:0|0:0,0:0:0:0:
252,162,135628,1,2,0:0:0:0:
96,192,135801,1,0,0:0:0:0:
232,252,135974,1,8,0:0:0:0:
176,80,136148,1,0,0:0:0:0:
80,204,136321,6,0,L|88:108,1,80,2|0,0:0|0:0,0:0:0:0:
132,304,136668,2,0,L|216:284,1,80,8|0,0:0|0:0,0:0:0:0:
336,296,137015,1,2,0:0:0:0:
224,176,137188,1,0,0:0:0:0:
224,376,137362,2,0,L|244:292,1,80,8|0,0:0|0:0,0:0:0:0:
176,80,137709,6,0,P|132:120|136:232,1,160,0|8,0:0|0:0,0:0:0:0:
382,183,138229,2,0,B|324:176|324:176|276:184|276:184|224:176,1,160,12|0,0:0|0:0,0:0:0:0:
324,268,138749,1,8,0:0:0:0:
468,196,138922,1,0,0:0:0:0:
320,80,139096,6,0,L|296:176,1,80,0|0,0:0|0:0,0:0:0:0:
472,160,139443,1,8,0:0:0:0:
404,32,139616,1,0,0:0:0:0:
292,180,139789,5,8,0:0:0:0:
464,232,139963,1,8,0:0:0:0:
464,232,140310,6,0,P|408:236|280:268,1,160,4|0,0:0|0:0,0:0:0:0:
240,316,140830,1,8,0:0:0:0:
396,356,141003,1,0,0:0:0:0:
352,276,141177,1,0,0:0:0:0:
160,336,141350,1,0,0:0:0:0:
212,184,141524,1,8,0:0:0:0:
416,224,141697,1,0,0:0:0:0:
260,348,141870,6,0,L|248:252,1,80
250,268,142131,1,0,0:0:0:0:
250,268,142217,1,8,0:0:0:0:
276,108,142391,1,0,0:0:0:0:
276,108,142477,1,0,0:0:0:0:
276,108,142564,1,8,0:0:0:0:
416,224,142737,1,0,0:0:0:0:
416,224,142824,1,0,0:0:0:0:
416,224,142911,2,0,P|355:211|284:208,1,120,8|0,0:0|0:0,0:0:0:0:
256,216,143258,5,8,0:0:0:0:
356,368,143431,1,2,0:0:0:0:
388,144,143604,1,8,0:0:0:0:
272,344,143778,1,8,0:0:0:0:
476,300,143951,5,0,0:0:0:0:
476,300,144125,2,0,L|420:296,1,47.9999985351563,2|0,0:1|0:0,0:0:0:0:
284,328,144472,6,0,P|260:280|292:172,1,160,4|0,0:0|0:0,0:0:0:0:
388,144,144992,1,8,0:0:0:0:
476,300,145165,1,0,0:0:0:0:
316,212,145339,1,0,0:0:0:0:
487,220,145512,2,0,L|476:300,1,80,0|8,0:0|0:0,0:0:0:0:
368,356,145859,5,0,0:0:0:0:
368,356,145946,1,0,0:0:0:0:
368,356,146032,1,0,0:0:0:0:
232,236,146206,1,0,0:0:0:0:
352,364,146379,2,0,L|248:352,1,80,8|0,0:0|0:0,0:0:0:0:
392,168,146726,1,0,0:0:0:0:
396,192,146813,1,0,0:0:0:0:
400,216,146899,1,0,0:0:0:0:
332,372,147073,1,8,0:0:0:0:
232,236,147246,1,0,0:0:0:0:
232,236,147333,1,0,0:0:0:0:
232,236,147420,6,0,L|244:136,1,80
288,8,147766,2,0,L|297:87,1,80,8|0,0:0|0:0,0:0:0:0:
400,216,148113,1,0,0:0:0:0:
241,156,148287,1,0,0:0:0:0:
384,88,148460,1,8,0:0:0:0:
304,236,148633,1,0,0:0:0:0:
428,316,148807,6,0,L|508:304,1,80,0|0,0:0|0:0,0:0:0:0:
308,276,149154,2,0,L|228:288,1,80,8|0,0:0|0:0,0:0:0:0:
400,216,149500,1,0,0:0:0:0:
304,108,149674,1,0,0:0:0:0:
304,108,149761,1,0,0:0:0:0:
304,108,149847,1,8,0:0:0:0:
376,328,150021,2,0,P|388:288|388:260,1,40
308,276,150194,6,0,P|264:256|180:324,1,160,4|8,0:0|0:0,0:0:0:0:
416,344,150714,2,0,L|420:256,1,80
304,108,151061,2,0,L|307:187,1,80,0|8,0:0|0:0,0:0:0:0:
444,48,151408,1,0,0:0:0:0:
444,48,151495,1,0,0:0:0:0:
444,48,151581,6,0,L|436:132,1,80
224,156,151928,2,0,L|216:76,1,80,8|0,0:0|0:0,0:0:0:0:
304,108,152275,1,0,0:0:0:0:
224,244,152448,1,0,0:0:0:0:
360,184,152622,1,8,0:0:0:0:
192,116,152795,1,0,0:0:0:0:
328,296,152969,6,0,L|420:288,1,80,8|0,0:0|0:0,0:0:0:0:
352,76,153315,2,0,P|336:128|344:180,1,80,8|0,0:0|0:0,0:0:0:0:
184,296,153662,2,0,L|92:288,1,80,8|0,0:0|0:0,0:0:0:0:
160,76,154009,2,0,P|176:128|168:180,1,80,8|0,0:0|0:0,0:0:0:0:
184,296,154356,5,8,0:0:0:0:
184,296,154529,1,8,0:0:0:0:
104,244,154703,1,0,0:0:0:0:
280,160,154876,1,12,0:0:0:0:
384,296,155050,5,0,0:0:0:0:
360,292,155136,1,0,0:0:0:0:
336,288,155223,1,0,0:0:0:0:
312,284,155310,1,0,0:0:0:0:
288,280,155396,2,0,L|264:336,1,40,8|0,0:0|0:0,0:0:0:0:
216,220,155570,2,0,L|212:172,1,40
344,92,155743,6,0,P|372:136|328:240,1,160,4|8,0:0|0:0,0:0:0:0:
256,72,156263,1,0,0:0:0:0:
412,16,156437,1,0,0:0:0:0:
476,188,156610,2,0,L|388:180,1,80,0|8,0:0|0:0,0:0:0:0:
288,280,156957,5,0,0:0:0:0:
288,280,157044,1,0,0:0:0:0:
288,280,157131,1,0,0:0:0:0:
412,352,157304,2,0,P|432:304|416:252,1,80,0|8,0:0|0:0,0:0:0:0:
360,168,157651,1,0,0:0:0:0:
204,216,157824,1,0,0:0:0:0:
204,216,157911,1,0,0:0:0:0:
204,216,157998,1,0,0:0:0:0:
380,340,158171,1,8,0:0:0:0:
384,200,158344,1,0,0:0:0:0:
384,200,158431,1,0,0:0:0:0:
384,200,158518,6,0,P|384:152|360:112,1,80
292,184,158865,2,0,P|292:232|316:272,1,80,8|0,0:0|0:0,0:0:0:0:
448,288,159211,1,0,0:0:0:0:
288,348,159385,1,0,0:0:0:0:
456,368,159558,1,8,0:0:0:0:
384,200,159732,1,0,0:0:0:0:
276,368,159905,6,0,L|380:360,1,80,0|0,0:0|0:0,0:0:0:0:
224,136,160252,2,0,P|208:196|220:248,1,80,8|0,0:0|0:0,0:0:0:0:
300,328,160599,1,0,0:0:0:0:
392,240,160772,1,0,0:0:0:0:
324,140,160946,2,0,L|216:152,1,80,8|0,0:0|0:0,0:0:0:0:
384,52,161292,6,0,P|416:88|408:200,1,160,4|8,0:0|0:0,0:0:0:0:
247,155,161813,2,0,P|284:139|324:140,1,80
420,320,162159,2,0,P|380:320|343:304,1,80,0|8,0:0|0:0,0:0:0:0:
288,236,162506,1,0,0:0:0:0:
484,140,162680,6,0,L|460:312,1,160,4|8,0:0|0:0,0:0:0:0:
384,172,163200,1,0,0:0:0:0:
336,348,163373,2,0,L|347:268,1,80,0|0,0:0|0:0,0:0:0:0:
280,116,163720,2,0,L|268:195,1,80,8|0,0:0|0:0,0:0:0:0:
376,56,164067,6,0,P|340:24|220:24,1,160,4|8,0:0|0:0,0:0:0:0:
164,108,164587,1,0,0:0:0:0:
300,224,164761,1,0,0:0:0:0:
280,116,164934,1,0,0:0:0:0:
120,208,165107,1,8,0:0:0:0:
200,280,165281,1,8,0:0:0:0:
200,280,165368,1,8,0:0:0:0:
200,280,165454,6,0,P|252:336|356:332,1,160,4|8,0:0|0:0,0:0:0:0:
460,196,165974,1,8,0:0:0:0:
460,196,166061,1,8,0:0:0:0:
459,195,166148,2,0,P|384:172|313:206,1,160,4|8,0:0|0:0,0:0:0:0:
392,288,166668,1,0,0:0:0:0:
472,104,166841,5,4,0:0:0:0:
112,128,177766,5,0,0:0:0:0:
112,128,177853,1,0,0:0:0:0:
112,128,177940,2,0,L|208:120,1,80,4|0,0:0|0:0,0:0:0:0:
308,156,178287,1,8,0:0:0:0:
288,272,178460,1,0,0:0:0:0:
392,104,178633,1,0,0:0:0:0:
372,256,178806,1,0,0:0:0:0:
512,196,178980,1,8,0:0:0:0:
322,52,179154,6,0,P|358:24|418:24,1,80
308,156,179500,2,0,P|262:162|210:132,1,80,0|8,0:0|0:0,0:0:0:0:
136,64,179847,1,0,0:0:0:0:
136,64,179934,1,0,0:0:0:0:
136,64,180021,1,0,0:0:0:0:
60,124,180194,1,0,0:0:0:0:
124,248,180368,2,0,L|236:236,1,80,8|0,0:0|0:0,0:0:0:0:
308,156,180714,5,0,0:0:0:0:
340,264,180888,1,0,0:0:0:0:
208,192,181061,2,0,L|220:100,1,80,8|0,0:0|0:0,0:0:0:0:
218,112,181321,1,0,0:0:0:0:
218,112,181408,1,0,0:0:0:0:
372,72,181581,1,0,0:0:0:0:
352,232,181755,1,8,0:0:0:0:
192,160,181928,6,0,L|200:0,1,160
372,72,182448,1,8,0:0:0:0:
428,220,182622,2,0,L|384:204,1,40
352,232,182795,2,0,L|252:220,1,80
272,222,183055,1,0,0:0:0:0:
272,222,183142,1,8,0:0:0:0:
256,316,183315,1,0,0:0:0:0:
452,256,183489,6,0,L|444:160,1,80,0|0,0:0|0:0,0:0:0:0:
372,72,183836,1,8,0:0:0:0:
272,222,184009,1,0,0:0:0:0:
445,176,184183,1,0,0:0:0:0:
296,136,184356,1,0,0:0:0:0:
344,296,184529,1,8,0:0:0:0:
472,200,184703,6,0,L|464:120,1,80
372,72,185050,1,0,0:0:0:0:
268,144,185223,1,8,0:0:0:0:
344,296,185396,1,0,0:0:0:0:
344,296,185483,1,0,0:0:0:0:
344,296,185570,2,0,L|432:288,1,80
492,356,185917,1,8,0:0:0:0:
272,344,186090,6,0,P|220:336|104:324,1,160,0|0,0:0|0:0,0:0:0:0:
252,232,186610,2,0,P|316:220|356:208,1,80,8|0,0:0|0:0,0:0:0:0:
188,80,186957,2,0,P|166:141|156:182,1,80,0|0,0:0|0:0,0:0:0:0:
176,288,187304,1,8,0:0:0:0:
268,56,187477,6,0,P|240:16|116:36,1,160,4|0,0:0|0:0,0:0:0:0:
300,160,187998,1,8,0:0:0:0:
404,120,188171,1,0,0:0:0:0:
188,80,188344,2,0,L|180:188,1,80
182,159,188604,1,0,0:0:0:0:
182,159,188691,1,8,0:0:0:0:
176,288,188865,6,0,P|232:284|360:280,1,160,4|0,0:0|0:0,0:0:0:0:
335,280,189298,1,0,0:0:0:0:
335,280,189385,1,8,0:0:0:0:
436,304,189558,1,0,0:0:0:0:
240,348,189732,5,4,0:3:0:0:
176,288,189905,1,8,0:3:0:0:
200,204,190078,1,4,0:3:0:0:
288,188,190252,1,8,0:3:0:0:
335,280,190425,6,0,L|444:272,1,80,4|0,0:0|0:0,0:0:0:0:
444,148,190772,2,0,L|335:156,1,80,8|0,0:0|0:0,0:0:0:0:
264,328,191119,2,0,P|248:288|264:236,1,80
276,80,191466,2,0,P|292:120|276:172,1,80,8|0,0:0|0:0,0:0:0:0:
176,224,191813,6,0,L|8:216,1,160,0|8,0:0|0:0,0:0:0:0:
60,312,192333,1,0,0:0:0:0:
128,148,192506,2,0,L|112:56,1,80
264,200,192853,2,0,L|250:278,1,80,8|0,0:0|0:0,0:0:0:0:
316,352,193200,6,0,P|384:364|460:300,1,160,0|8,0:0|0:0,0:0:0:0:
454,313,193720,1,0,0:0:0:0:
304,120,193894,2,0,P|288:164|300:224,1,80
368,272,194240,2,0,P|384:228|372:168,1,80,8|0,0:0|0:0,0:0:0:0:
264,40,194587,6,0,B|208:36|208:36|168:48|168:48|104:44,1,160,0|8,0:0|0:0,0:0:0:0:
56,124,195107,1,0,0:0:0:0:
204,196,195281,2,0,L|220:116,1,80
104,208,195628,2,0,L|88:288,1,80,8|0,0:0|0:0,0:0:0:0:
264,332,195974,5,0,0:0:0:0:
240,224,196148,1,0,0:0:0:0:
356,176,196321,2,0,L|348:256,1,80,8|0,0:0|0:0,0:0:0:0:
280,112,196668,2,0,L|288:32,1,80,0|0,0:0|0:0,0:0:0:0:
372,80,197015,1,8,0:0:0:0:
188,60,197188,1,0,0:0:0:0:
240,224,197362,6,0,L|356:212,1,80
412,244,197709,1,8,0:0:0:0:
388,336,197882,1,0,0:0:0:0:
320,216,198055,1,0,0:0:0:0:
296,124,198228,1,0,0:0:0:0:
180,304,198402,2,0,L|276:324,1,80,8|0,0:0|0:0,0:0:0:0:
196,128,198749,6,0,L|130:201,1,80,0|0,0:0|0:0,0:0:0:0:
80,332,199096,2,0,P|72:284|56:232,1,80,8|0,0:0|0:0,0:0:0:0:
36,68,199443,2,0,P|44:116|60:168,1,80,0|0,0:0|0:0,0:0:0:0:
196,128,199789,1,8,0:0:0:0:
108,12,199963,1,0,0:0:0:0:
24,232,200136,6,0,L|124:224,1,80,0|0,0:0|0:0,0:0:0:0:
196,288,200483,2,0,P|216:248|208:200,1,80,8|0,0:0|0:0,0:0:0:0:
213,213,200743,1,0,0:0:0:0:
213,213,200830,1,0,0:0:0:0:
100,132,201003,1,0,0:0:0:0:
248,100,201177,1,8,0:0:0:0:
114,291,201350,6,0,L|100:132,1,160,4|0,0:0|0:0,0:0:0:0:
293,219,201870,2,0,L|213:213,1,80,8|0,0:0|0:0,0:0:0:0:
100,132,202217,2,0,L|179:126,1,80,0|0,0:0|0:0,0:0:0:0:
293,219,202564,1,8,0:0:0:0:
152,360,202737,6,0,P|120:308|128:212,1,160
324,312,203258,2,0,L|228:300,1,80,8|0,0:0|0:0,0:0:0:0:
236,140,203604,2,0,L|332:128,1,80,0|0,0:0|0:0,0:0:0:0:
416,244,203951,2,0,P|436:288|424:344,1,80,8|0,0:0|0:0,0:0:0:0:
293,219,204298,5,0,0:0:0:0:
400,120,204472,1,0,0:0:0:0:
244,60,204645,2,0,L|232:176,1,80,8|0,0:0|0:0,0:0:0:0:
312,260,204992,1,0,0:0:0:0:
376,144,205165,1,0,0:0:0:0:
212,160,205339,1,8,0:0:0:0:
244,336,205512,6,0,L|420:312,1,160
452,232,206032,1,8,0:0:0:0:
296,176,206206,1,0,0:0:0:0:
204,320,206379,1,0,0:0:0:0:
352,268,206552,1,0,0:0:0:0:
212,160,206726,2,0,L|196:240,1,80,8|0,0:0|0:0,0:0:0:0:
364,120,207073,5,4,0:0:0:0:
364,120,207246,1,0,0:0:0:0:
220,44,207420,2,0,L|236:152,1,80,8|0,0:0|0:0,0:0:0:0:
148,216,207766,2,0,L|60:204,1,80,0|0,0:0|0:0,0:0:0:0:
224,280,208113,2,0,P|244:244|240:192,1,80,8|0,0:0|0:0,0:0:0:0:
96,64,208460,6,0,L|116:232,1,160,0|8,0:0|0:0,0:0:0:0:
224,280,208980,1,0,0:0:0:0:
96,340,209154,2,0,L|4:332,1,80
114,222,209500,1,8,0:0:0:0:
244,308,209674,1,0,0:0:0:0:
32,260,209847,6,0,P|24:212|108:128,1,160,0|8,0:0|0:0,0:0:0:0:
263,166,210368,2,0,L|184:156,1,80
244,72,210714,1,0,0:0:0:0:
212,260,210888,2,0,L|291:270,1,80,8|0,0:0|0:0,0:0:0:0:
332,100,211235,5,4,0:0:0:0:
176,144,211408,1,0,0:0:0:0:
352,128,211581,1,8,0:0:0:0:
232,36,211755,1,0,0:0:0:0:
232,36,211841,1,0,0:0:0:0:
232,36,211928,2,0,L|136:28,1,80
92,104,212275,1,8,0:0:0:0:
216,224,212448,6,0,P|252:192|244:80,1,160,4|0,0:0|0:0,0:0:0:0:
120,212,212969,1,8,0:0:0:0:
224,264,213142,1,0,0:0:0:0:
60,296,213315,1,12,0:0:0:0:
296,188,213489,1,0,0:0:0:0:
172,364,213662,2,0,P|152:308|144:272,1,80,8|0,0:0|0:0,0:0:0:0:
184,80,214009,5,8,0:0:0:0:
368,120,214183,1,8,0:0:0:0:
328,304,214356,1,8,0:0:0:0:
144,264,214530,1,8,0:0:0:0:
256,192,214703,5,0,0:0:0:0:
256,192,214876,2,0,L|312:200,1,47.9999985351563,2|0,0:1|0:0,0:0:0:0:
380,384,215223,6,0,P|408:352|404:240,1,160,4|0,0:0|0:0,0:0:0:0:
256,192,215743,1,8,0:0:0:0:
328,304,215917,1,0,0:0:0:0:
360,144,216090,1,0,0:0:0:0:
168,160,216263,2,0,L|180:272,1,80,0|8,0:0|0:0,0:0:0:0:
304,276,216610,5,0,0:0:0:0:
304,276,216697,1,0,0:0:0:0:
304,276,216784,1,0,0:0:0:0:
168,340,216957,1,0,0:0:0:0:
184,188,217131,1,8,0:0:0:0:
328,304,217304,5,0,0:0:0:0:
136,320,217477,1,0,0:0:0:0:
136,320,217564,1,0,0:0:0:0:
136,320,217651,1,0,0:0:0:0:
200,160,217824,1,8,0:0:0:0:
276,248,217998,1,0,0:0:0:0:
76,224,218171,6,0,L|84:140,1,80
188,40,218518,2,0,L|195:119,1,80,8|0,0:0|0:0,0:0:0:0:
276,248,218865,1,0,0:0:0:0:
188,124,219039,1,0,0:0:0:0:
348,188,219212,1,8,0:0:0:0:
188,236,219385,1,0,0:0:0:0:
368,356,219558,6,0,L|356:268,1,80,0|0,0:0|0:0,0:0:0:0:
468,164,219905,2,0,L|457:243,1,80,8|0,0:0|0:0,0:0:0:0:
316,148,220252,1,0,0:0:0:0:
440,60,220425,1,0,0:0:0:0:
440,60,220512,1,0,0:0:0:0:
440,60,220599,1,8,0:0:0:0:
360,224,220772,2,0,P|324:236|296:236,1,40
316,148,220946,6,0,P|276:112|168:136,1,160,4|8,0:0|0:0,0:0:0:0:
204,304,221466,1,0,0:0:0:0:
236,196,221639,1,0,0:0:0:0:
92,100,221813,2,0,L|104:200,1,80,0|8,0:0|0:0,0:0:0:0:
236,196,222159,1,0,0:0:0:0:
236,196,222246,1,0,0:0:0:0:
236,196,222333,5,0,0:0:0:0:
180,72,222506,1,0,0:0:0:0:
72,260,222680,2,0,L|160:248,1,80,8|0,0:0|0:0,0:0:0:0:
276,356,223026,2,0,P|288:308|280:268,1,80
184,328,223373,1,8,0:0:0:0:
352,224,223547,1,0,0:0:0:0:
184,144,223720,6,0,L|200:244,1,80,8|0,0:0|0:0,0:0:0:0:
328,240,224067,2,0,L|312:140,1,80,8|0,0:0|0:0,0:0:0:0:
196,64,224414,2,0,P|156:68|104:104,1,80,8|0,0:0|0:0,0:0:0:0:
316,320,224761,2,0,P|356:316|408:280,1,80,8|0,0:0|0:0,0:0:0:0:
320,144,225107,5,8,0:0:0:0:
320,144,225281,1,8,0:0:0:0:
232,248,225454,1,0,0:0:0:0:
424,172,225628,1,12,0:0:0:0:
264,8,225801,5,0,0:0:0:0:
260,40,225888,1,0,0:0:0:0:
256,72,225974,1,0,0:0:0:0:
252,104,226061,1,0,0:0:0:0:
244,136,226148,2,0,L|252:212,1,40,8|0,0:0|0:0,0:0:0:0:
156,148,226321,2,0,L|160:108,1,40
108,32,226495,6,0,P|64:24|8:124,1,160,4|8,0:0|0:0,0:0:0:0:
124,228,227015,1,0,0:0:0:0:
188,64,227188,1,0,0:0:0:0:
16,192,227362,2,0,L|32:280,1,80,0|8,0:0|0:0,0:0:0:0:
184,304,227709,5,0,0:0:0:0:
184,304,227795,1,0,0:0:0:0:
184,304,227882,1,0,0:0:0:0:
108,224,228055,1,0,0:0:0:0:
76,332,228229,1,8,0:0:0:0:
236,316,228402,5,0,0:0:0:0:
140,188,228576,1,0,0:0:0:0:
140,188,228662,1,0,0:0:0:0:
140,188,228749,2,0,P|128:252|120:296,1,80,0|8,0:0|0:0,0:0:0:0:
212,116,229096,1,0,0:0:0:0:
84,28,229269,6,0,P|89:67|98:106,1,80,0|0,0:0|0:0,0:0:0:0:
232,204,229616,1,8,0:0:0:0:
48,180,229789,1,0,0:0:0:0:
164,280,229963,1,0,0:0:0:0:
212,116,230136,1,0,0:0:0:0:
60,200,230310,2,0,L|72:288,1,80,8|0,0:0|0:0,0:0:0:0:
212,352,230657,5,0,0:0:0:0:
60,300,230830,1,0,0:0:0:0:
196,164,231003,2,0,L|188:268,1,80,12|0,0:0|0:0,0:0:0:0:
328,188,231350,2,0,L|321:108,1,80,0|0,0:0|0:0,0:0:0:0:
168,48,231697,2,0,L|161:127,1,80,8|0,0:0|0:0,0:0:0:0:
288,272,232044,6,0,P|332:280|420:200,1,160,4|8,0:0|0:0,0:0:0:0:
333,110,232564,2,0,P|322:148|328:188,1,80
432,324,232911,2,0,P|437:284|426:246,1,80,0|8,0:0|0:0,0:0:0:0:
348,364,233258,1,0,0:0:0:0:
508,212,233431,6,0,P|476:172|368:176,1,160,4|8,0:0|0:0,0:0:0:0:
296,264,233951,1,0,0:0:0:0:
296,80,234125,2,0,L|284:176,1,80
200,312,234472,2,0,L|190:232,1,80,8|0,0:0|0:0,0:0:0:0:
24,228,234818,6,0,L|92:176,1,80,4|0,0:0|0:0,0:0:0:0:
200,312,235165,1,8,0:0:0:0:
168,180,235339,1,0,0:0:0:0:
104,264,235512,1,0,0:0:0:0:
288,300,235685,1,0,0:0:0:0:
256,152,235859,1,8,0:0:0:0:
172,320,236032,1,8,0:0:0:0:
172,320,236119,1,8,0:0:0:0:
172,320,236206,6,0,B|212:340|212:340|344:320,1,160,4|8,0:0|0:0,0:0:0:0:
409,155,236726,1,8,0:0:0:0:
409,155,236813,1,8,0:0:0:0:
409,155,236899,2,0,B|369:135|369:135|237:155,1,160,4|8,0:0|0:0,0:0:0:0:
376,240,237420,1,0,0:0:0:0:
304,56,237593,6,0,L|296:152,1,80,4|0,0:0|0:0,0:0:0:0:
284,256,237940,1,0,0:0:0:0:
284,256,238113,1,0,0:0:0:0:
200,196,238287,1,0,0:0:0:0:
372,136,238460,1,0,0:0:0:0:
344,328,238633,1,0,0:0:0:0:
128,248,238807,1,8,0:3:0:0:
128,248,238894,1,4,0:3:0:0:
128,248,238980,1,8,0:3:0:0:
306,42,239154,6,0,P|334:90|298:202,1,160,8|0,0:0|0:0,0:0:0:0:
206,342,239674,2,0,P|178:294|214:182,1,160,8|0,0:0|0:0,0:0:0:0:
448,148,240368,6,0,P|404:164|348:156,1,80,4|0,0:0|0:0,0:0:0:0:
308,42,240714,2,0,P|352:26|408:34,1,80,8|0,0:0|0:0,0:0:0:0:
360,260,241061,2,0,P|344:216|352:160,1,80,8|0,0:0|0:0,0:0:0:0:
416,44,241408,1,8,0:0:0:0:
484,172,241581,1,0,0:0:0:0:
292,120,241755,6,0,L|184:112,1,80,8|0,0:0|0:0,0:0:0:0:
108,260,242102,2,0,L|216:252,1,80,8|0,0:0|0:0,0:0:0:0:
144,56,242448,2,0,P|128:104|132:152,1,80,8|0,0:0|0:0,0:0:0:0:
260,308,242795,2,0,P|276:260|272:212,1,80,8|0,0:0|0:0,0:0:0:0:
164,104,243142,5,8,0:0:0:0:
332,176,243315,1,0,0:0:0:0:
156,256,243489,2,0,L|164:352,1,80,8|0,0:0|0:0,0:0:0:0:
256,228,243836,2,0,L|248:132,1,80,8|0,0:0|0:0,0:0:0:0:
156,256,244183,1,8,0:0:0:0:
292,320,244356,1,0,0:0:0:0:
340,152,244529,6,0,L|280:144,1,40,8|0,0:3|0:0,0:0:0:0:
256,228,244703,2,0,L|316:220,1,40
392,228,244876,1,8,0:3:0:0:
280,56,245050,2,0,P|224:84|220:196,1,160,4|0,0:0|0:0,0:0:0:0:
392,228,245570,1,8,0:0:0:0:
456,136,245743,1,8,0:0:0:0:
456,136,245830,1,0,0:0:0:0:
456,136,245917,6,0,L|436:40,1,80,4|0,0:0|0:0,0:0:0:0:
356,28,246263,1,8,0:0:0:0:
320,176,246437,1,0,0:0:0:0:
280,56,246610,1,8,0:0:0:0:
296,216,246784,1,0,0:0:0:0:
192,124,246957,1,8,0:0:0:0:
272,252,247131,1,0,0:0:0:0:
424,240,247304,6,0,L|408:148,1,80,8|0,0:0|0:0,0:0:0:0:
344,340,247651,2,0,L|431:372,1,80,8|0,0:0|0:0,0:0:0:0:
296,216,247998,2,0,L|224:275,1,80,8|0,0:0|0:0,0:0:0:0:
120,348,248344,2,0,P|104:312|104:252,1,80,8|0,0:0|0:0,0:0:0:0:
164,96,248691,6,0,L|152:188,1,80,8|0,0:0|0:0,0:0:0:0:
352,100,249038,2,0,L|260:88,1,80,8|0,0:0|0:0,0:0:0:0:
348,288,249385,2,0,L|360:196,1,80,8|0,0:0|0:0,0:0:0:0:
160,284,249732,2,0,L|252:296,1,80,8|0,0:0|0:0,0:0:0:0:
152,120,250078,6,0,L|128:172,1,40,8|0,0:3|0:0,0:0:0:0:
36,100,250252,2,0,L|93:94,1,40
72,216,250425,1,8,0:3:0:0:
248,80,250599,2,0,P|228:44|112:28,1,160,4|0,0:0|0:0,0:0:0:0:
236,188,251119,2,0,L|328:180,1,80,8|0,0:0|0:0,0:0:0:0:
315,181,251379,1,0,0:0:0:0:
315,181,251466,6,0,P|368:196|456:124,1,160,4|0,0:0|0:0,0:0:0:0:
248,80,251986,2,0,P|195:65|107:137,1,160,8|0,0:0|0:0,0:0:0:0:
196,308,252506,2,0,B|216:232|216:232|180:144,1,160,8|0,0:0|0:0,0:0:0:0:
316,76,253026,2,0,B|296:152|296:152|332:240,1,160,8|0,0:0|0:0,0:0:0:0:
388,300,253547,5,8,0:0:0:0:
460,240,253720,1,0,0:0:0:0:
304,200,253894,1,0,0:0:0:0:
280,356,254067,1,0,0:0:0:0:
408,300,254240,5,4,0:0:0:0:
304,168,254414,1,0,0:0:0:0:
252,328,254587,1,0,0:0:0:0:
424,284,254761,2,0,L|416:192,1,80,8|0,0:0|0:0,0:0:0:0:
311,89,255107,2,0,L|304:168,1,80,8|8,0:0|0:0,0:0:0:0:
232,304,255454,1,8,0:0:0:0:
232,304,255541,1,8,0:3:0:0:
232,304,255628,1,4,0:3:0:0:
164,184,255801,6,0,L|156:236,1,40
120,340,255974,2,0,L|113:300,1,40
48,224,256148,1,8,0:0:0:0:
48,224,256235,1,0,0:0:0:0:
48,224,256321,1,12,0:0:0:0:
