osu file format v13

[General]
AudioFilename: 01. .mp3
AudioLeadIn: 0
PreviewTime: 131033
Countdown: 1
SampleSet: None
StackLeniency: 0.7
Mode: 0
LetterboxInBreaks: 1
WidescreenStoryboard: 1

[Editor]
Bookmarks: 6666,15779,27931,55273,76539,79577,92108,116033,131222,164640,181349,208691
DistanceSpacing: 1
BeatDivisor: 4
GridSize: 4
TimelineZoom: 1.3

[Metadata]
Title:Elementario de Aimashou!
TitleUnicode:エレメンタリオで会いましょう!
Artist:BRILLIANT4
ArtistUnicode:BRILLIANT4
Creator:Mei
Version:DT
Source:甘城ブリリアントパーク
Tags:Amagi Brilliant Park Sylphy Tomoyo Kurosawa Cobori Shiori Mikami Salma Minami Tsuda Muse Yuuka Aisaka ending
BeatmapID:589243
BeatmapSetID:252825

[Difficulty]
HPDrainRate:5
CircleSize:4
OverallDifficulty:7.5
ApproachRate:8
SliderMultiplier:1.7
SliderTickRate:1

[Events]
//Background and Video events
0,0,"amagi_brilliant_park_25.jpg",0,0
//Break Periods
2,152688,163890
//Storyboard Layer 0 (Background)
//Storyboard Layer 1 (Fail)
//Storyboard Layer 2 (Pass)
//Storyboard Layer 3 (Foreground)
//Storyboard Sound Samples

[TimingPoints]
590,379.746835443038,4,2,2,60,1,0
590,-133.333333333333,4,2,2,50,0,0
6665,-100,4,2,1,60,0,0
13881,-100,4,2,2,60,0,0
15020,-200,4,2,1,50,0,0
15779,-100,4,2,1,50,0,0
27931,-100,4,2,1,60,0,0
55273,-83.3333333333333,4,2,1,85,0,1
76539,-100,4,2,1,60,0,0
92108,-133.333333333333,4,2,1,50,0,0
94767,-100,4,2,1,60,0,0
131222,-83.3333333333333,4,2,1,85,0,1
152488,-100,4,2,1,60,0,0
181349,-83.3333333333333,4,2,1,85,0,1
208691,-100,4,2,1,60,0,0
226539,-100,4,2,1,5,0,0

[HitObjects]
204,240,400,5,2,0:0:0:0:
204,240,495,1,0,0:0:0:0:
204,240,590,6,0,P|284:228|328:268,1,127.500004863739,12|0,0:0|0:0,0:0:0:0:
128,312,1159,1,2,0:0:0:0:
100,220,1349,2,0,P|84:168|96:68,1,127.500004863739,8|0,0:0|0:0,0:0:0:0:
136,16,1919,1,2,0:0:0:0:
320,80,2108,6,0,L|188:72,1,127.500004863739,10|0,0:0|0:0,0:0:0:0:
352,176,2678,2,0,P|388:200|468:148,1,127.500004863739,2|0,0:0|0:0,0:0:0:0:
252,152,3248,1,8,0:0:0:0:
268,248,3438,1,10,0:0:0:0:
148,344,3627,6,0,P|148:284|168:196,1,127.500004863739,10|0,0:0|0:0,0:0:0:0:
80,200,4197,1,2,0:0:0:0:
248,352,4387,2,0,P|304:340|384:344,1,127.500004863739,8|8,0:0|0:0,0:0:0:0:
480,164,4957,2,0,P|424:176|344:172,1,127.500004863739,8|0,0:0|0:0,0:0:0:0:
324,48,5526,1,10,0:0:0:0:
240,136,5716,1,0,0:3:0:0:
232,164,5811,1,0,0:0:0:0:
224,192,5906,5,8,0:3:0:0:
148,104,6096,1,8,0:3:0:0:
136,256,6286,1,8,0:3:0:0:
24,228,6476,1,8,0:3:0:0:
152,356,6665,6,0,P|216:352|260:356,1,85,4|0,0:0|0:0,0:0:0:0:
396,272,7045,1,10,0:2:0:0:
308,368,7235,1,0,0:0:0:0:
224,192,7425,2,0,L|340:184,1,85,2|0,0:0|0:0,0:0:0:0:
476,276,7805,2,0,P|440:340|412:352,1,85,10|0,0:0|0:0,0:0:0:0:
304,256,8184,5,2,0:0:0:0:
420,136,8374,1,0,0:0:0:0:
260,88,8564,1,10,0:0:0:0:
376,208,8754,2,0,P|384:228|388:256,1,42.5,0|0,0:0|0:0,0:0:0:0:
332,336,8944,2,0,L|232:352,1,85,2|0,0:0|0:0,0:0:0:0:
72,192,9324,2,0,L|172:208,1,85,10|0,0:0|0:0,0:0:0:0:
340,136,9703,6,0,P|352:84|344:28,1,85,2|0,0:0|0:0,0:0:0:0:
216,148,10083,1,10,0:0:0:0:
324,224,10273,1,0,0:0:0:0:
180,352,10463,2,0,P|176:300|180:244,1,85,2|0,0:0|0:0,0:0:0:0:
420,180,10843,2,0,P|424:232|420:288,1,85,10|0,0:0|0:0,0:0:0:0:
324,224,11222,5,2,0:0:0:0:
476,112,11412,1,0,0:0:0:0:
468,344,11602,2,0,L|352:328,1,85,10|0,0:0|0:0,0:0:0:0:
204,268,11982,2,0,P|136:272|96:348,1,127.5,2|0,0:0|0:0,0:0:0:0:
88,356,12362,2,0,L|80:256,1,85,10|0,0:0|0:0,0:0:0:0:
328,288,12741,6,0,L|344:112,1,170,8|0,0:0|0:0,0:0:0:0:
60,128,13311,2,0,P|88:160|216:132,1,170,8|0,0:0|0:0,0:0:0:0:
140,88,13881,5,10,0:0:0:0:
244,212,14071,1,2,0:0:0:0:
296,56,14260,1,2,0:0:0:0:
144,176,14450,5,2,0:0:0:0:
248,300,14640,1,2,0:0:0:0:
300,144,14829,1,2,0:0:0:0:
172,264,15020,6,0,P|108:252|28:244,1,127.5,2|0,0:0|0:0,0:0:0:0:
424,320,15779,5,8,0:3:0:0:
448,304,16159,2,0,P|464:252|472:200,1,85,2|0,0:0|0:0,0:0:0:0:
372,72,16539,2,0,P|392:116|436:152,1,85,2|0,0:0|0:0,0:0:0:0:
380,248,16919,1,2,0:0:0:0:
264,212,17108,1,0,0:0:0:0:
232,320,17298,5,2,0:0:0:0:
348,360,17488,1,0,0:0:0:0:
232,320,17678,2,0,L|140:316,1,85,2|0,0:0|0:0,0:0:0:0:
216,228,18058,5,2,0:0:0:0:
276,384,18248,1,0,0:0:0:0:
376,248,18438,2,0,P|388:184|388:136,1,85,2|0,0:0|0:0,0:0:0:0:
144,248,18817,6,0,P|172:288|288:256,1,170,2|2,0:0|0:0,0:0:0:0:
336,72,19387,1,0,0:0:0:0:
222,143,19577,2,0,P|217:185|216:228,1,85,2|0,0:0|0:0,0:0:0:0:
324,324,19957,2,0,L|412:336,1,85,2|0,0:0|0:0,0:0:0:0:
232,328,20336,6,0,P|192:352|72:312,1,170,2|2,0:0|0:0,0:0:0:0:
232,220,20906,1,0,0:0:0:0:
312,288,21096,2,0,L|416:296,1,85,2|2,0:0|0:0,0:0:0:0:
232,328,21476,1,2,0:0:0:0:
352,188,21665,1,0,0:0:0:0:
160,160,21855,6,0,P|144:232|144:264,1,85,2|0,0:0|0:0,0:0:0:0:
352,188,22235,2,0,P|368:116|368:84,1,85,2|0,0:0|0:0,0:0:0:0:
264,184,22615,1,2,0:0:0:0:
328,360,22805,1,2,0:0:0:0:
420,256,22995,2,0,L|524:242,1,85,2|0,0:0|0:0,0:0:0:0:
308,288,23374,5,2,0:0:0:0:
208,272,23564,1,0,0:0:0:0:
108,256,23754,2,0,L|4:242,1,85,2|2,0:0|0:0,0:0:0:0:
24,112,24134,1,2,0:0:0:0:
108,256,24324,1,0,0:0:0:0:
232,60,24514,1,2,0:0:0:0:
112,156,24703,1,0,0:0:0:0:
244,208,24893,6,0,L|432:204,1,170,2|2,0:0|0:0,0:0:0:0:
408,116,25463,1,0,0:0:0:0:
500,252,25653,1,2,0:0:0:0:
352,280,25843,2,0,L|244:284,2,85,2|2|0,0:0|0:0|0:0,0:0:0:0:
352,160,26412,6,0,P|336:120|432:48,1,170,0|0,0:0|0:0,0:0:0:0:
152,96,26982,2,0,L|144:168,2,42.5,0|0|0,0:0|0:0|0:0,0:0:0:0:
36,204,27362,5,2,0:0:0:0:
256,136,27552,1,8,0:0:0:0:
264,160,27931,6,0,P|276:224|280:260,1,85,6|0,0:0|0:0,0:0:0:0:
200,360,28311,1,10,0:0:0:0:
88,248,28501,1,2,0:0:0:0:
88,248,28691,2,0,L|176:240,1,85,0|2,0:0|0:0,0:0:0:0:
400,300,29071,1,10,0:0:0:0:
288,364,29260,1,0,0:0:0:0:
324,232,29450,6,0,P|328:176|336:116,1,85,2|0,0:0|0:0,0:0:0:0:
176,64,29830,2,0,P|180:106|183:148,1,85,10|2,0:0|0:0,0:0:0:0:
88,296,30210,1,0,0:0:0:0:
220,208,30400,1,2,0:0:0:0:
216,376,30590,1,10,0:0:0:0:
216,356,30969,6,0,P|144:344|116:340,2,85,2|0|10,0:0|0:0|0:0,0:0:0:0:
288,280,31539,2,0,P|312:324|432:304,1,170,2|2,0:0|0:0,0:0:0:0:
488,200,32108,2,0,P|492:144|492:88,1,85,10|0,0:0|0:0,0:0:0:0:
364,256,32488,5,2,0:0:0:0:
488,200,32678,1,2,0:0:0:0:
384,108,32868,2,0,L|268:100,1,85,10|0,0:0|0:0,0:0:0:0:
96,168,33248,1,0,0:0:0:0:
144,12,33438,1,2,0:0:0:0:
184,164,33627,1,10,0:0:0:0:
32,112,33817,1,2,0:0:0:0:
68,276,34007,6,0,P|60:332|60:384,1,85,2|0,0:0|0:0,0:0:0:0:
208,372,34387,1,10,0:0:0:0:
264,244,34577,2,0,L|384:236,2,85,2|0|2,0:0|0:0|0:0,0:0:0:0:
160,280,35146,1,10,0:0:0:0:
300,136,35336,1,0,0:0:0:0:
111,27,35526,6,0,P|112:69|116:112,1,85,2|0,0:0|0:0,0:0:0:0:
144,240,35906,1,10,0:0:0:0:
220,120,36096,1,2,0:0:0:0:
352,288,36286,2,0,L|240:284,1,85,0|2,0:0|0:0,0:0:0:0:
80,200,36665,2,0,L|192:196,1,85,10|0,0:0|0:0,0:0:0:0:
380,208,37045,6,0,P|420:240|384:360,1,170,2|10,0:0|0:0,0:0:0:0:
280,216,37615,2,0,P|292:156|312:124,1,85,2|0,0:0|0:0,0:0:0:0:
392,40,37995,1,2,0:0:0:0:
244,40,38184,2,0,L|144:36,1,85,10|0,0:0|0:0,0:0:0:0:
24,168,38564,5,2,0:0:0:0:
84,32,38754,1,0,0:0:0:0:
208,168,38944,1,10,0:0:0:0:
88,116,39134,1,2,0:0:0:0:
112,248,39324,1,2,0:0:0:0:
112,248,39419,1,0,0:0:0:0:
112,248,39514,1,0,0:0:0:0:
112,248,39608,1,0,0:0:0:0:
112,248,39703,2,0,L|100:312,1,42.5,10|0,0:0|0:0,0:0:0:0:
220,376,39893,2,0,L|212:328,1,42.5,2|0,0:0|0:0,0:0:0:0:
284,236,40083,6,0,P|328:272|420:220,1,170,6|10,0:0|0:0,0:0:0:0:
348,196,40653,1,2,0:0:0:0:
224,288,40843,1,0,0:0:0:0:
160,132,41033,2,0,L|256:120,1,85,2|10,0:0|0:0,0:0:0:0:
136,216,41412,1,0,0:0:0:0:
96,64,41602,6,0,L|0:52,2,85,2|2|8,0:0|0:0|0:0,0:0:0:0:
224,192,42172,2,0,P|272:228|344:208,1,127.5,2|0,0:0|0:0,0:0:0:0:
348,196,42552,1,2,0:0:0:0:
200,304,42741,2,0,P|152:296|92:296,1,85,2|0,0:0|0:0,0:0:0:0:
296,360,43121,6,0,P|344:368|404:368,1,85,2|0,0:0|0:0,0:0:0:0:
496,268,43501,1,10,0:0:0:0:
348,196,43691,2,0,P|336:148|348:16,1,170,2|2,0:0|0:0,0:0:0:0:
464,84,44260,1,10,0:0:0:0:
464,84,44450,1,0,0:0:0:0:
348,196,44640,6,0,P|272:192|232:192,1,85,2|2,0:0|0:0,0:0:0:0:
236,96,45020,1,10,0:0:0:0:
176,244,45210,1,0,0:0:0:0:
32,140,45400,2,0,L|100:128,1,42.5,2|0,0:0|0:0,0:0:0:0:
212,80,45590,2,0,L|160:72,1,42.5,0|0,0:0|0:0,0:0:0:0:
92,212,45779,2,0,P|84:248|88:264,1,42.5,10|0,0:0|0:0,0:0:0:0:
208,276,45969,2,0,P|216:312|212:328,1,42.5,0|0,0:0|0:0,0:0:0:0:
272,188,46159,6,0,P|320:164|440:196,1,170,2|10,0:0|0:0,0:0:0:0:
484,256,46729,1,2,0:0:0:0:
368,124,46919,2,0,P|360:72|364:20,1,85,0|2,0:0|0:0,0:0:0:0:
360,300,47298,2,0,L|248:320,1,85,10|0,0:0|0:0,0:0:0:0:
104,184,47678,6,0,P|160:164|224:252,1,170,2|10,0:0|0:0,0:0:0:0:
152,248,48248,1,2,0:0:0:0:
24,180,48438,2,0,P|24:124|28:72,1,85,0|2,0:0|0:0,0:0:0:0:
152,248,48817,2,0,P|152:304|148:356,1,85,10|0,0:0|0:0,0:0:0:0:
68,296,49197,5,2,0:0:0:0:
248,280,49387,1,2,0:0:0:0:
108,92,49577,2,0,L|16:96,2,85,10|0|0,0:0|0:0|0:0,0:0:0:0:
208,176,50146,1,2,0:0:0:0:
292,32,50336,1,10,0:0:0:0:
292,32,50716,6,0,L|416:36,1,85,2|2,0:0|0:0,0:0:0:0:
464,132,51096,1,10,0:0:0:0:
316,264,51286,2,0,P|300:192|320:124,1,127.5,2|0,0:0|0:0,0:0:0:0:
356,124,51665,2,0,L|244:128,1,85,2|10,0:0|0:0,0:0:0:0:
164,132,52045,1,0,0:0:0:0:
416,60,52235,6,0,B|436:96|436:96|436:160,1,85,10|0,0:0|0:0,0:0:0:0:
96,324,52615,2,0,B|76:288|76:288|76:224,1,85,10|0,0:0|0:0,0:0:0:0:
320,132,52995,1,10,0:0:0:0:
156,260,53184,1,10,0:0:0:0:
216,20,53374,1,10,0:0:0:0:
328,248,53564,2,0,L|472:248,1,127.5,0|0,0:0|0:0,0:0:0:0:
484,240,53944,5,10,0:0:0:0:
378,370,54134,1,2,0:0:0:0:
249,265,54324,1,2,0:0:0:0:
354,134,54514,1,10,0:0:0:0:
368,116,54893,5,8,0:0:0:0:
384,96,55273,6,0,L|496:84,1,101.999996887207,6|0,0:0|0:0,0:0:0:0:
304,24,55653,1,10,0:0:0:0:
288,192,55843,2,0,P|280:248|276:332,1,101.999996887207,2|2,0:0|0:0,0:0:0:0:
124,376,56222,2,0,P|120:325|112:274,1,101.999996887207,2|10,0:0|0:0,0:0:0:0:
4,192,56602,1,0,0:0:0:0:
136,80,56792,6,0,L|260:72,1,101.999996887207,2|0,0:0|0:0,0:0:0:0:
280,280,57172,1,10,0:0:0:0:
200,172,57362,1,2,0:0:0:0:
392,132,57552,2,0,P|408:204|404:256,1,101.999996887207,2|2,0:0|0:0,0:0:0:0:
128,256,57931,2,0,P|112:184|116:132,1,101.999996887207,10|0,0:0|0:0,0:0:0:0:
272,24,58311,6,0,L|260:244,1,203.999993774414,2|10,0:0|0:0,0:0:0:0:
174,338,58881,2,0,P|137:305|128:256,1,101.999996887207,2|2,0:0|0:0,0:0:0:0:
364,200,59260,1,2,0:0:0:0:
272,376,59450,1,10,0:0:0:0:
252,239,59640,1,2,0:3:0:0:
252,239,59735,1,0,0:0:0:0:
252,239,59830,5,8,0:3:0:0:
356,292,60020,1,2,0:0:0:0:
212,140,60210,1,10,0:0:0:0:
188,352,60400,1,8,0:3:0:0:
364,200,60590,5,8,0:3:0:0:
128,256,60779,1,0,0:0:0:0:
312,384,60969,2,0,P|384:368|432:360,1,101.999996887207,8|0,0:0|0:0,0:0:0:0:
512,228,61349,6,0,P|461:218|412:207,1,101.999996887207,6|0,0:0|0:0,0:0:0:0:
252,240,61729,1,10,0:0:0:0:
372,120,61919,2,0,P|372:64|352:16,1,101.999996887207,2|2,0:0|0:0,0:0:0:0:
120,168,62298,2,0,P|163:165|240:164,1,101.999996887207,2|10,0:0|0:0,0:0:0:0:
320,176,62678,1,0,0:0:0:0:
224,48,62868,5,2,0:0:0:0:
164,252,63058,1,0,0:0:0:0:
44,204,63248,1,10,0:0:0:0:
221,163,63438,1,2,0:0:0:0:
196,360,63627,6,0,L|72:352,1,101.999996887207,2|2,0:0|0:0,0:0:0:0:
304,240,64007,2,0,L|428:232,1,101.999996887207,10|0,0:0|0:0,0:0:0:0:
168,104,64387,6,0,P|140:152|232:244,1,203.999993774414,2|10,0:0|0:0,0:0:0:0:
336,84,64957,1,0,0:0:0:0:
220,164,65146,1,2,0:0:0:0:
276,8,65336,1,2,0:0:0:0:
404,164,65526,1,10,0:0:0:0:
392,0,65716,1,2,0:0:0:0:
304,204,65906,5,2,0:0:0:0:
304,204,66096,2,0,P|288:272|280:336,1,101.999996887207,0|10,0:0|0:0,0:0:0:0:
384,356,66476,1,2,0:0:0:0:
184,308,66665,2,0,L|72:320,1,101.999996887207,2|2,0:0|0:0,0:0:0:0:
304,204,67045,2,0,L|416:216,1,101.999996887207,10|0,0:0|0:0,0:0:0:0:
440,240,67330,1,0,0:0:0:0:
460,256,67425,6,0,B|468:172|468:172|452:144|452:144|460:36,1,203.999993774414,6|10,0:0|0:0,0:0:0:0:
0,120,68184,1,2,0:0:0:0:
88,200,68374,2,0,L|96:316,2,101.999996887207,2|10|2,0:0|0:0|0:0,0:0:0:0:
220,24,68944,5,2,0:0:0:0:
160,152,69134,1,0,0:0:0:0:
88,40,69324,1,10,0:0:0:0:
272,120,69514,2,0,P|256:228|252:324,1,203.999993774414,2|2,0:0|0:0,0:0:0:0:
160,356,70083,2,0,P|156:320|132:248,1,101.999996887207,10|0,0:0|0:0,0:0:0:0:
328,356,70463,6,0,P|348:284|424:236,1,152.999995330811,2|0,0:0|0:0,0:0:0:0:
440,244,70843,1,10,0:0:0:0:
376,112,71033,1,2,0:0:0:0:
480,96,71222,5,8,0:3:0:0:
352,252,71412,1,8,0:3:0:0:
400,24,71602,1,8,0:3:0:0:
512,264,71792,2,0,L|288:252,1,203.999993774414,0|0,0:0|0:0,0:0:0:0:
104,368,72362,2,0,P|164:356|208:332,1,101.999996887207,10|2,0:0|0:0,0:0:0:0:
180,132,72741,1,2,0:0:0:0:
140,280,72931,1,2,0:0:0:0:
4,192,73121,2,0,L|120:180,1,101.999996887207,10|0,0:0|0:0,0:0:0:0:
356,216,73501,6,0,P|312:260|192:208,1,203.999993774414,2|10,0:0|0:0,0:0:0:0:
368,120,74071,1,2,0:0:0:0:
416,272,74260,2,0,P|465:269|528:272,1,101.999996887207,2|2,0:0|0:0,0:0:0:0:
376,364,74640,1,10,0:0:0:0:
276,176,74830,1,0,0:0:0:0:
476,172,75020,5,8,0:3:0:0:
80,124,75779,5,2,0:0:0:0:
168,52,75969,1,0,0:0:0:0:
168,52,76064,1,0,0:0:0:0:
168,52,76159,1,8,0:0:0:0:
168,52,76539,6,0,P|184:124|172:236,1,170,4|10,0:0|0:0,0:0:0:0:
108,348,77108,1,2,0:0:0:0:
4,224,77298,2,0,L|100:208,1,85,0|2,0:0|0:0,0:0:0:0:
204,320,77678,2,0,P|232:328|296:320,1,85,8|0,0:0|0:0,0:0:0:0:
280,112,78058,6,0,P|236:148|248:260,1,170,2|10,0:0|0:0,0:0:0:0:
392,100,78627,1,2,0:0:0:0:
316,24,78817,2,0,P|274:18|232:27,1,85,0|2,0:0|0:0,0:0:0:0:
80,224,79197,2,0,P|96:263|124:294,1,85,8|0,0:0|0:0,0:0:0:0:
371,327,79577,6,0,P|408:296|424:152,1,170,2|10,0:0|0:0,0:0:0:0:
264,376,80146,1,2,0:0:0:0:
188,272,80336,2,0,L|80:264,1,85,0|2,0:0|0:0,0:0:0:0:
312,228,80716,1,8,0:0:0:0:
216,156,80906,6,0,P|208:88|284:32,1,170,2|0,0:0|0:0,0:0:0:0:
416,172,81476,2,0,L|424:276,1,85,10|0,0:0|0:0,0:0:0:0:
312,228,81855,2,0,L|320:332,1,85,2|0,0:0|0:0,0:0:0:0:
212,284,82235,2,0,L|220:388,1,85,10|0,0:0|0:0,0:0:0:0:
152,192,82615,6,0,P|96:232|0:192,1,170,2|10,0:0|0:0,0:0:0:0:
212,112,83184,1,2,0:0:0:0:
252,216,83374,1,0,0:0:0:0:
288,44,83564,1,2,0:0:0:0:
380,116,83754,1,8,0:0:0:0:
204,24,83944,1,2,0:0:0:0:
336,200,84134,6,0,P|328:264|220:296,1,170,2|10,0:0|0:0,0:0:0:0:
56,208,84703,1,2,0:0:0:0:
92,372,84893,2,0,L|196:364,1,85,0|0,0:0|0:0,0:0:0:0:
188,152,85273,2,0,P|160:196|152:252,1,85,10|0,0:0|0:0,0:0:0:0:
284,312,85653,6,0,L|464:328,1,170,2|10,0:0|0:0,0:0:0:0:
332,184,86222,1,2,0:0:0:0:
240,240,86412,2,0,P|204:272|196:324,1,85,0|2,0:0|0:0,0:0:0:0:
332,184,86792,1,8,0:0:0:0:
240,72,86982,6,0,L|60:88,1,170,2|0,0:0|0:0,0:0:0:0:
28,232,87552,2,0,P|16:288|16:336,1,85,10|2,0:0|0:0,0:0:0:0:
24,336,87836,1,0,0:0:0:0:
36,352,87931,2,0,L|136:352,1,85,8|0,0:0|0:0,0:0:0:0:
260,348,88311,1,10,0:0:0:0:
188,236,88501,1,2,0:0:0:0:
372,152,88691,6,0,P|380:216|384:348,1,170,4|8,0:0|0:0,0:0:0:0:
120,228,89260,2,0,P|122:143|132:58,1,170,10|0,0:0|0:0,0:0:0:0:
272,308,89830,2,0,L|88:316,1,170,10|0,0:0|0:0,0:0:0:0:
248,64,90400,2,0,L|417:71,1,170,10|0,0:0|0:0,0:0:0:0:
444,96,90874,1,0,0:0:0:0:
444,96,90969,2,0,B|456:152|456:152|452:172|452:172|464:228,2,127.5,0|0|0,3:3|3:0|3:0,0:0:0:0:
60,340,92108,6,0,L|188:328,1,127.5,8|0,0:0|0:0,0:0:0:0:
186,328,92868,1,8,0:0:0:0:
124,240,93058,2,0,P|116:192|136:96,1,127.500004863739,0|0,0:0|0:0,0:0:0:0:
216,84,93627,2,0,L|284:76,1,63.7500024318696,8|0,0:0|0:0,0:0:0:0:
356,24,94007,2,0,P|388:68|372:124,1,95.6250036478044,0|0,0:0|0:0,0:0:0:0:
368,128,94387,1,8,0:0:0:0:
460,184,94577,1,8,0:0:0:0:
404,332,94767,5,6,0:0:0:0:
308,252,94957,1,0,0:0:0:0:
216,340,95146,2,0,P|160:356|116:344,1,85,10|2,0:0|0:0,0:0:0:0:
92,192,95526,1,0,0:0:0:0:
168,276,95716,1,2,0:0:0:0:
260,140,95906,2,0,L|168:128,1,85,10|0,0:0|0:0,0:0:0:0:
308,252,96286,6,0,P|344:312|448:280,1,170,2|10,0:0|0:0,0:0:0:0:
476,144,96855,1,2,0:0:0:0:
364,168,97045,1,0,0:0:0:0:
476,144,97235,2,0,L|480:44,1,85,2|10,0:0|0:0,0:0:0:0:
344,32,97615,1,0,0:0:0:0:
364,168,97805,6,0,P|320:208|216:160,1,170,2|10,0:0|0:0,0:0:0:0:
124,192,98374,2,0,P|132:128|148:96,1,85,2|0,0:0|0:0,0:0:0:0:
45,69,98754,1,2,0:0:0:0:
256,44,98944,2,0,L|160:32,1,85,10|0,0:0|0:0,0:0:0:0:
328,120,99324,5,2,0:0:0:0:
240,192,99514,1,0,0:0:0:0:
240,192,99608,1,0,0:0:0:0:
240,192,99703,1,10,0:0:0:0:
256,44,99893,1,2,0:0:0:0:
292,252,100083,2,0,P|223:270|193:258,1,85,0|2,0:0|0:0,0:0:0:0:
64,184,100463,2,0,P|132:165|162:177,1,85,10|0,0:0|0:0,0:0:0:0:
154,72,100843,6,0,P|227:110|240:192,1,170,2|10,0:0|0:0,0:0:0:0:
168,356,101412,1,2,0:0:0:0:
92,272,101602,2,0,L|-12:264,2,85,0|2|10,0:0|0:0|0:0,0:0:0:0:
240,192,102172,1,0,0:0:0:0:
160,188,102362,6,0,P|184:252|292:248,1,170,2|10,0:0|0:0,0:0:0:0:
400,128,102931,1,2,0:0:0:0:
400,128,103026,1,0,0:0:0:0:
400,128,103121,2,0,L|388:68,1,42.5,2|0,0:0|0:0,0:0:0:0:
288,96,103311,2,0,L|300:32,1,42.5,2|0,0:0|0:0,0:0:0:0:
204,24,103501,2,0,P|192:80|164:120,1,85,10|0,0:0|0:0,0:0:0:0:
8,112,103881,6,0,L|178:103,1,170,6|10,0:0|0:0,0:0:0:0:
99,194,104450,1,2,0:0:0:0:
88,36,104640,2,0,L|0:40,2,85,0|2|10,0:0|0:0|0:0,0:0:0:0:
288,136,105210,1,0,0:0:0:0:
228,243,105400,6,0,P|149:259|100:196,1,170,2|10,0:0|0:0,0:0:0:0:
0,144,105969,1,2,0:0:0:0:
48,284,106159,2,0,P|56:336|56:380,1,85,0|2,0:0|0:0,0:0:0:0:
180,184,106539,2,0,P|172:132|172:88,1,85,10|0,0:0|0:0,0:0:0:0:
288,44,106919,6,0,L|464:28,1,170,2|10,0:0|0:0,0:0:0:0:
368,120,107488,1,2,0:0:0:0:
464,176,107678,2,0,P|472:224|464:280,1,85,0|2,0:0|0:0,0:0:0:0:
332,312,108058,1,10,0:0:0:0:
400,228,108248,1,0,0:0:0:0:
260,244,108438,6,0,L|172:236,2,85,2|0|10,0:0|0:0|0:0,0:0:0:0:
184,160,109007,2,0,B|332:172|332:172|300:200,1,170,2|2,0:0|0:0,0:0:0:0:
104,200,109577,2,0,P|96:152|104:108,1,85,10|0,0:0|0:0,0:0:0:0:
288,80,109957,5,2,0:0:0:0:
184,160,110146,1,0,0:0:0:0:
164,24,110336,1,10,0:0:0:0:
312,64,110526,2,0,L|416:68,1,85,2|0,0:0|0:0,0:0:0:0:
264,180,110906,1,2,0:0:0:0:
388,152,111096,2,0,L|492:156,1,85,10|0,0:0|0:0,0:0:0:0:
344,244,111476,5,2,0:0:0:0:
312,64,111665,1,0,0:0:0:0:
256,268,111855,2,0,P|280:312|328:336,1,85,10|2,0:0|0:0,0:0:0:0:
264,180,112235,2,0,L|164:168,1,85,0|2,0:0|0:0,0:0:0:0:
24,256,112615,2,0,L|124:244,1,85,10|0,0:0|0:0,0:0:0:0:
104,32,112995,6,0,P|56:64|96:172,1,170,2|10,0:0|0:0,0:0:0:0:
200,64,113564,1,2,0:0:0:0:
200,64,113754,2,0,P|272:52|292:52,1,85,0|2,0:0|0:0,0:0:0:0:
392,100,114134,1,10,0:0:0:0:
296,176,114324,1,0,0:0:0:0:
424,228,114514,6,0,P|428:288|428:324,1,85,2|0,0:0|0:0,0:0:0:0:
276,348,114893,1,10,0:0:0:0:
340,272,115083,1,2,0:0:0:0:
216,240,115273,1,2,0:0:0:0:
216,240,115368,1,0,0:0:0:0:
216,240,115463,1,0,0:0:0:0:
216,240,115558,1,0,0:0:0:0:
216,240,115653,2,0,L|148:232,1,42.5,10|0,0:0|0:0,0:0:0:0:
37,304,115843,2,0,L|80:300,1,42.5,2|0,0:0|0:0,0:0:0:0:
156,126,116033,6,0,P|77:153|0:124,1,170,6|8,0:0|0:0,0:0:0:0:
280,104,116602,1,2,0:0:0:0:
120,56,116792,1,0,0:0:0:0:
296,16,116982,1,0,0:0:0:0:
196,172,117172,1,10,0:0:0:0:
352,224,117362,1,0,0:0:0:0:
352,224,117552,6,0,P|368:156|368:132,2,85,2|2|8,0:0|0:0|0:0,0:0:0:0:
272,344,118121,2,0,L|116:348,1,127.5,2|0,0:0|0:0,0:0:0:0:
108,348,118501,1,2,0:0:0:0:
200,256,118691,2,0,P|212:208|212:156,1,85,10|0,0:0|0:0,0:0:0:0:
52,112,119071,6,0,P|40:160|40:212,1,85,2|0,0:0|0:0,0:0:0:0:
184,88,119450,1,8,0:0:0:0:
52,112,119640,1,2,0:0:0:0:
184,88,119830,2,0,L|276:80,1,85,0|0,0:0|0:0,0:0:0:0:
340,8,120210,1,10,0:0:0:0:
400,168,120400,6,0,P|340:212|264:136,1,170,2|0,0:0|0:0,0:0:0:0:
496,116,120969,2,0,L|504:212,1,85,10|2,0:0|0:0,0:0:0:0:
284,352,121349,2,0,P|280:320|280:292,1,42.5,2|0,0:0|0:0,0:0:0:0:
388,248,121539,2,0,P|392:280|392:308,1,42.5,0|0,0:0|0:0,0:0:0:0:
264,200,121729,2,0,P|224:188|212:188,1,42.5,10|0,0:0|0:0,0:0:0:0:
356,104,121919,2,0,P|396:92|408:92,1,42.5,2|0,0:0|0:0,0:0:0:0:
284,24,122108,6,0,P|256:84|152:56,1,170,2|8,0:0|0:0,0:0:0:0:
60,20,122678,1,2,0:0:0:0:
96,128,122868,2,0,P|104:192|104:240,1,85,0|2,0:0|0:0,0:0:0:0:
200,232,123248,2,0,P|176:280|136:308,1,85,10|0,0:0|0:0,0:0:0:0:
244,360,123627,5,2,0:0:0:0:
316,292,123817,1,0,0:0:0:0:
464,348,124007,2,0,L|360:348,1,85,10|2,0:0|0:0,0:0:0:0:
276,219,124387,2,0,P|285:177|304:140,1,85,0|2,0:0|0:0,0:0:0:0:
484,196,124767,2,0,P|502:233|511:275,1,85,10|0,0:0|0:0,0:0:0:0:
376,276,125146,6,0,L|392:80,1,170,2|8,0:0|0:0,0:0:0:0:
272,96,125716,1,2,0:0:0:0:
456,152,125906,2,0,L|552:144,1,85,2|0,0:0|0:0,0:0:0:0:
376,276,126286,2,0,L|280:268,1,85,10|0,0:0|0:0,0:0:0:0:
172,184,126665,5,2,0:0:0:0:
236,352,126855,1,2,0:0:0:0:
276,188,127045,1,10,0:0:0:0:
148,272,127235,2,0,L|36:268,1,85,0|0,0:0|0:0,0:0:0:0:
16,136,127615,2,0,P|8:92|16:40,2,85,2|10|0,0:0|0:0|0:0,0:0:0:0:
200,72,128184,5,10,0:0:0:0:
64,192,128374,1,0,0:0:0:0:
240,176,128564,1,10,0:0:0:0:
76,88,128754,1,0,0:0:0:0:
144,244,128944,5,2,0:0:0:0:
200,72,129134,1,10,0:0:0:0:
256,296,129324,1,10,0:0:0:0:
416,192,129514,2,0,L|264:180,1,127.5,10|0,0:0|0:0,0:0:0:0:
240,176,129893,5,2,0:0:0:0:
320,84,130083,1,10,0:0:0:0:
272,288,130273,1,2,0:0:0:0:
128,152,130463,1,10,0:0:0:0:
120,124,130843,5,10,0:0:0:0:
112,96,131222,6,0,L|0:92,1,101.999996887207,6|0,0:0|0:0,0:0:0:0:
144,232,131602,1,10,0:0:0:0:
232,136,131792,2,0,P|248:88|248:36,1,101.999996887207,2|2,0:0|0:0,0:0:0:0:
256,248,132172,2,0,P|292:280|360:284,1,101.999996887207,2|10,0:0|0:0,0:0:0:0:
184,348,132552,1,0,0:0:0:0:
144,232,132741,6,0,L|20:228,2,101.999996887207,2|0|10,0:0|0:0|0:0,0:0:0:0:
316,168,133311,1,2,0:0:0:0:
132,120,133501,1,2,0:0:0:0:
132,120,133691,1,2,0:0:0:0:
216,312,133881,2,0,L|224:192,1,101.999996887207,10|0,0:0|0:0,0:0:0:0:
172,32,134260,6,0,P|216:88|332:20,1,203.999993774414,2|10,0:0|0:0,0:0:0:0:
252,8,134830,1,2,0:0:0:0:
132,120,135020,2,0,P|116:184|112:256,1,101.999996887207,2|2,0:0|0:0,0:0:0:0:
228,352,135400,1,10,0:0:0:0:
280,208,135590,1,2,0:3:0:0:
280,208,135684,1,0,0:0:0:0:
280,208,135779,5,8,0:3:0:0:
316,380,135969,1,2,0:0:0:0:
184,260,136159,1,2,0:0:0:0:
372,256,136349,1,10,0:3:0:0:
404,64,136539,5,8,0:3:0:0:
284,124,136729,1,2,0:0:0:0:
404,252,136919,2,0,L|520:244,1,101.999996887207,8|0,0:0|0:0,0:0:0:0:
360,144,137298,6,0,P|320:200|212:144,1,203.999993774414,2|10,0:0|0:0,0:0:0:0:
124,180,137868,1,2,0:0:0:0:
212,28,138058,1,2,0:0:0:0:
24,96,138248,2,0,L|20:200,1,101.999996887207,2|10,0:0|0:0,0:0:0:0:
199,243,138627,1,0,0:0:0:0:
8,284,138817,5,2,0:0:0:0:
88,384,139007,1,0,0:0:0:0:
216,343,139197,2,0,P|214:292|200:244,1,101.999996887207,10|2,0:0|0:0,0:0:0:0:
64,64,139577,2,0,L|192:44,1,101.999996887207,2|2,0:0|0:0,0:0:0:0:
360,176,139957,2,0,L|232:196,1,101.999996887207,10|0,0:0|0:0,0:0:0:0:
360,92,140336,6,0,P|428:120|408:244,1,203.999993774414,2|10,0:0|0:0,0:0:0:0:
400,352,140906,1,2,0:0:0:0:
264,256,141096,1,2,0:0:0:0:
296,368,141286,1,2,0:0:0:0:
360,176,141476,1,10,0:0:0:0:
168,272,141665,1,0,0:0:0:0:
360,268,141855,5,2,0:0:0:0:
148,168,142045,1,0,0:0:0:0:
288,60,142235,2,0,L|280:180,1,101.999996887207,10|2,0:0|0:0,0:0:0:0:
128,312,142615,2,0,P|192:252|236:240,1,101.999996887207,2|2,0:0|0:0,0:0:0:0:
384,360,142995,2,0,P|300:334|267:302,1,101.999996887207,10|0,0:0|0:0,0:0:0:0:
128,312,143374,6,0,L|125:101,1,203.999993774414,6|10,0:0|0:0,0:0:0:0:
496,176,144134,1,2,0:0:0:0:
392,248,144324,2,0,P|384:304|392:364,2,101.999996887207,2|10|0,0:0|0:0|0:0,0:0:0:0:
408,96,144893,6,0,L|272:80,1,101.999996887207,2|0,0:0|0:0,0:0:0:0:
169,144,145273,1,10,0:0:0:0:
169,144,145463,2,0,P|261:167|306:84,1,203.999993774414,2|2,0:0|0:0,0:0:0:0:
76,60,146033,1,10,0:0:0:0:
168,144,146222,1,0,0:0:0:0:
48,184,146412,6,0,P|49:234|52:285,1,101.999996887207,2|0,0:0|0:0,0:0:0:0:
160,364,146792,1,10,0:0:0:0:
300,280,146982,1,2,0:0:0:0:
204,216,147172,1,8,0:3:0:0:
260,364,147362,1,8,0:3:0:0:
336,200,147552,1,8,0:3:0:0:
252,56,147741,6,0,P|192:88|104:52,1,152.999995330811,2|0,0:0|0:0,0:0:0:0:
88,36,148121,1,2,0:0:0:0:
16,164,148311,2,0,P|24:224|20:284,1,101.999996887207,10|2,0:0|0:0,0:0:0:0:
136,360,148691,1,2,0:0:0:0:
136,360,148786,1,0,0:0:0:0:
136,360,148881,1,0,0:0:0:0:
180,232,149071,2,0,P|248:212|304:212,1,101.999996887207,10|0,0:0|0:0,0:0:0:0:
464,144,149450,6,0,P|400:144|264:96,1,203.999993774414,2|10,0:0|0:0,0:0:0:0:
148,56,150020,1,2,0:0:0:0:
148,56,150210,2,0,P|156:128|148:172,1,101.999996887207,2|2,0:0|0:0,0:0:0:0:
8,288,150590,2,0,P|3:238|12:188,1,101.999996887207,10|0,0:0|0:0,0:0:0:0:
184,300,150969,5,2,0:0:0:0:
184,300,151729,5,0,0:0:0:0:
280,200,151919,1,2,0:0:0:0:
88,208,152108,2,0,L|80:328,1,101.999996887207,8|0,0:0|0:0,0:0:0:0:
224,344,152488,5,4,0:0:0:0:
92,68,164640,6,0,L|200:72,1,85,2|0,0:0|0:0,0:0:0:0:
307,45,165020,1,8,0:0:0:0:
178,171,165208,2,0,P|188:209|224:248,1,85,2|0,0:0|0:0,0:0:0:0:
384,212,165590,1,2,0:0:0:0:
384,212,165779,2,0,P|354:185|304:172,1,85,10|0,0:0|0:0,0:0:0:0:
107,100,166159,6,0,P|87:134|76:184,1,85,2|0,0:0|0:0,0:0:0:0:
72,308,166539,1,10,0:0:0:0:
179,171,166729,2,0,P|192:272|188:304,1,127.5,2|0,0:0|0:0,0:0:0:0:
168,336,167108,1,2,0:0:0:0:
88,232,167298,1,10,0:0:0:0:
276,208,167488,1,0,0:0:0:0:
168,368,167678,5,2,0:0:0:0:
9,258,167868,2,0,P|46:236|88:232,1,85,0|8,0:0|0:0,0:0:0:0:
276,208,168248,2,0,L|280:104,1,85,2|0,0:0|0:0,0:0:0:0:
179,171,168627,1,2,0:0:0:0:
368,256,168817,2,0,L|372:152,1,85,10|0,0:0|0:0,0:0:0:0:
316,36,169197,5,2,0:0:0:0:
288,24,169292,1,0,0:0:0:0:
260,20,169387,1,0,0:0:0:0:
232,20,169482,1,0,0:0:0:0:
204,32,169577,2,0,L|168:76,3,42.5,8|0|0|0,0:0|0:0|0:0|0:0,0:0:0:0:
84,76,169957,6,0,P|76:120|80:144,1,42.5,2|0,0:0|0:0,0:0:0:0:
184,212,170146,2,0,P|156:180|136:168,1,42.5,8|0,0:0|0:0,0:0:0:0:
52,232,170336,1,10,0:0:0:0:
148,320,170526,1,2,0:0:0:0:
148,320,170621,1,0,0:0:0:0:
148,320,170716,6,0,L|252:312,1,85,4|0,0:0|0:0,0:0:0:0:
328,380,171096,1,10,0:0:0:0:
276,224,171286,2,0,P|264:160|264:116,1,85,2|0,0:0|0:0,0:0:0:0:
460,136,171665,1,2,0:0:0:0:
352,264,171855,1,10,0:0:0:0:
308,68,172045,1,0,0:0:0:0:
440,228,172235,5,2,0:0:0:0:
404,52,172425,1,0,0:0:0:0:
276,224,172615,2,0,P|242:239|188:245,1,85,8|2,0:0|0:0,0:0:0:0:
40,112,172995,1,0,0:0:0:0:
44,264,173184,1,2,0:0:0:0:
179,171,173374,1,10,0:0:0:0:
232,315,173564,1,0,0:0:0:0:
232,315,173659,1,0,0:0:0:0:
232,315,173754,6,0,P|189:315|147:323,1,85,10|0,0:0|0:0,0:0:0:0:
80,184,174134,1,8,0:0:0:0:
216,52,174324,2,0,L|216:244,1,170,10|2,0:0|0:0,0:0:0:0:
96,204,174893,5,10,0:0:0:0:
288,96,175083,1,0,0:0:0:0:
132,16,175273,1,10,0:0:0:0:
24,192,175463,2,0,P|32:244|148:256,1,170,10|2,0:0|0:0,0:0:0:0:
280,200,176033,6,0,P|352:188|380:188,1,85,2|0,0:0|0:0,0:0:0:0:
460,96,176412,2,0,P|436:92|416:80,1,42.5,10|0,0:0|0:0,0:0:0:0:
328,68,176602,2,0,P|324:56|320:12,1,42.5,2|0,0:0|0:0,0:0:0:0:
216,88,176792,6,0,P|200:152|192:204,1,85,2|0,0:0|0:0,0:0:0:0:
312,308,177172,2,0,P|303:266|292:225,1,85,10|2,0:0|0:0,0:0:0:0:
208,300,177552,5,10,0:0:0:0:
368,132,177741,1,2,0:0:0:0:
132,196,177931,1,10,0:0:0:0:
416,208,178121,1,2,0:0:0:0:
188,24,178501,5,8,0:0:0:0:
188,24,178691,2,0,L|180:120,1,85,10|0,0:0|0:0,0:0:0:0:
190,241,179071,2,0,P|115:270|56:216,1,170,2|8,0:0|0:0,0:0:0:0:
396,188,179640,1,2,0:0:0:0:
376,168,180020,5,10,0:0:0:0:
304,288,180210,1,10,0:0:0:0:
252,120,180400,1,10,0:0:0:0:
208,288,180590,1,10,0:0:0:0:
184,308,180969,6,0,P|128:340|48:316,1,127.5,10|0,0:0|0:0,0:0:0:0:
56,292,181349,6,0,L|56:184,1,101.999996887207,6|0,0:0|0:0,0:0:0:0:
252,120,181729,1,10,0:0:0:0:
296,252,181919,2,0,L|296:360,1,101.999996887207,2|0,0:0|0:0,0:0:0:0:
368,144,182298,1,2,0:0:0:0:
208,212,182488,1,10,0:0:0:0:
228,20,182678,1,0,0:0:0:0:
228,20,182868,6,0,L|344:16,1,101.999996887207,2|0,0:0|0:0,0:0:0:0:
184,160,183248,1,10,0:0:0:0:
80,36,183438,1,2,0:0:0:0:
96,284,183627,2,0,P|172:288|204:264,1,101.999996887207,2|2,0:0|0:0,0:0:0:0:
248,56,184007,2,0,P|206:119|211:159,1,101.999996887207,10|0,0:0|0:0,0:0:0:0:
336,304,184387,6,0,B|368:220|348:156|348:156|296:180,1,203.999993774414,2|10,0:0|0:0,0:0:0:0:
280,352,184957,2,0,P|315:374|400:345,1,101.999996887207,2|2,0:0|0:0,0:0:0:0:
204,184,185336,2,0,P|154:176|110:200,1,101.999996887207,2|10,0:0|0:0,0:0:0:0:
172,268,185716,1,2,0:3:0:0:
172,268,185811,1,0,0:0:0:0:
172,268,185906,5,2,0:0:0:0:
224,80,186096,1,2,0:0:0:0:
112,192,186286,1,10,0:0:0:0:
304,140,186476,1,8,0:3:0:0:
64,120,186665,5,8,0:3:0:0:
96,280,186855,1,2,0:0:0:0:
224,80,187045,2,0,L|116:72,1,101.999996887207,10|2,0:0|0:0,0:0:0:0:
232,176,187425,6,0,P|292:224|384:148,1,203.999993774414,2|10,0:0|0:0,0:0:0:0:
302,38,187995,1,2,0:0:0:0:
302,38,188184,2,0,P|299:89|304:140,1,101.999996887207,2|2,0:0|0:0,0:0:0:0:
188,248,188564,1,10,0:0:0:0:
304,140,188754,1,0,0:0:0:0:
160,72,188944,6,0,L|48:72,1,101.999996887207,2|0,0:0|0:0,0:0:0:0:
132,180,189324,1,10,0:0:0:0:
228,28,189514,1,2,0:0:0:0:
272,212,189703,2,0,P|280:276|272:316,1,101.999996887207,2|2,0:0|0:0,0:0:0:0:
56,228,190083,2,0,P|48:177|57:127,1,101.999996887207,10|0,0:0|0:0,0:0:0:0:
272,212,190463,6,0,P|188:255|132:180,1,203.999993774414,2|10,0:0|0:0,0:0:0:0:
336,44,191033,1,2,0:0:0:0:
336,44,191222,2,0,L|340:164,1,101.999996887207,2|2,0:0|0:0,0:0:0:0:
248,256,191602,1,10,0:0:0:0:
404,176,191792,1,0,0:0:0:0:
244,16,191982,6,0,L|248:136,1,101.999996887207,2|0,0:0|0:0,0:0:0:0:
156,312,192362,1,10,0:0:0:0:
280,184,192552,1,2,0:0:0:0:
48,272,192741,5,2,0:0:0:0:
224,240,192931,1,2,0:0:0:0:
128,192,193121,1,10,0:0:0:0:
244,336,193311,2,0,P|264:344|312:344,1,50.9999984436036,0|0,0:0|0:0,0:0:0:0:
436,216,193501,6,0,P|376:188|292:276,2,203.999993774414,2|10|2,0:0|0:0|0:0,0:0:0:0:
376,276,194450,1,2,0:0:0:0:
424,88,194640,2,0,P|344:80|312:68,1,101.999996887207,10|0,0:0|0:0,0:0:0:0:
180,144,195020,5,2,0:0:0:0:
260,0,195210,1,0,0:0:0:0:
112,72,195400,1,10,0:0:0:0:
264,148,195590,2,0,P|263:259|248:376,1,203.999993774414,2|2,0:0|0:0,0:0:0:0:
124,384,196159,1,10,0:0:0:0:
120,252,196349,1,0,0:0:0:0:
252,351,196539,6,0,L|384:340,1,101.999996887207,2|0,0:0|0:0,0:0:0:0:
488,188,196919,1,10,0:0:0:0:
356,240,197108,1,2,0:0:0:0:
356,240,197298,5,8,0:3:0:0:
408,96,197488,1,8,0:3:0:0:
456,304,197678,1,8,0:3:0:0:
252,352,197868,6,0,L|40:340,1,203.999993774414,8|0,0:3|0:0,0:0:0:0:
0,228,198438,2,0,P|48:220|120:188,1,101.999996887207,10|2,0:0|0:0,0:0:0:0:
188,252,198817,1,0,0:0:0:0:
112,80,199007,1,2,0:0:0:0:
312,32,199197,2,0,P|304:92|288:156,1,101.999996887207,10|0,0:0|0:0,0:0:0:0:
188,252,199577,6,0,P|252:220|336:248,1,152.999995330811,2|0,0:0|0:0,0:0:0:0:
328,272,199957,2,0,P|392:291|440:271,1,101.999996887207,10|2,0:0|0:0,0:0:0:0:
120,204,200336,2,0,P|104:268|112:320,1,101.999996887207,0|0,0:0|0:0,0:0:0:0:
272,372,200716,1,10,0:0:0:0:
188,252,200906,1,2,0:0:0:0:
328,84,201096,6,0,L|320:204,1,101.999996887207,2|0,0:0|0:0,0:0:0:0:
192,308,201476,2,0,L|185:206,1,101.999996887207,10|0,0:0|0:0,0:0:0:0:
244,112,201855,1,2,0:0:0:0:
84,240,202045,1,0,0:0:0:0:
160,40,202235,1,10,0:0:0:0:
260,232,202425,1,0,0:0:0:0:
447,125,202615,6,0,L|244:112,1,203.999993774414,2|10,0:0|0:0,0:0:0:0:
168,224,203184,1,0,0:0:0:0:
160,40,203374,1,2,0:0:0:0:
40,200,203564,1,2,0:0:0:0:
208,108,203754,1,10,0:0:0:0:
248,248,203944,6,0,P|177:315|94:265,1,203.999993774414,10|0,0:0|0:0,0:0:0:0:
308,168,204514,2,0,L|420:160,1,101.999996887207,10|0,0:0|0:0,0:0:0:0:
168,224,204893,2,0,L|56:216,1,101.999996887207,10|0,0:0|0:0,0:0:0:0:
276,280,205273,1,10,0:0:0:0:
192,132,205463,1,10,0:0:0:0:
324,32,205653,5,10,0:0:0:0:
408,340,206033,1,10,0:0:0:0:
408,340,206222,1,8,0:0:0:0:
44,296,206602,1,0,0:0:0:0:
124,232,206792,1,10,0:0:0:0:
76,140,206982,1,8,0:0:0:0:
0,212,207172,5,2,0:0:0:0:
240,164,207362,1,2,0:0:0:0:
240,164,208691,6,0,B|268:208|268:208|248:344,1,170,6|8,0:0|0:0,0:0:0:0:
180,232,209260,1,2,0:0:0:0:
304,112,209450,2,0,L|364:188,1,85,0|2,0:0|0:0,0:0:0:0:
152,132,209830,2,0,P|140:84|164:28,1,85,10|0,0:0|0:0,0:0:0:0:
224,168,210210,6,0,P|184:212|76:168,1,170,2|8,0:0|0:0,0:0:0:0:
232,72,210779,1,2,0:0:0:0:
300,208,210969,1,0,0:0:0:0:
300,208,211159,1,2,0:0:0:0:
364,104,211349,1,10,0:0:0:0:
224,164,211539,1,0,0:0:0:0:
420,188,211729,6,0,L|436:12,1,170,2|8,0:0|0:0,0:0:0:0:
300,208,212298,1,2,0:0:0:0:
384,272,212488,2,0,P|424:308|440:340,2,85,0|2|10,0:0|0:0|0:0,0:0:0:0:
224,304,213058,2,0,P|264:360|368:328,1,170,6|0,0:0|0:0,0:0:0:0:
400,160,213627,6,0,L|408:56,1,85,10|0,0:0|0:0,0:0:0:0:
148,144,214007,1,10,0:0:0:0:
312,68,214197,1,2,0:0:0:0:
304,256,214387,1,10,0:0:0:0:
300,280,214767,6,0,L|104:272,1,170,6|10,0:0|0:0,0:0:0:0:
12,316,215336,1,2,0:0:0:0:
16,152,215526,2,0,P|68:128|120:120,1,85,0|2,0:0|0:0,0:0:0:0:
240,204,215906,2,0,P|193:170|160:129,1,85,10|0,0:0|0:0,0:0:0:0:
100,4,216286,6,0,L|80:212,1,170,2|10,0:0|0:0,0:0:0:0:
192,356,216855,1,2,0:0:0:0:
192,356,217045,2,0,L|176:260,1,85,0|2,0:0|0:0,0:0:0:0:
320,164,217425,2,0,L|336:260,1,85,10|0,0:0|0:0,0:0:0:0:
240,80,217805,6,0,P|228:144|112:152,1,170,2|10,0:0|0:0,0:0:0:0:
164,92,218374,1,2,0:0:0:0:
320,164,218564,2,0,P|315:211|320:280,2,85,0|2|10,0:0|0:0|0:0,0:0:0:0:
164,92,219134,6,0,P|172:160|172:280,1,170,6|0,0:0|0:0,0:0:0:0:
88,344,219703,1,10,0:0:0:0:
248,288,219893,1,0,0:0:0:0:
248,288,219988,1,0,0:0:0:0:
248,288,220083,1,8,0:0:0:0:
88,200,220273,1,2,0:0:0:0:
184,352,220463,1,10,0:0:0:0:
332,236,220653,1,2,0:0:0:0:
332,236,220843,6,0,P|396:216|496:232,1,170,6|8,0:0|0:0,0:0:0:0:
208,324,221412,2,0,P|144:344|44:328,1,170,6|0,0:0|0:0,0:0:0:0:
256,120,221982,1,4,0:0:0:0:
256,192,222172,12,0,226539,0:0:0:0:
