osu file format v14

[General]
AudioFilename: BRIGHT - Ichinen Nikagetsu Hatsuka.mp3
AudioLeadIn: 0
PreviewTime: 167144
Countdown: 0
SampleSet: Soft
StackLeniency: 0.5
Mode: 0
LetterboxInBreaks: 0
WidescreenStoryboard: 1

[Editor]
DistanceSpacing: 0.7
BeatDivisor: 4
GridSize: 8
TimelineZoom: 1

[Metadata]
Title:Ichinen Nikagetsu Hatsuka
TitleUnicode:1年2ヶ月と20日
Artist:BRIGHT
ArtistUnicode:BRIGHT
Creator:Tsuburaya-01
Version:Allright
Source:
Tags:sao sword art online lisbeth kirito asuna
BeatmapID:651746
BeatmapSetID:289075

[Difficulty]
HPDrainRate:5
CircleSize:3.5
OverallDifficulty:4.5
ApproachRate:7.5
SliderMultiplier:1.5
SliderTickRate:1

[Events]
//Background and Video events
0,0,"Ichi Ni Hatsu.jpg",0,0
//Break Periods
2,237176,250142
//Storyboard Layer 0 (Background)
//Storyboard Layer 1 (Fail)
//Storyboard Layer 2 (Pass)
//Storyboard Layer 3 (Foreground)
//Storyboard Sound Samples

[TimingPoints]
1010,504.201680672269,4,2,0,18,1,0
17144,-50,4,2,0,18,0,0
17648,-100,4,2,0,18,0,0
19161,-100,4,2,0,35,0,1
32270,-100,4,2,0,35,0,0
35295,-100,4,2,0,35,0,1
49413,-100,4,2,0,18,0,0
51430,-100,4,2,0,15,0,0
59497,-100,4,2,0,23,0,0
75631,-100,4,2,0,28,0,0
91766,-50,4,2,0,28,0,0
92270,-100,4,2,0,28,0,0
93783,-100,4,2,0,35,0,1
106892,-100,4,2,0,35,0,0
109917,-100,4,2,0,35,0,1
124035,-100,4,2,0,18,0,0
126052,-100,4,2,0,20,0,0
134119,-100,4,2,0,18,0,0
136136,-100,4,2,0,23,0,0
148236,-100,4,2,0,18,0,0
150253,-100,4,2,0,25,0,0
168404,-100,4,2,0,35,0,1
181514,-100,4,2,0,35,0,0
184539,-100,4,2,0,35,0,1
198657,-100,4,2,0,30,0,0
234959,-100,4,2,0,18,0,0
236976,-100,4,2,0,20,0,0
253110,-100,4,2,0,35,0,1
267228,-100,4,2,0,35,0,0
285379,-100,4,2,0,35,0,1
299497,-100,4,2,0,25,0,0

[Colours]
Combo1 : 255,0,128
Combo2 : 255,128,255
Combo3 : 255,128,192
Combo4 : 255,0,255

[HitObjects]
144,48,757,5,0,0:0:0:0:
176,48,1010,2,0,L|256:80,2,75
288,80,1766,1,0,0:0:0:0:
320,80,2018,2,0,L|400:88,2,75
432,96,2774,1,0,0:0:0:0:
448,128,3026,2,0,L|408:192,2,75
392,216,3783,1,0,0:0:0:0:
368,248,4035,2,0,L|288:248,2,75
256,248,4791,1,0,0:0:0:0:
224,248,5043,6,0,L|144:248,2,75
120,248,5799,1,0,0:0:0:0:
96,224,6052,2,0,L|120:152,2,75
128,120,6808,1,0,0:0:0:0:
144,96,7060,2,0,P|168:80|208:96,2,75
224,120,7816,1,0,0:0:0:0:
248,152,8068,2,0,L|304:208,2,75
328,232,8825,1,0,0:0:0:0:
304,264,8951,1,0,0:0:0:0:
352,264,9077,6,0,L|408:208,2,75
424,192,9833,1,0,0:0:0:0:
456,168,10085,2,0,L|456:88,2,75
456,64,10841,1,0,0:0:0:0:
456,32,11094,2,0,L|376:32,2,75
352,32,11850,1,0,0:0:0:0:
320,32,12102,2,0,L|240:32,2,75
216,32,12858,1,0,0:0:0:0:
184,32,13110,6,0,L|104:32,2,75
168,56,13867,1,0,0:0:0:0:
168,88,14119,2,0,L|168:168,2,75
136,104,14875,1,0,0:0:0:0:
104,120,15127,2,0,L|104:200,2,75
136,136,15883,1,0,0:0:0:0:
160,160,16136,2,0,L|216:224,2,75
192,176,16892,1,0,0:0:0:0:
224,176,17144,2,0,B|232:168|232:168|216:168|216:168|240:160|240:160|208:160|208:160|248:152|248:152|200:152|200:152|224:144|224:144|224:40,1,300
224,48,17774,5,0,0:0:0:0:
256,48,17900,2,0,L|304:48,2,37.5
328,48,18404,1,0,0:0:0:0:
360,64,18657,1,0,0:0:0:0:
376,96,18909,1,0,0:0:0:0:
376,128,19161,5,4,0:0:0:0:
376,160,19413,1,0,0:0:0:0:
376,240,19665,2,0,L|296:240,2,75,8|0|0,0:0|0:0|0:0,0:0:0:0:
376,288,20421,1,0,0:0:0:0:
376,336,20673,2,0,L|296:336,2,75,8|0|0,0:0|0:0|0:0,0:0:0:0:
432,296,21430,5,0,0:0:0:0:
464,240,21682,2,0,P|440:192|360:136,1,150,8|0,0:0|0:0,0:0:0:0:
312,136,22438,1,0,0:0:0:0:
264,136,22690,2,0,L|112:136,1,150,8|0,0:0|0:0,0:0:0:0:
112,200,23446,1,0,0:0:0:0:
112,264,23699,2,0,L|264:264,1,150,8|0,0:0|0:0,0:0:0:0:
336,264,24455,1,0,0:0:0:0:
416,264,24707,2,0,L|408:184,2,75,8|0|0,0:0|0:0|0:0,0:0:0:0:
472,248,25463,5,0,0:0:0:0:
496,192,25715,2,0,L|408:64,1,150,8|0,0:0|0:0,0:0:0:0:
352,48,26472,1,0,0:0:0:0:
296,64,26724,2,0,L|256:216,1,150,8|0,0:0|0:0,0:0:0:0:
256,272,27480,1,0,0:0:0:0:
256,336,27732,2,0,L|96:336,1,150,8|0,0:0|0:0,0:0:0:0:
104,296,28488,1,0,0:0:0:0:
104,248,28741,2,0,L|256:248,1,150,8|0,0:0|0:0,0:0:0:0:
256,208,29497,5,0,0:0:0:0:
256,160,29749,2,0,L|104:160,1,150,8|0,0:0|0:0,0:0:0:0:
104,120,30505,1,0,0:0:0:0:
104,72,30757,2,0,L|184:72,2,75,8|0|0,0:0|0:0|0:0,0:0:0:0:
224,72,31514,1,0,0:0:0:0:
264,72,31766,2,0,L|416:72,1,150,8|0,0:0|0:0,0:0:0:0:
416,136,32522,1,0,0:0:0:0:
416,192,32774,2,0,L|256:192,1,150,8|0,0:0|0:0,0:0:0:0:
240,216,33404,5,0,0:0:0:0:
272,224,33531,1,0,0:0:0:0:
304,216,33657,1,0,0:0:0:0:
296,240,33783,1,8,0:0:0:0:
328,248,33909,1,0,0:0:0:0:
312,272,34035,1,0,0:0:0:0:
328,296,34161,1,0,0:0:0:0:
304,312,34287,5,0,0:0:0:0:
304,344,34413,1,0,0:0:0:0:
272,328,34539,1,0,0:0:0:0:
256,352,34665,1,0,0:0:0:0:
232,328,34791,1,8,0:0:0:0:
200,352,34917,1,0,0:0:0:0:
200,312,35043,1,0,0:0:0:0:
168,328,35169,1,0,0:0:0:0:
128,296,35295,6,0,L|128:144,1,150,4|8,0:0|0:0,0:0:0:0:
128,88,36052,1,0,0:0:0:0:
128,32,36304,2,0,L|280:32,1,150,0|8,0:0|0:0,0:0:0:0:
328,32,37060,1,0,0:0:0:0:
384,32,37312,2,0,L|384:184,1,150,0|8,0:0|0:0,0:0:0:0:
384,240,38068,1,0,0:0:0:0:
384,304,38320,2,0,L|232:304,1,150,0|8,0:0|0:0,0:0:0:0:
176,304,39077,1,0,0:0:0:0:
112,304,39329,6,0,L|112:224,2,75,0|0|8,0:0|0:0|0:0,0:0:0:0:
184,304,40085,1,0,0:0:0:0:
256,304,40337,2,0,L|256:152,2,150,0|8|0,0:0|0:0|0:0,0:0:0:0:
320,304,41598,1,0,0:0:0:0:
384,304,41850,2,0,P|424:240|376:176,1,150,8|0,0:0|0:0,0:0:0:0:
368,216,42606,1,0,0:0:0:0:
344,240,42858,2,0,P|304:184|352:112,1,150,8|4,0:0|0:0,0:0:0:0:
400,128,43615,5,0,0:0:0:0:
416,64,43867,2,0,L|328:64,2,75,8|0|0,0:0|0:0|0:0,0:0:0:0:
304,64,44623,1,0,0:0:0:0:
256,64,44875,2,0,L|176:64,2,75,8|0|0,0:0|0:0|0:0,0:0:0:0:
256,104,45631,1,0,0:0:0:0:
256,144,45883,2,0,L|256:296,1,150,8|0,0:0|0:0,0:0:0:0:
256,336,46640,1,0,0:0:0:0:
256,376,46892,2,0,L|104:376,1,150,8|0,0:0|0:0,0:0:0:0:
80,352,47648,5,0,0:0:0:0:
64,328,47900,1,8,0:0:0:0:
72,296,48152,1,0,0:0:0:0:
96,280,48404,1,0,0:0:0:0:
128,272,48657,1,0,0:0:0:0:
160,272,48909,1,8,0:0:0:0:
200,272,49161,1,0,0:0:0:0:
256,192,49413,12,2,51430,0:0:0:0:
176,32,51682,6,0,L|256:32,1,75
176,64,52186,2,0,L|256:64,1,75
176,96,52690,2,0,L|256:96,1,75
176,128,53194,2,0,L|256:128,1,75
176,160,53699,2,0,L|256:160,1,75
176,192,54203,2,0,L|256:192,1,75
176,232,54707,2,0,L|256:232,1,75
176,264,55211,2,0,L|256:264,1,75
176,304,55715,6,0,L|256:304,1,75
176,336,56220,2,0,L|256:336,1,75
176,376,56724,2,0,L|256:376,1,75
336,376,57228,2,0,L|256:376,1,75
240,352,57732,5,0,0:0:0:0:
224,328,57984,1,0,0:0:0:0:
224,304,58236,1,0,0:0:0:0:
240,280,58488,1,0,0:0:0:0:
264,264,58741,1,0,0:0:0:0:
296,248,58993,1,0,0:0:0:0:
320,224,59245,1,0,0:0:0:0:
320,192,59497,5,4,0:0:0:0:
320,160,59749,2,0,L|232:160,1,75
216,160,60253,2,0,L|136:160,1,75
112,160,60757,2,0,L|32:160,1,75
32,128,61262,2,0,L|88:72,1,75
112,64,61766,2,0,L|200:32,1,75
216,40,62270,2,0,L|304:40,1,75
320,56,62774,2,0,L|400:72,1,75,0|8,0:0|0:0,0:0:0:0:
416,96,63278,2,0,L|472:160,1,75
456,184,63783,5,0,0:0:0:0:
432,208,64035,1,0,0:0:0:0:
400,216,64287,1,0,0:0:0:0:
368,216,64539,1,0,0:0:0:0:
336,216,64791,1,0,0:0:0:0:
304,208,65043,1,0,0:0:0:0:
280,184,65295,1,0,0:0:0:0:
256,160,65547,5,0,0:0:0:0:
232,184,65799,1,0,0:0:0:0:
200,216,66052,1,0,0:0:0:0:
168,224,66304,1,0,0:0:0:0:
136,224,66556,1,0,0:0:0:0:
104,224,66808,1,0,0:0:0:0:
64,216,67060,1,8,0:0:0:0:
40,192,67312,1,0,0:0:0:0:
40,192,67564,6,0,L|40:280,1,75
40,296,68068,2,0,L|104:336,1,75
136,336,68573,2,0,L|216:336,1,75
240,336,69077,2,0,L|320:336,1,75
344,336,69581,2,0,L|408:296,1,75
440,280,70085,2,0,L|504:240,1,75
504,216,70589,2,0,L|504:136,1,75
504,112,71094,2,0,L|504:32,1,75,8|0,0:0|0:0,0:0:0:0:
472,40,71598,6,0,L|392:40,2,75
464,72,72354,1,0,0:0:0:0:
440,96,72606,1,0,0:0:0:0:
408,112,72858,1,0,0:0:0:0:
368,112,73110,1,0,0:0:0:0:
336,112,73362,2,0,L|256:112,1,75
232,112,73741,1,0,0:0:0:0:
112,112,73993,6,0,L|112:152,1,37.5
112,176,74371,1,0,0:0:0:0:
128,208,74623,1,8,0:0:0:0:
160,224,74875,1,0,0:0:0:0:
192,232,75127,1,8,0:0:0:0:
224,232,75379,1,0,0:0:0:0:
256,232,75631,5,4,0:0:0:0:
288,232,75883,2,8,L|368:232,1,75,0|8,0:0|0:0,0:0:0:0:
392,216,76388,1,0,0:0:0:0:
416,200,76640,1,0,0:0:0:0:
448,184,76892,2,0,L|480:112,1,75,0|8,0:0|0:0,0:0:0:0:
472,88,77396,1,0,0:0:0:0:
440,72,77648,5,0,0:0:0:0:
408,56,77900,2,0,L|328:56,1,75,0|8,0:0|0:0,0:0:0:0:
304,56,78404,1,0,0:0:0:0:
272,56,78657,1,0,0:0:0:0:
240,56,78909,2,0,L|160:56,1,75,0|8,0:0|0:0,0:0:0:0:
136,72,79413,1,0,0:0:0:0:
112,96,79665,5,0,0:0:0:0:
88,120,79917,2,0,L|32:176,1,75,0|8,0:0|0:0,0:0:0:0:
32,208,80421,1,0,0:0:0:0:
32,240,80673,1,0,0:0:0:0:
32,272,80925,2,0,L|32:352,1,75,0|8,0:0|0:0,0:0:0:0:
64,344,81430,1,0,0:0:0:0:
96,344,81682,5,0,0:0:0:0:
128,344,81934,2,0,L|208:344,1,75,0|8,0:0|0:0,0:0:0:0:
240,344,82438,1,0,0:0:0:0:
272,344,82690,1,0,0:0:0:0:
304,344,82942,2,0,L|384:344,1,75,0|8,0:0|0:0,0:0:0:0:
408,320,83446,1,0,0:0:0:0:
432,296,83699,5,0,0:0:0:0:
464,272,83951,2,0,L|408:216,1,75,0|8,0:0|0:0,0:0:0:0:
384,200,84455,1,0,0:0:0:0:
352,176,84707,1,0,0:0:0:0:
320,152,84959,2,0,L|256:104,1,75,0|8,0:0|0:0,0:0:0:0:
232,88,85463,1,0,0:0:0:0:
192,88,85715,5,0,0:0:0:0:
160,88,85967,2,0,L|80:88,1,75,0|8,0:0|0:0,0:0:0:0:
64,120,86472,1,0,0:0:0:0:
64,152,86724,1,0,0:0:0:0:
64,184,86976,2,0,L|64:264,1,75,0|8,0:0|0:0,0:0:0:0:
64,296,87480,1,0,0:0:0:0:
88,320,87732,5,0,0:0:0:0:
112,344,87984,2,0,L|184:296,1,75,0|8,0:0|0:0,0:0:0:0:
200,288,88488,1,0,0:0:0:0:
232,264,88741,1,0,0:0:0:0:
264,240,88993,2,0,L|328:192,1,75,0|8,0:0|0:0,0:0:0:0:
352,176,89497,1,0,0:0:0:0:
352,176,89623,1,0,0:0:0:0:
352,176,89749,6,0,P|392:120|344:56,1,150,0|8,0:0|0:0,0:0:0:0:
344,32,90505,1,0,0:0:0:0:
320,56,90757,2,0,L|168:56,1,150,0|8,0:0|0:0,0:0:0:0:
136,56,91514,1,0,0:0:0:0:
104,56,91766,2,0,B|96:64|96:64|112:64|112:64|88:72|88:72|120:72|120:72|80:80|80:80|128:80|128:80|104:88|104:88|104:192,1,300
104,189,92522,1,0,0:0:0:0:
128,232,92774,1,0,0:0:0:0:
152,272,93026,2,0,L|232:272,1,75
256,272,93531,2,0,L|256:192,1,75,0|4,0:0|0:0,0:0:0:0:
296,152,94035,5,0,0:0:0:0:
336,96,94287,2,0,L|184:96,1,150,8|0,0:0|0:0,0:0:0:0:
144,64,95043,1,0,0:0:0:0:
96,96,95295,2,0,L|96:176,2,75,8|0|0,0:0|0:0|0:0,0:0:0:0:
96,224,96052,1,0,0:0:0:0:
96,280,96304,2,0,P|192:272|240:240,1,150,8|0,0:0|0:0,0:0:0:0:
264,216,97060,1,0,0:0:0:0:
288,184,97312,2,0,P|376:144|440:152,1,150,8|0,0:0|0:0,0:0:0:0:
504,136,98068,5,0,0:0:0:0:
472,64,98320,2,0,L|384:64,2,75,8|0|0,0:0|0:0|0:0,0:0:0:0:
352,64,99077,1,0,0:0:0:0:
296,64,99329,2,0,P|328:128|288:200,1,150,8|0,0:0|0:0,0:0:0:0:
280,168,100085,1,0,0:0:0:0:
256,128,100337,2,0,P|224:200|264:264,1,150,8|0,0:0|0:0,0:0:0:0:
272,296,101094,1,0,0:0:0:0:
280,336,101346,2,0,L|200:336,2,75,8|0|0,0:0|0:0|0:0,0:0:0:0:
328,336,102102,5,0,0:0:0:0:
360,336,102354,2,0,P|416:280|416:208,1,150,8|0,0:0|0:0,0:0:0:0:
368,216,103110,1,0,0:0:0:0:
312,216,103362,2,0,P|256:160|256:88,1,150,8|0,0:0|0:0,0:0:0:0:
320,64,104119,1,0,0:0:0:0:
328,136,104371,2,0,L|408:136,2,75,8|0|0,0:0|0:0|0:0,0:0:0:0:
328,80,105127,1,0,0:0:0:0:
328,24,105379,2,0,L|176:24,1,150,8|0,0:0|0:0,0:0:0:0:
120,24,106136,5,0,0:0:0:0:
56,24,106388,2,0,L|56:176,1,150,8|0,0:0|0:0,0:0:0:0:
56,240,107144,1,0,0:0:0:0:
56,296,107396,2,0,L|208:296,1,150,8|0,0:0|0:0,0:0:0:0:
232,312,108026,5,0,0:0:0:0:
256,296,108152,1,0,0:0:0:0:
288,304,108278,1,0,0:0:0:0:
288,272,108404,1,8,0:0:0:0:
320,272,108531,1,0,0:0:0:0:
304,240,108657,1,0,0:0:0:0:
336,232,108783,1,0,0:0:0:0:
312,208,108909,5,0,0:0:0:0:
344,192,109035,1,0,0:0:0:0:
312,176,109161,1,0,0:0:0:0:
288,152,109287,1,0,0:0:0:0:
320,144,109413,1,8,0:0:0:0:
312,112,109539,1,0,0:0:0:0:
344,120,109665,1,0,0:0:0:0:
352,88,109791,1,0,0:0:0:0:
384,96,109917,6,0,L|384:248,1,150,4|8,0:0|0:0,0:0:0:0:
384,280,110673,1,0,0:0:0:0:
384,312,110925,2,0,P|328:336|240:304,1,150,0|8,0:0|0:0,0:0:0:0:
280,288,111682,1,0,0:0:0:0:
312,256,111934,2,0,P|240:232|168:264,1,150,0|8,0:0|0:0,0:0:0:0:
112,304,112690,1,0,0:0:0:0:
48,264,112942,2,0,L|48:184,2,75,0|0|8,0:0|0:0|0:0,0:0:0:0:
112,264,113699,1,0,0:0:0:0:
168,264,113951,6,0,P|192:192|160:120,1,150,0|8,0:0|0:0,0:0:0:0:
144,160,114707,1,0,0:0:0:0:
112,192,114959,2,0,P|88:128|120:48,1,150,0|8,0:0|0:0,0:0:0:0:
184,56,115715,1,0,0:0:0:0:
256,56,115967,2,0,L|408:56,1,150,0|8,0:0|0:0,0:0:0:0:
456,56,116724,1,0,0:0:0:0:
504,56,116976,2,0,L|504:144,2,75,0|0|8,0:0|0:0|0:0,0:0:0:0:
432,56,117732,1,0,0:0:0:0:
392,56,117858,1,0,0:0:0:0:
360,56,117984,6,0,L|360:208,1,150,4|8,0:0|0:0,0:0:0:0:
360,272,118741,1,0,0:0:0:0:
360,336,118993,2,0,L|208:336,1,150,0|8,0:0|0:0,0:0:0:0:
152,336,119749,1,0,0:0:0:0:
96,336,120001,2,0,L|96:184,1,150,0|8,0:0|0:0,0:0:0:0:
96,128,120757,1,0,0:0:0:0:
96,56,121010,2,0,L|248:56,1,150,0|8,0:0|0:0,0:0:0:0:
272,56,121766,1,0,0:0:0:0:
304,72,122018,5,0,0:0:0:0:
328,104,122270,1,0,0:0:0:0:
336,144,122522,1,8,0:0:0:0:
312,176,122774,1,0,0:0:0:0:
280,192,123026,1,0,0:0:0:0:
240,192,123278,1,0,0:0:0:0:
200,176,123531,1,8,0:0:0:0:
176,144,123783,1,0,0:0:0:0:
256,192,124035,12,8,126052,0:0:0:0:
144,48,126304,6,0,L|224:48,1,75
240,48,126808,2,0,L|320:48,1,75
336,48,127312,2,0,L|416:48,1,75,0|8,0:0|0:0,0:0:0:0:
432,48,127816,2,0,L|512:48,1,75
496,80,128320,2,0,L|464:152,1,75
456,168,128825,2,0,L|416:232,1,75
400,240,129329,2,0,L|328:280,1,75,0|8,0:0|0:0,0:0:0:0:
320,280,129833,2,0,L|240:280,1,75
224,280,130337,6,0,L|144:280,1,75
128,272,130841,2,0,L|64:232,1,75
48,224,131346,2,0,L|8:160,1,75,0|8,0:0|0:0,0:0:0:0:
16,144,131850,2,0,L|64:80,1,75
80,80,132354,5,0,0:0:0:0:
104,64,132606,1,0,0:0:0:0:
136,56,132858,1,0,0:0:0:0:
168,56,133110,1,0,0:0:0:0:
200,56,133362,1,0,0:0:0:0:
232,64,133615,1,0,0:0:0:0:
256,80,133867,1,0,0:0:0:0:
280,96,134119,5,4,0:0:0:0:
352,224,135379,1,0,0:0:0:0:
328,248,135442,1,0,0:0:0:0:
304,272,135505,1,0,0:0:0:0:
280,296,135568,1,0,0:0:0:0:
256,320,135631,1,0,0:0:0:0:
160,320,136136,6,0,P|120:296|96:192,1,150,4|8,0:0|0:0,0:0:0:0:
136,216,136892,1,0,0:0:0:0:
176,232,137144,2,0,P|200:192|176:96,1,150,0|8,0:0|0:0,0:0:0:0:
152,128,137900,1,0,0:0:0:0:
128,160,138152,2,0,L|48:160,2,75,0|0|8,0:0|0:0|0:0,0:0:0:0:
192,160,138909,1,0,0:0:0:0:
256,160,139161,2,0,L|408:160,1,150,0|8,0:0|0:0,0:0:0:0:
448,160,139917,1,0,0:0:0:0:
488,160,140169,6,0,P|480:240|432:288,1,150,0|8,0:0|0:0,0:0:0:0:
376,288,140925,1,0,0:0:0:0:
320,288,141178,2,0,L|168:288,1,150,0|8,0:0|0:0,0:0:0:0:
120,288,141934,1,0,0:0:0:0:
80,288,142186,2,0,P|64:224|88:144,1,150,0|8,0:0|0:0,0:0:0:0:
112,184,142942,1,0,0:0:0:0:
144,216,143194,2,0,P|168:136|136:72,1,150,0|8,0:0|0:0,0:0:0:0:
112,112,143951,5,0,0:0:0:0:
88,152,144203,2,0,P|56:80|96:8,1,150,0|8,0:0|0:0,0:0:0:0:
136,16,144959,1,0,0:0:0:0:
192,16,145211,2,0,L|344:16,1,150,0|8,0:0|0:0,0:0:0:0:
392,16,145967,1,0,0:0:0:0:
440,16,146220,2,0,P|464:80|432:160,1,150,0|8,0:0|0:0,0:0:0:0:
408,120,146976,1,0,0:0:0:0:
384,80,147228,2,0,P|360:160|384:224,1,150,0|8,0:0|0:0,0:0:0:0:
408,248,147984,1,0,0:0:0:0:
448,280,148236,5,0,0:0:0:0:
448,280,148362,1,0,0:0:0:0:
320,280,148615,2,0,L|272:280,1,37.5
208,280,148993,1,0,0:0:0:0:
128,280,149245,2,0,P|104:216|136:136,2,150,8|8|4,0:0|0:0|0:0,0:0:0:0:
192,280,150505,5,0,0:0:0:0:
256,280,150757,2,0,L|256:128,1,150,8|0,0:0|0:0,0:0:0:0:
256,88,151514,1,0,0:0:0:0:
256,40,151766,2,0,L|408:40,1,150,8|0,0:0|0:0,0:0:0:0:
456,40,152522,1,0,0:0:0:0:
504,40,152774,2,0,L|504:192,1,150,8|0,0:0|0:0,0:0:0:0:
504,248,153531,1,0,0:0:0:0:
504,304,153783,2,0,L|424:304,2,75,8|0|0,0:0|0:0|0:0,0:0:0:0:
504,248,154539,5,0,0:0:0:0:
504,192,154791,2,0,L|416:192,2,75,8|0|0,0:0|0:0|0:0,0:0:0:0:
504,128,155547,1,0,0:0:0:0:
504,72,155799,2,0,P|440:56|352:80,1,150,8|0,0:0|0:0,0:0:0:0:
336,64,156556,1,0,0:0:0:0:
328,96,156808,2,0,L|200:184,1,150,8|0,0:0|0:0,0:0:0:0:
168,208,157564,1,0,0:0:0:0:
128,240,157816,2,0,L|208:240,2,75,8|0|0,0:0|0:0|0:0,0:0:0:0:
80,240,158573,5,0,0:0:0:0:
64,192,158825,2,0,P|88:152|192:152,1,150,8|0,0:0|0:0,0:0:0:0:
160,176,159581,1,0,0:0:0:0:
136,208,159833,2,0,P|224:208|256:144,1,150,8|0,0:0|0:0,0:0:0:0:
256,104,160589,1,0,0:0:0:0:
256,48,160841,2,0,L|336:48,2,75,8|0|0,0:0|0:0|0:0,0:0:0:0:
256,96,161598,1,0,0:0:0:0:
256,144,161850,2,0,L|256:304,1,150,8|0,0:0|0:0,0:0:0:0:
336,296,162606,5,0,0:0:0:0:
408,296,162858,2,0,P|384:256|416:152,1,150,8|0,0:0|0:0,0:0:0:0:
432,200,163615,1,0,0:0:0:0:
456,232,163867,2,0,P|480:184|448:88,1,150,8|0,0:0|0:0,0:0:0:0:
408,96,164623,1,0,0:0:0:0:
360,96,164875,2,0,L|280:96,2,75,8|0|0,0:0|0:0|0:0,0:0:0:0:
360,56,165631,1,0,0:0:0:0:
360,16,165883,2,0,L|208:16,1,150,8|0,0:0|0:0,0:0:0:0:
200,16,166514,2,0,P|166:72|200:144,1,150
240,80,167144,5,0,0:0:0:0:
272,88,167396,1,0,0:0:0:0:
296,112,167648,1,0,0:0:0:0:
304,144,167900,1,0,0:0:0:0:
288,176,168152,1,0,0:0:0:0:
256,192,168404,5,0,0:0:0:0:
184,192,168657,1,0,0:0:0:0:
112,192,168909,2,0,P|120:248|176:320,1,150,8|0,0:0|0:0,0:0:0:0:
240,320,169665,1,0,0:0:0:0:
296,320,169917,2,0,L|376:320,2,75,8|0|0,0:0|0:0|0:0,0:0:0:0:
272,272,170673,1,0,0:0:0:0:
296,232,170925,2,0,P|312:176|296:80,1,150,8|0,0:0|0:0,0:0:0:0:
264,128,171682,1,0,0:0:0:0:
232,160,171934,2,0,L|152:160,2,75,8|0|0,0:0|0:0|0:0,0:0:0:0:
296,160,172690,5,0,0:0:0:0:
384,160,172942,2,0,P|440:152|480:64,1,150,8|0,0:0|0:0,0:0:0:0:
440,64,173699,1,0,0:0:0:0:
400,80,173951,2,0,L|320:80,2,75,8|0|0,0:0|0:0|0:0,0:0:0:0:
448,80,174707,1,0,0:0:0:0:
496,80,174959,2,0,L|496:232,1,150,8|0,0:0|0:0,0:0:0:0:
496,288,175715,1,0,0:0:0:0:
496,344,175967,2,0,P|448:352|320:336,1,150,8|0,0:0|0:0,0:0:0:0:
304,328,176724,5,0,0:0:0:0:
256,304,176976,2,0,L|208:240,2,75,8|0|0,0:0|0:0|0:0,0:0:0:0:
288,280,177732,1,0,0:0:0:0:
320,256,177984,2,0,P|320:192|280:112,1,150,8|0,0:0|0:0,0:0:0:0:
256,88,178741,1,0,0:0:0:0:
224,72,178993,2,0,L|144:72,2,75,8|0|0,0:0|0:0|0:0,0:0:0:0:
288,72,179749,1,0,0:0:0:0:
352,72,180001,2,0,P|392:144|384:216,1,150,8|0,0:0|0:0,0:0:0:0:
384,256,180757,5,0,0:0:0:0:
384,304,181010,2,0,L|296:304,2,75,8|0|0,0:0|0:0|0:0,0:0:0:0:
424,304,181766,1,0,0:0:0:0:
456,304,182018,2,0,L|304:304,1,150,8|0,0:0|0:0,0:0:0:0:
288,280,182648,5,0,0:0:0:0:
272,304,182774,1,0,0:0:0:0:
256,336,182900,1,0,0:0:0:0:
240,304,183026,1,8,0:0:0:0:
224,272,183152,1,0,0:0:0:0:
208,304,183278,1,0,0:0:0:0:
192,336,183404,1,0,0:0:0:0:
176,304,183531,5,0,0:0:0:0:
160,272,183657,1,0,0:0:0:0:
144,304,183783,1,0,0:0:0:0:
128,336,183909,1,0,0:0:0:0:
112,304,184035,1,8,0:0:0:0:
96,272,184161,1,0,0:0:0:0:
88,304,184287,1,0,0:0:0:0:
64,336,184413,1,0,0:0:0:0:
56,304,184539,6,8,P|40:224|64:152,1,150,4|8,0:0|0:0,0:0:0:0:
80,128,185295,1,0,0:0:0:0:
96,104,185547,2,0,P|152:48|224:72,1,150,0|8,0:0|0:0,0:0:0:0:
192,96,186304,1,0,0:0:0:0:
168,120,186556,2,0,L|240:256,1,150,0|8,0:0|0:0,0:0:0:0:
256,288,187312,1,0,0:0:0:0:
280,320,187564,2,0,L|360:320,2,75,0|0|8,0:0|0:0|0:0,0:0:0:0:
240,320,188320,1,0,0:0:0:0:
192,320,188573,6,0,P|168:264|200:168,1,150,0|8,0:0|0:0,0:0:0:0:
224,216,189329,1,0,0:0:0:0:
248,248,189581,2,0,P|272:176|232:104,1,150,0|8,0:0|0:0,0:0:0:0:
208,80,190337,1,0,0:0:0:0:
184,40,190589,2,0,L|264:40,2,75,0|0|8,0:0|0:0|0:0,0:0:0:0:
184,96,191346,1,0,0:0:0:0:
184,144,191598,2,0,P|224:216|288:216,1,150,0|8,0:0|0:0,0:0:0:0:
280,184,192354,1,0,0:0:0:0:
248,184,192480,1,0,0:0:0:0:
264,144,192606,6,0,L|344:144,2,75,4|0|8,0:0|0:0|0:0,0:0:0:0:
264,200,193362,1,0,0:0:0:0:
264,240,193615,2,0,B|272:304|272:304|192:344,1,150,0|8,0:0|0:0,0:0:0:0:
136,344,194371,1,0,0:0:0:0:
88,344,194623,2,0,P|72:296|104:200,1,150,0|8,0:0|0:0,0:0:0:0:
128,240,195379,1,0,0:0:0:0:
152,280,195631,2,0,L|232:280,2,75,0|0|8,0:0|0:0|0:0,0:0:0:0:
152,240,196388,1,0,0:0:0:0:
152,192,196640,6,0,P|176:128|152:48,1,150,0|8,0:0|0:0,0:0:0:0:
120,88,197396,1,0,0:0:0:0:
96,120,197648,2,0,L|248:120,1,150,0|8,0:0|0:0,0:0:0:0:
296,120,198404,1,0,0:0:0:0:
344,120,198657,2,0,P|384:120|384:208,1,150,0|8,0:0|0:0,0:0:0:0:
320,208,199413,1,0,0:0:0:0:
352,168,199665,2,0,L|272:168,2,75,0|0|8,0:0|0:0|0:0,0:0:0:0:
384,128,200421,1,0,0:0:0:0:
416,80,200673,5,4,0:0:0:0:
424,48,200799,1,0,0:0:0:0:
392,56,200925,1,0,0:0:0:0:
384,24,201052,1,0,0:0:0:0:
360,48,201178,1,8,0:0:0:0:
344,24,201304,1,0,0:0:0:0:
328,48,201430,1,0,0:0:0:0:
296,32,201556,1,0,0:0:0:0:
304,64,201682,5,0,0:0:0:0:
272,64,201808,1,0,0:0:0:0:
288,88,201934,1,0,0:0:0:0:
256,96,202060,1,0,0:0:0:0:
280,120,202186,1,8,0:0:0:0:
256,144,202312,1,0,0:0:0:0:
288,152,202438,1,0,0:0:0:0:
280,184,202564,1,0,0:0:0:0:
312,184,202690,5,4,0:0:0:0:
344,208,202942,2,0,L|424:208,1,75,0|8,0:0|0:0,0:0:0:0:
440,232,203446,1,0,0:0:0:0:
440,264,203699,1,0,0:0:0:0:
440,296,203951,2,0,L|440:376,1,75,0|8,0:0|0:0,0:0:0:0:
400,360,204455,1,0,0:0:0:0:
360,360,204707,5,0,0:0:0:0:
328,360,204959,2,0,L|248:360,1,75,0|8,0:0|0:0,0:0:0:0:
232,352,205463,1,0,0:0:0:0:
200,336,205715,1,0,0:0:0:0:
176,320,205967,2,0,L|120:256,1,75,0|8,0:0|0:0,0:0:0:0:
112,240,206472,1,0,0:0:0:0:
112,208,206724,5,0,0:0:0:0:
112,176,206976,2,0,L|112:96,1,75,0|8,0:0|0:0,0:0:0:0:
128,80,207480,1,0,0:0:0:0:
152,64,207732,1,0,0:0:0:0:
184,48,207984,2,0,L|272:48,1,75,0|8,0:0|0:0,0:0:0:0:
296,48,208488,1,0,0:0:0:0:
328,48,208741,5,0,0:0:0:0:
360,48,208993,2,0,L|440:48,1,75,0|8,0:0|0:0,0:0:0:0:
448,80,209497,1,0,0:0:0:0:
448,112,209749,1,0,0:0:0:0:
448,144,210001,2,0,L|448:224,1,75,0|8,0:0|0:0,0:0:0:0:
432,240,210505,1,0,0:0:0:0:
408,264,210757,5,0,0:0:0:0:
384,288,211010,2,0,L|320:352,1,75,0|8,0:0|0:0,0:0:0:0:
304,352,211514,1,0,0:0:0:0:
272,352,211766,1,0,0:0:0:0:
240,352,212018,2,0,L|160:352,1,75,0|8,0:0|0:0,0:0:0:0:
136,344,212522,1,0,0:0:0:0:
96,328,212774,5,0,0:0:0:0:
56,312,213026,2,0,P|40:288|40:240,1,75,0|8,0:0|0:0,0:0:0:0:
40,216,213531,1,0,0:0:0:0:
48,184,213783,1,0,0:0:0:0:
56,152,214035,2,0,L|80:80,1,75,0|8,0:0|0:0,0:0:0:0:
104,56,214539,1,0,0:0:0:0:
136,56,214791,5,0,0:0:0:0:
168,56,215043,2,0,L|248:56,1,75,0|8,0:0|0:0,0:0:0:0:
272,56,215547,1,0,0:0:0:0:
304,56,215799,1,0,0:0:0:0:
336,56,216052,2,0,L|416:56,1,75,0|8,0:0|0:0,0:0:0:0:
432,80,216556,1,0,0:0:0:0:
448,112,216808,5,0,0:0:0:0:
480,112,216934,1,0,0:0:0:0:
464,144,217060,1,0,0:0:0:0:
448,168,217186,1,0,0:0:0:0:
480,184,217312,1,8,0:0:0:0:
504,208,217438,1,0,0:0:0:0:
472,224,217564,1,0,0:0:0:0:
440,224,217690,1,0,0:0:0:0:
448,256,217816,5,0,0:0:0:0:
448,288,217942,1,0,0:0:0:0:
416,272,218068,1,0,0:0:0:0:
392,248,218194,1,0,0:0:0:0:
376,280,218320,1,8,0:0:0:0:
352,304,218446,1,0,0:0:0:0:
336,280,218573,1,0,0:0:0:0:
336,248,218699,1,0,0:0:0:0:
304,264,218825,5,4,0:0:0:0:
272,240,219077,2,0,L|192:240,1,75,0|8,0:0|0:0,0:0:0:0:
168,240,219581,1,0,0:0:0:0:
128,240,219833,1,0,0:0:0:0:
96,240,220085,2,0,P|88:200|104:160,1,75,0|8,0:0|0:0,0:0:0:0:
120,144,220589,1,0,0:0:0:0:
136,112,220841,5,0,0:0:0:0:
152,80,221094,2,0,P|184:56|224:56,1,75,0|8,0:0|0:0,0:0:0:0:
248,56,221598,1,0,0:0:0:0:
280,56,221850,1,0,0:0:0:0:
312,56,222102,2,0,L|392:56,1,75,0|8,0:0|0:0,0:0:0:0:
416,72,222606,1,0,0:0:0:0:
440,96,222858,5,0,0:0:0:0:
464,128,223110,2,0,L|480:208,1,75,0|8,0:0|0:0,0:0:0:0:
480,240,223615,1,0,0:0:0:0:
480,272,223867,1,0,0:0:0:0:
480,304,224119,2,0,P|464:336|424:352,1,75,0|8,0:0|0:0,0:0:0:0:
400,352,224623,1,0,0:0:0:0:
360,352,224875,5,0,0:0:0:0:
328,352,225127,2,0,L|248:352,1,75,0|8,0:0|0:0,0:0:0:0:
224,352,225631,1,0,0:0:0:0:
192,352,225883,1,0,0:0:0:0:
160,352,226136,2,0,P|112:344|80:328,1,75,0|8,0:0|0:0,0:0:0:0:
64,320,226640,1,0,0:0:0:0:
48,288,226892,5,0,0:0:0:0:
32,256,227144,2,0,L|32:176,1,75,0|8,0:0|0:0,0:0:0:0:
40,152,227648,1,0,0:0:0:0:
48,120,227900,1,0,0:0:0:0:
64,88,228152,2,0,P|104:56|144:48,1,75,0|8,0:0|0:0,0:0:0:0:
160,48,228657,1,0,0:0:0:0:
192,48,228909,5,0,0:0:0:0:
224,48,229161,2,0,L|304:48,1,75,0|8,0:0|0:0,0:0:0:0:
336,48,229665,1,0,0:0:0:0:
368,48,229917,1,0,0:0:0:0:
400,48,230169,2,0,P|464:56|472:72,1,75,0|8,0:0|0:0,0:0:0:0:
464,88,230673,1,0,0:0:0:0:
464,120,230925,5,0,0:0:0:0:
464,152,231178,2,0,L|464:232,1,75,0|8,0:0|0:0,0:0:0:0:
456,256,231682,1,0,0:0:0:0:
432,288,231934,1,0,0:0:0:0:
400,312,232186,2,0,L|320:328,1,75,0|8,0:0|0:0,0:0:0:0:
296,328,232690,1,0,0:0:0:0:
256,328,232942,5,0,0:0:0:0:
216,328,233194,2,0,L|136:304,1,75,0|8,0:0|0:0,0:0:0:0:
120,304,233699,1,0,0:0:0:0:
80,288,233951,1,0,0:0:0:0:
56,256,234203,2,0,L|32:184,1,75,0|8,0:0|0:0,0:0:0:0:
48,160,234707,1,0,0:0:0:0:
72,136,234959,5,0,0:0:0:0:
200,72,235715,1,0,0:0:0:0:
200,72,235967,1,0,0:0:0:0:
312,72,236220,1,0,0:0:0:0:
312,72,236472,1,0,0:0:0:0:
256,240,236724,1,0,0:0:0:0:
256,240,236976,5,4,0:0:0:0:
184,56,250967,5,0,0:0:0:0:
192,56,251031,1,0,0:0:0:0:
200,56,251094,1,0,0:0:0:0:
240,56,251220,1,0,0:0:0:0:
280,56,251346,1,0,0:0:0:0:
320,56,251472,1,0,0:0:0:0:
360,56,251598,6,8,P|384:96|352:200,1,150
336,208,252354,1,0,0:0:0:0:
304,200,252606,1,8,0:0:0:0:
272,192,252858,1,0,0:0:0:0:
240,192,253110,5,12,0:0:0:0:
176,192,253362,1,0,0:0:0:0:
112,192,253615,2,0,P|80:120|120:48,1,150,8|0,0:0|0:0,0:0:0:0:
152,40,254371,1,0,0:0:0:0:
200,32,254623,2,0,L|352:32,1,150,8|0,0:0|0:0,0:0:0:0:
400,32,255379,1,0,0:0:0:0:
464,32,255631,2,0,P|488:112|456:184,1,150,8|0,0:0|0:0,0:0:0:0:
464,224,256388,1,0,0:0:0:0:
464,280,256640,2,0,L|464:360,2,75,8|0|0,0:0|0:0|0:0,0:0:0:0:
464,224,257396,5,0,0:0:0:0:
400,224,257648,2,0,L|248:224,1,150,8|0,0:0|0:0,0:0:0:0:
184,224,258404,1,0,0:0:0:0:
112,224,258657,2,0,L|32:224,2,75,8|0|0,0:0|0:0|0:0,0:0:0:0:
184,224,259413,1,0,0:0:0:0:
256,224,259665,2,0,P|272:168|256:80,1,150,8|0,0:0|0:0,0:0:0:0:
200,80,260421,1,0,0:0:0:0:
136,80,260673,2,0,L|56:80,2,75,8|0|4,0:0|0:0|0:0,0:0:0:0:
200,80,261430,5,0,0:0:0:0:
256,80,261682,2,0,L|256:232,1,150,8|0,0:0|0:0,0:0:0:0:
256,280,262438,1,0,0:0:0:0:
256,328,262690,2,0,B|304:312|352:272|376:240,1,150,8|0,0:0|0:0,0:0:0:0:
416,232,263446,1,0,0:0:0:0:
432,192,263699,2,0,L|432:112,2,75,8|0|0,0:0|0:0|0:0,0:0:0:0:
432,272,264455,1,0,0:0:0:0:
432,328,264707,2,0,L|280:328,1,150,8|0,0:0|0:0,0:0:0:0:
248,312,265463,5,0,0:0:0:0:
216,296,265715,1,8,0:0:0:0:
200,272,265967,1,0,0:0:0:0:
200,240,266220,1,0,0:0:0:0:
216,216,266472,1,0,0:0:0:0:
248,200,266724,1,8,0:0:0:0:
280,184,266976,1,0,0:0:0:0:
304,168,267228,5,0,0:0:0:0:
328,144,267480,1,0,0:0:0:0:
344,112,267732,1,8,0:0:0:0:
344,80,267984,1,0,0:0:0:0:
336,48,268236,1,0,0:0:0:0:
312,32,268488,1,0,0:0:0:0:
288,40,268741,1,8,0:0:0:0:
264,64,268993,1,0,0:0:0:0:
248,96,269245,6,0,L|248:184,1,75,4|0,0:0|0:0,0:0:0:0:
224,192,269749,1,8,0:0:0:0:
200,208,270001,1,0,0:0:0:0:
168,208,270253,1,0,0:0:0:0:
136,192,270505,1,0,0:0:0:0:
120,160,270757,1,8,0:0:0:0:
136,128,271010,1,0,0:0:0:0:
168,112,271262,5,0,0:0:0:0:
208,112,271514,1,0,0:0:0:0:
248,128,271766,1,8,0:0:0:0:
272,160,272018,1,0,0:0:0:0:
280,200,272270,1,0,0:0:0:0:
304,232,272522,1,0,0:0:0:0:
344,248,272774,1,8,0:0:0:0:
384,240,273026,1,0,0:0:0:0:
416,216,273278,5,0,0:0:0:0:
432,184,273531,1,0,0:0:0:0:
432,144,273783,1,8,0:0:0:0:
408,112,274035,1,0,0:0:0:0:
368,96,274287,1,0,0:0:0:0:
328,104,274539,1,0,0:0:0:0:
296,128,274791,1,8,0:0:0:0:
272,160,275043,1,0,0:0:0:0:
264,200,275295,5,0,0:0:0:0:
240,232,275547,1,0,0:0:0:0:
200,256,275799,1,8,0:0:0:0:
160,256,276052,1,0,0:0:0:0:
120,240,276304,1,0,0:0:0:0:
88,208,276556,1,0,0:0:0:0:
88,168,276808,1,8,0:0:0:0:
112,136,277060,1,0,0:0:0:0:
152,120,277312,5,0,0:0:0:0:
192,152,277564,1,0,0:0:0:0:
224,192,277816,1,8,0:0:0:0:
256,224,278068,1,0,0:0:0:0:
296,240,278320,1,0,0:0:0:0:
336,224,278573,1,0,0:0:0:0:
368,200,278825,1,8,0:0:0:0:
384,160,279077,1,0,0:0:0:0:
368,120,279329,5,0,0:0:0:0:
328,104,279581,1,0,0:0:0:0:
288,120,279833,1,8,0:0:0:0:
256,152,280085,1,0,0:0:0:0:
232,192,280337,1,0,0:0:0:0:
200,224,280589,1,0,0:0:0:0:
160,240,280841,1,8,0:0:0:0:
120,232,281094,1,0,0:0:0:0:
88,200,281346,5,0,0:0:0:0:
96,160,281598,1,0,0:0:0:0:
120,128,281850,1,8,0:0:0:0:
160,120,282102,1,0,0:0:0:0:
200,128,282354,1,0,0:0:0:0:
232,160,282606,1,0,0:0:0:0:
256,192,282858,1,8,0:0:0:0:
288,224,283110,1,0,0:0:0:0:
320,256,283362,6,0,L|400:256,1,75,0|0,0:0|0:0,0:0:0:0:
416,232,283867,2,0,L|336:232,1,75,8|0,0:0|0:0,0:0:0:0:
320,200,284371,2,0,L|400:200,1,75
416,176,284875,2,0,L|336:176,1,75,8|0,0:0|0:0,0:0:0:0:
296,176,285253,1,0,0:0:0:0:
256,192,285379,5,4,0:0:0:0:
256,256,285631,1,0,0:0:0:0:
256,312,285883,2,0,P|184:296|136:240,1,150,8|0,0:0|0:0,0:0:0:0:
136,192,286640,1,0,0:0:0:0:
136,152,286892,2,0,P|168:72|224:48,1,150,8|0,0:0|0:0,0:0:0:0:
280,48,287648,1,0,0:0:0:0:
344,48,287900,2,0,L|424:48,2,75,8|0|0,0:0|0:0|0:0,0:0:0:0:
344,96,288657,1,0,0:0:0:0:
344,144,288909,2,0,L|344:296,1,150,8|0,0:0|0:0,0:0:0:0:
320,336,289665,5,0,0:0:0:0:
280,352,289917,2,0,L|200:352,2,75,8|0|0,0:0|0:0|0:0,0:0:0:0:
280,296,290673,1,0,0:0:0:0:
280,240,290925,2,0,L|128:240,1,150,8|0,0:0|0:0,0:0:0:0:
80,240,291682,1,0,0:0:0:0:
24,240,291934,2,0,L|24:160,2,75,8|0|0,0:0|0:0|0:0,0:0:0:0:
80,240,292690,1,0,0:0:0:0:
128,240,292942,2,0,P|152:192|232:136,1,150,8|0,0:0|0:0,0:0:0:0:
288,136,293699,5,0,0:0:0:0:
344,136,293951,2,0,L|424:136,2,75,8|0|0,0:0|0:0|0:0,0:0:0:0:
344,192,294707,1,0,0:0:0:0:
344,240,294959,2,0,L|192:240,1,150,8|0,0:0|0:0,0:0:0:0:
128,240,295715,1,0,0:0:0:0:
56,240,295967,2,0,P|64:176|128:112,1,150,8|0,0:0|0:0,0:0:0:0:
168,112,296724,1,0,0:0:0:0:
224,112,296976,2,0,L|304:112,2,75,8|0|0,0:0|0:0|0:0,0:0:0:0:
224,152,297732,5,0,0:0:0:0:
224,192,297984,2,0,L|304:192,1,75,8|0,0:0|0:0,0:0:0:0:
192,168,298488,1,0,0:0:0:0:
192,112,298741,1,0,0:0:0:0:
224,80,298993,2,0,P|280:104|312:192,1,150,8|0,0:0|0:0,0:0:0:0:
256,184,301514,5,0,0:0:0:0:
256,192,301577,1,0,0:0:0:0:
256,200,301640,1,0,0:0:0:0:
256,192,301703,12,0,307564,0:0:0:0:
