osu file format v9

[General]
AudioFilename: BRIGHT- 1220ver..mp3
AudioLeadIn: 0
PreviewTime: 18640
Countdown: 0
SampleSet: Soft
StackLeniency: 0.7
Mode: 0
LetterboxInBreaks: 1

[Editor]
Bookmarks: 58694
DistanceSpacing: 2
BeatDivisor: 2
GridSize: 8

[Metadata]
Title:1 year 2 months 20 days (short ver)
Artist:BRIGHT
Creator:Fantasi
Version:Normal
Source:
Tags:

[Difficulty]
HPDrainRate:4
CircleSize:3
OverallDifficulty:3
ApproachRate:4
SliderMultiplier:1
SliderTickRate:2

[Events]
//Background and Video events
0,0,"bg.jpg"
//Break Periods
//Storyboard Layer 0 (Background)
//Storyboard Layer 1 (Fail)
//Storyboard Layer 2 (Pass)
//Storyboard Layer 3 (Foreground)
//Storyboard Sound Samples
//Background Colour Transformations
3,100,163,162,255

[TimingPoints]
2014,503.820639852213,4,2,1,70,1,0
15617,-133.333333333333,4,2,1,70,0,0
16615,-100,4,2,1,70,0,0
18640,-100,4,2,1,100,0,1
20536,-100,4,2,1,100,0,1
29221,-133.333333333333,4,2,1,100,0,1
30228,-100,4,2,1,100,0,1
32999,-133.333333333333,4,2,1,100,0,1
34007,-100,4,2,1,70,0,0
35700,-100,4,2,1,100,0,1
46099,-133.333333333333,4,2,1,100,0,1
46850,-100,4,2,1,100,0,1
48365,-50,4,2,1,100,0,1
50381,-100,4,2,1,100,0,1
50632,-100,4,2,1,70,0,0

[Colours]
Combo1 : 255,128,255
Combo2 : 0,255,255
Combo3 : 255,255,255

[HitObjects]
136,40,2014,1,0
224,40,2518,1,0
304,40,3022,2,0,B|424:40,1,100,0|8
424,120,4030,2,0,B|368:120|344:176,1,100,0|0
304,240,5037,1,0
224,240,5541,2,0,B|200:184|136:184,1,100,8|0
88,128,6549,1,0
136,64,7053,2,0,B|240:64,1,100,0|8
320,64,8060,1,0
400,64,8564,6,0,B|400:168,1,100,0|0
336,296,10075,1,0
192,232,11083,1,0
320,136,12091,1,0
416,272,13098,2,0,B|376:264|376:264|368:280|368:280|360:264|360:264|352:280|352:280|344:264|344:264|336:280|336:280|328:264|328:264|320:280|320:280|312:264|312:264|304:280|304:280|296:264|296:264|288:280|288:280|280:264|280:264,1,250,0|0
184,296,14610,6,0,B|184:224,1,50
112,248,15114,2,0,B|112:312,1,50
40,296,15617,2,0,B|40:144,1,150.000005722046
256,192,16876,12,0,18136
96,128,18891,6,0,B|96:48|200:48,1,150
288,48,19900,1,0
376,48,20152,1,0
376,144,20404,1,0
472,144,20656,1,0
352,256,21160,1,8
184,232,21663,1,8
56,152,22167,6,0,B|56:48|208:48,1,200,8|0
288,48,23427,1,0
376,48,23679,1,0
376,144,23931,1,0
472,144,24182,1,0
352,256,24686,1,8
184,232,25190,1,8
56,152,25694,6,0,B|56:88|112:48,1,100,8|0
320,136,26953,1,0
256,192,27205,1,0
192,136,27457,1,0
112,144,27709,2,0,B|112:248|232:248,1,150
280,248,28717,1,0
360,248,28969,1,0
440,248,29221,2,0,B|448:232|448:232|456:248|456:248|464:232|464:232|472:248|472:248|480:232|480:232,2,75.0000028610231
352,104,30732,6,0,B|352:176,1,50
272,152,31236,2,0,B|224:152,1,50
144,152,31740,2,0,B|112:216|176:248,1,100,0|0
248,240,32495,1,0
336,240,32747,1,0
336,152,32999,2,0,B|328:144|328:144|320:160|320:160|312:144|312:144|304:160|304:160|296:144|296:144|288:160|288:160|280:144|280:144|272:160,1,112.500004291535
104,136,34762,6,0,B|104:48|208:48,1,150
288,48,35769,1,0
376,48,36021,1,0
376,136,36273,1,0
472,136,36525,1,0
352,256,36777,1,8
184,232,37281,1,8
56,152,37785,6,0,B|56:48|208:48,1,200,8|0
288,48,39044,1,0
376,48,39296,1,0
376,136,39548,1,0
472,136,39800,1,0
352,256,40052,1,8
184,232,40556,1,8
56,160,41060,2,0,B|56:96|120:96,1,100,8|0
176,96,41815,2,0,B|224:96,1,50
280,96,42319,6,0,B|344:96,1,50
336,176,42823,2,0,B|280:176,1,50
208,176,43326,2,0,B|168:176,4,25
208,176,44082,1,0
328,176,44334,5,0
432,176,44586,1,0
432,64,44838,1,0
328,64,45090,1,0
216,64,45342,1,0
216,64,45594,2,0,B|208:72|208:72|224:80|224:80|208:88|208:88|224:96|224:96|208:104|208:104|224:112|224:112|208:120,1,112.500004291535
208,192,46350,2,0,B|160:176|136:224,1,75.0000028610231
208,256,47105,2,0,B|256:304|384:304,1,150
432,200,48365,6,0,B|432:80|304:80,1,200,0|8
208,80,49373,6,0,B|80:80|80:200,1,200,0|8
160,240,50380,6,0,B|256:320|360:224,1,200,0|8
256,192,51136,12,0,52396
152,80,52899,6,0,B|264:80,1,100
352,80,53907,2,0,B|352:224,1,100
352,280,54915,2,0,B|248:280,1,100
152,280,55922,2,0,B|152:168,1,100
256,176,56930,2,0,B|272:120|328:120|352:176|424:176,2,175
