osu file format v9

[General]
AudioFilename: BRIGHT- 1220ver..mp3
AudioLeadIn: 0
PreviewTime: 18640
Countdown: 0
SampleSet: Soft
StackLeniency: 0.7
Mode: 0
LetterboxInBreaks: 1

[Editor]
Bookmarks: 58694
DistanceSpacing: 0.8
BeatDivisor: 1
GridSize: 8

[Metadata]
Title:1 year 2 months 20 days (short ver)
Artist:BRIGHT
Creator:Fantasi
Version:Easy
Source:
Tags:

[Difficulty]
HPDrainRate:3
CircleSize:3
OverallDifficulty:1
ApproachRate:2
SliderMultiplier:1
SliderTickRate:1

[Events]
//Background and Video events
0,0,"bg.jpg"
//Break Periods
//Storyboard Layer 0 (Background)
//Storyboard Layer 1 (Fail)
//Storyboard Layer 2 (Pass)
//Storyboard Layer 3 (Foreground)
//Storyboard Sound Samples
//Background Colour Transformations
3,100,163,162,255

[TimingPoints]
2014,503.820639852213,4,2,1,70,1,0
18640,-100,4,2,1,100,0,1
33251,-100,4,2,1,70,0,0
35770,-100,4,2,1,100,0,1
50885,-100,4,2,1,70,0,0
50885,-100,4,2,1,70,0,0

[Colours]
Combo1 : 255,128,255
Combo2 : 0,255,255
Combo3 : 255,255,255

[HitObjects]
160,112,2014,2,0,B|256:64|368:120,1,200
376,200,3525,2,0,B|328:304|272:192,2,150
472,200,5540,2,0,B|472:336|472:336|304:336,1,300,8|0
200,336,7556,2,0,B|40:336|40:336|40:192,1,300,8|0
232,112,10075,5,0
416,192,11082,1,0
256,304,12090,2,0,B|192:328|160:288|160:288|144:320|144:320|136:288|136:288|120:320|120:320|112:288|112:288|96:320|96:320|88:288,1,300
32,224,14105,6,0,B|-8:192|16:120,1,100,0|0
112,120,15113,2,0,B|88:72|144:16,1,100,0|0
232,48,16120,2,0,B|240:48|248:32|248:32|256:56|256:56|264:32|264:32|272:56|272:56|280:32|280:32|288:56|288:56|296:32|296:32|304:56|304:56|312:32|312:32|320:56|320:56|328:32|328:32|336:56|336:56|344:32|344:32|352:56|352:56|368:48|416:48,1,400
456,128,18640,1,0
456,128,19143,5,0
456,128,19647,2,0,B|456:240,1,100,0|8
456,328,20655,1,8
376,328,21159,1,8
296,328,21663,1,8
216,328,22166,1,8
32,88,23174,5,0
88,32,23678,1,8
168,32,24182,2,0,B|240:88|128:120|192:144|112:184|216:200,1,200
280,200,25693,1,8
360,200,26197,1,8
312,336,27205,5,0
232,336,27708,1,8
152,336,28212,2,0,B|96:336|80:280,1,100,0|8
32,216,29220,2,0,B|32:176|16:160|16:160|48:144|48:144|16:128|16:128|48:112|48:112|16:96,1,200
112,56,30731,1,8
192,56,31235,1,0
272,56,31739,2,0,B|400:56|400:56|400:144,1,200,8|8
480,144,33250,5,0
448,216,33754,1,8
384,264,34258,1,4
312,304,34762,5,4
312,304,35266,1,4
312,304,35769,2,0,B|112:304,1,200,0|8
72,232,37281,1,8
80,152,37785,1,8
128,88,38289,1,8
200,56,38792,1,0
280,48,39296,6,0,B|352:48|376:96,1,100
456,184,40304,2,0,B|392:200|368:144,1,100
272,176,41312,1,8
312,264,41815,1,8
216,256,42319,1,8
120,224,42823,2,0,B|24:224|24:224|24:112,2,200,0|0|0
200,224,45342,1,0
280,224,45846,1,0
360,224,46350,2,0,B|360:8,1,200
280,40,47861,5,0
184,184,48869,1,0
336,264,49876,1,0
216,136,50884,2,0,B|184:72|256:40|336:72|296:136,1,200
256,192,52396,12,0,54411
256,192,54663,12,0,56426
256,192,56678,12,0,58693
