osu file format v12

[General]
AudioFilename: www.mp3
AudioLeadIn: 2000
PreviewTime: 39768
Countdown: 0
SampleSet: Soft
StackLeniency: 0.7
Mode: 0
LetterboxInBreaks: 0

[Editor]
Bookmarks: 6743,147163,157499
DistanceSpacing: 1
BeatDivisor: 4
GridSize: 4

[Metadata]
Title:1 year 2 months 20 days
TitleUnicode:1 year 2 months 20 days
Artist:BRIGHT
ArtistUnicode:BRIGHT
Creator:Athena Tennos
Version:Neko
Source:
Tags:SAO Sword Art Online Yuuki Odagiri Ichinen Nikagetsu Hatsuka lucyfly xXCrystalMoonAnimeXx OrangeNeKo
BeatmapID:181197
BeatmapSetID:57546

[Difficulty]
HPDrainRate:6
CircleSize:4
OverallDifficulty:6
ApproachRate:8
SliderMultiplier:1.8
SliderTickRate:2

[Events]
//Background and Video events
0,0,"www.jpg",0,0
Video,-20,"www.flv"
//Break Periods
2,109600,124985
2,146103,156749
//Storyboard Layer 0 (Background)
//Storyboard Layer 1 (Fail)
//Storyboard Layer 2 (Pass)
//Storyboard Layer 3 (Foreground)
//Storyboard Sound Samples
//Background Colour Transformations
3,100,255,170,213

[TimingPoints]
693,504.201680672269,4,2,3,30,1,0
4726,-100,4,2,3,35,0,0
4852,-100,4,2,3,30,0,0
6239,-100,4,2,3,40,0,0
6365,-100,4,2,3,50,0,0
6491,-100,4,2,3,70,0,0
6995,-100,4,2,2,60,0,0
7247,-100,4,2,3,70,0,0
10272,-100,4,2,2,70,0,0
12793,-100,4,2,3,50,0,0
13045,-100,4,2,3,40,0,0
13298,-100,4,2,3,60,0,0
13550,-100,4,2,3,40,0,0
13802,-100,4,2,3,70,0,0
14054,-100,4,2,3,40,0,0
14306,-100,4,2,2,70,0,0
14558,-100,4,2,3,60,0,0
14810,-100,4,2,3,70,0,0
16827,-100,4,2,3,50,0,0
17079,-100,4,2,3,70,0,0
18340,-100,4,2,2,40,0,0
18466,-100,4,2,3,70,0,0
18844,-100,4,2,3,55,0,0
19096,-100,4,2,3,70,0,0
20356,-125,4,2,3,70,0,0
20861,-100,4,2,1,65,0,0
21617,-100,4,2,3,60,0,0
21869,-100,4,2,3,70,0,0
22373,-100,4,2,3,70,0,0
25903,-100,4,2,3,75,0,0
26155,-100,4,2,3,70,0,0
28676,-166.666666666667,4,2,3,60,0,0
29432,-100,4,2,3,70,0,0
34978,-166.666666666667,4,2,3,70,0,0
35987,-125,4,2,3,70,0,0
36995,-100,4,2,3,70,0,0
39768,-100,4,2,3,65,0,0
41029,-83.3333333333333,4,2,3,70,0,1
47079,-83.3333333333333,4,2,3,75,0,1
47583,-83.3333333333333,4,2,3,70,0,1
53129,-83.3333333333333,4,2,3,75,0,1
53634,-83.3333333333333,4,2,3,70,0,1
57037,-83.3333333333333,4,2,3,70,0,0
57163,-83.3333333333333,4,2,3,70,0,1
59180,-83.3333333333333,4,2,3,75,0,1
59432,-83.3333333333333,4,2,3,70,0,1
69264,-71.4285714285714,4,2,3,70,0,1
70020,-62.5,4,2,3,70,0,1
70777,-55.5555555555556,4,2,3,70,0,1
71533,-100,4,2,3,70,0,1
73298,-100,4,2,3,40,0,0
73802,-100,4,2,3,60,0,0
74306,-100,4,2,3,70,0,0
74810,-100,4,2,3,80,0,0
75314,-100,4,2,3,100,0,1
75440,-100,4,2,3,100,0,0
75819,-125,4,2,3,70,0,0
83382,-125,4,2,3,65,0,0
91449,-100,4,2,3,70,0,0
99516,-100,4,2,3,75,0,0
101533,-100,4,2,3,85,0,0
102037,-100,4,2,3,75,0,0
103550,-100,4,2,3,80,0,0
104054,-100,4,2,3,75,0,0
105566,-100,4,2,3,80,0,0
107079,-100,4,2,3,75,0,0
107331,-100,4,2,3,70,0,0
125735,-83.3333333333333,4,2,3,70,0,1
127751,-83.3333333333333,4,2,3,75,0,1
128256,-83.3333333333333,4,2,3,70,0,1
129768,-83.3333333333333,4,2,3,75,0,1
130272,-83.3333333333333,4,2,3,70,0,1
130777,-83.3333333333333,4,2,3,75,0,1
131281,-83.3333333333333,4,2,3,70,0,1
131785,-83.3333333333333,4,2,3,75,0,1
132289,-83.3333333333333,4,2,3,70,0,1
133802,-83.3333333333333,4,2,3,75,0,1
134306,-83.3333333333333,4,2,3,70,0,1
135819,-83.3333333333333,4,2,3,75,0,1
136323,-83.3333333333333,4,2,3,70,0,1
136575,-83.3333333333333,4,2,3,75,0,1
137835,-83.3333333333333,4,2,3,80,0,1
140104,-100,4,2,3,70,0,1
141869,-100,4,2,3,70,0,0
158003,-125,4,2,3,70,0,1
162037,-125,4,2,3,75,0,1
166071,-125,4,2,3,80,0,1
170104,-125,4,2,3,75,0,1
172121,-125,4,2,3,70,0,0
174138,-125,4,2,3,5,0,0

[Colours]
Combo1 : 244,158,254
Combo2 : 141,254,251
Combo3 : 255,170,172
Combo4 : 149,255,154
SliderBorder : 255,255,255

[HitObjects]
92,92,693,5,2,0:0:0:0:
92,92,945,1,0,0:0:0:0:
96,180,1197,1,0,0:0:0:0:
176,224,1449,1,0,0:0:0:0:
184,136,1701,1,2,0:0:0:0:
184,136,1953,1,0,0:0:0:0:
132,208,2205,1,0,0:0:0:0:
136,296,2457,1,0,0:0:0:0:
212,348,2709,6,0,L|304:348,1,90,2|0,0:0|0:0,0:0:0:0:
436,256,3214,2,0,L|344:256,1,90
256,148,3718,2,0,L|348:148,1,90,2|0,0:0|0:0,0:0:0:0:
436,48,4222,2,0,B|344:48,1,90,0|0,0:0|0:0,0:0:0:0:
256,148,4726,5,4,0:0:0:0:
212,212,5230,1,4,0:0:0:0:
256,272,5735,6,0,B|296:308,3,45,2|0|2|0,0:0|0:0|0:0|0:0,0:0:0:0:
312,320,6239,2,0,B|316:356,4,22.5,2|0|0|0|2,0:0|0:0|0:0|0:0|0:0,0:0:0:0:
408,252,6743,5,4,0:0:0:0:
408,164,6995,2,0,B|460:168|484:212,2,90,8|2|0,0:0|0:0|0:0,0:0:0:0:
324,212,7751,1,0,0:0:0:0:
256,268,8003,1,0,0:0:0:0:
256,268,8508,5,0,0:0:0:0:
180,312,8760,2,0,B|124:332|76:292,1,90,2|0,0:0|0:0,0:0:0:0:
36,236,9264,1,0,0:0:0:0:
108,180,9516,1,0,0:0:0:0:
108,180,10020,5,0,0:0:0:0:
108,92,10272,1,8,0:0:0:0:
108,180,10524,1,0,0:0:0:0:
152,260,10777,2,0,B|184:308|232:316|232:312,1,90,2|0,0:0|0:0,0:0:0:0:
360,124,11281,2,0,B|328:76|280:68|280:72,1,90,2|0,0:0|0:0,0:0:0:0:
200,64,11785,5,2,0:0:0:0:
108,92,12037,1,0,0:0:0:0:
28,124,12289,2,0,B|72:196|160:168,1,135,2|0,0:0|0:0,0:0:0:0:
168,184,12793,5,2,0:0:0:0:
136,268,13045,1,2,0:0:0:0:
256,152,13298,1,2,0:0:0:0:
256,64,13550,1,2,0:0:0:0:
344,184,13802,1,2,0:0:0:0:
376,268,14054,1,2,0:0:0:0:
256,320,14306,1,8,0:0:0:0:
256,232,14558,1,2,0:0:0:0:
404,112,14810,5,4,0:0:0:0:
404,112,15062,1,0,0:0:0:0:
320,80,15314,2,0,B|272:64|228:76,1,90,2|0,0:0|0:0,0:0:0:0:
148,104,15819,1,0,0:0:0:0:
100,180,16071,1,0,0:0:0:0:
148,104,16575,5,0,0:0:0:0:
100,180,16827,2,0,B|144:200|192:180,1,90,2|0,0:0|0:0,0:0:0:0:
148,104,17331,1,2,0:0:0:0:
188,276,17583,1,0,0:0:0:0:
224,272,17709,1,0,0:0:0:0:
256,256,17835,1,0,0:0:0:0:
312,328,18087,5,2,0:0:0:0:
344,244,18340,1,8,0:0:0:0:
420,292,18592,1,2,0:0:0:0:
456,212,18844,2,0,L|484:124,1,90,4|0,0:0|0:0,0:0:0:0:
384,48,19348,2,0,B|356:136,1,90,0|0,0:0|0:0,0:0:0:0:
156,136,19852,2,0,L|128:48,1,90,2|0,0:0|0:0,0:0:0:0:
56,172,20356,2,0,L|88:276,1,108,0|0,0:0|0:0,0:0:0:0:
120,300,20861,5,2,0:0:0:0:
120,300,20987,1,2,0:0:0:0:
256,184,21239,1,2,0:0:0:0:
256,184,21365,1,2,0:0:0:0:
208,264,21617,5,2,0:0:0:0:
136,216,21869,2,0,B|140:168|204:128,1,90,8|0,0:0|0:0,0:0:0:0:
256,184,22373,2,0,B|299:162|312:87,1,90,8|0,0:0|0:0,0:0:0:0:
384,156,22877,5,4,0:0:0:0:
392,244,23129,1,0,0:0:0:0:
384,272,23256,1,0,0:0:0:0:
368,292,23382,1,8,0:0:0:0:
284,328,23634,5,0,0:0:0:0:
196,324,23886,2,0,B|136:332|96:296,1,90,2|0,0:0|0:0,0:0:0:0:
52,236,24390,2,0,B|104:200|176:208,1,90,8|0,0:0|0:0,0:0:0:0:
224,192,24894,1,2,0:0:0:0:
312,188,25146,1,0,0:0:0:0:
312,188,25272,1,0,0:0:0:0:
312,188,25398,1,8,0:0:0:0:
392,148,25650,5,0,0:0:0:0:
444,72,25903,2,0,B|392:52|336:72,1,90,2|0,0:0|0:0,0:0:0:0:
276,112,26407,2,0,B|224:132|168:112,1,90,8|0,0:0|0:0,0:0:0:0:
100,100,26911,5,4,0:0:0:0:
100,100,27163,1,2,0:0:0:0:
84,224,27415,1,8,0:0:0:0:
84,224,27667,1,2,0:0:0:0:
168,316,27919,1,0,0:0:0:0:
168,316,28171,1,2,0:0:0:0:
272,244,28424,1,8,0:0:0:0:
372,324,28676,6,0,B|388:232|484:204,1,161.999995056153,4|8,0:0|0:0,0:0:0:0:
400,152,29684,1,2,0:0:0:0:
320,112,29936,1,0,0:0:0:0:
320,112,30440,5,8,0:0:0:0:
232,100,30693,1,0,0:0:0:0:
144,112,30945,2,0,B|88:116|56:160,1,90,6|0,0:0|0:0,0:0:0:0:
56,240,31449,2,0,B|112:236|144:192,1,90,8|0,0:0|0:0,0:0:0:0:
224,192,31953,1,0,0:0:0:0:
224,192,32457,5,8,0:0:0:0:
312,212,32709,1,2,0:0:0:0:
312,212,33214,5,2,0:0:0:0:
396,180,33466,2,0,B|440:152|504:160,1,90,8|0,0:0|0:0,0:0:0:0:
460,244,33970,2,0,B|384:320|256:280,1,180,0|8,0:0|0:0,0:0:0:0:
212,252,34726,5,2,0:0:0:0:
212,252,34978,2,0,B|152:236|92:268,1,107.999996704102,4|8,0:0|0:0,0:0:0:0:
124,176,35735,1,2,0:0:0:0:
124,176,35987,2,0,B|196:148|272:180,1,144,4|8,0:0|0:0,0:0:0:0:
348,200,36743,1,0,0:0:0:0:
404,272,36995,5,4,0:0:0:0:
316,284,37247,1,2,0:0:0:0:
348,200,37499,1,8,0:0:0:0:
432,292,37751,1,2,0:0:0:0:
296,312,38003,1,0,0:0:0:0:
348,168,38256,1,2,0:0:0:0:
460,312,38508,1,8,0:0:0:0:
272,340,38760,5,2,0:0:0:0:
196,276,39012,1,4,0:0:0:0:
180,308,39138,1,0,0:0:0:0:
148,328,39264,1,2,0:0:0:0:
112,336,39390,1,0,0:0:0:0:
76,328,39516,1,8,0:0:0:0:
112,236,39768,5,2,0:0:0:0:
148,80,40020,1,0,0:0:0:0:
212,156,40272,1,2,0:0:0:0:
400,236,40524,1,0,0:0:0:0:
300,156,40777,1,2,0:0:0:0:
364,80,41029,5,4,0:0:0:0:
400,236,41281,1,2,0:0:0:0:
256,272,41533,1,8,0:0:0:0:
152,352,41785,1,2,0:0:0:0:
48,268,42037,1,0,0:0:0:0:
152,192,42289,1,2,0:0:0:0:
96,84,42541,2,0,B|156:64|204:84,1,107.999996704102,8|0,0:0|0:0,0:0:0:0:
152,192,43045,5,4,0:0:0:0:
292,296,43298,1,0,0:0:0:0:
256,308,43424,1,0,0:0:0:0:
220,304,43549,1,8,0:0:0:0:
152,192,43802,5,2,0:0:0:0:
192,68,44054,1,0,0:0:0:0:
232,192,44306,1,2,0:0:0:0:
128,116,44558,1,8,0:0:0:0:
256,116,44810,1,2,0:0:0:0:
152,192,45062,5,4,0:0:0:0:
192,68,45314,1,2,0:0:0:0:
360,192,45566,1,8,0:0:0:0:
320,316,45818,1,2,0:0:0:0:
104,272,46071,2,2,B|64:232|72:172,1,107.999996704102,2|0,0:0|0:0,0:0:0:0:
84,136,46449,1,0,0:0:0:0:
112,104,46575,2,2,B|160:144|148:212,1,107.999996704102,8|0,0:0|0:0,0:0:0:0:
136,288,47078,1,4,0:0:0:0:
260,332,47331,5,0,0:0:0:0:
292,336,47457,1,0,0:0:0:0:
324,328,47582,1,8,0:0:0:0:
420,240,47835,5,2,0:0:0:0:
444,112,48087,1,2,0:0:0:0:
476,236,48340,1,2,0:0:0:0:
396,136,48591,1,8,0:0:0:0:
280,192,48844,1,0,0:0:0:0:
164,136,49095,1,4,0:0:0:0:
44,188,49348,1,2,0:0:0:0:
136,280,49600,2,0,B|168:328|240:336,1,107.999996704102,8|0,0:0|0:0,0:0:0:0:
348,292,50104,5,4,0:0:0:0:
412,180,50356,1,0,0:0:0:0:
420,148,50482,1,0,0:0:0:0:
412,116,50608,2,0,B|344:60|248:92,1,161.999995056153,8|0,0:0|0:0,0:0:0:0:
244,120,51113,2,0,B|140:172|36:124,1,215.999993408203,4|8,0:0|0:0,0:0:0:0:
88,244,51869,5,0,0:0:0:0:
148,224,51995,1,0,0:0:0:0:
208,244,52121,1,2,0:0:0:0:
308,160,52373,1,0,0:0:0:0:
308,344,52625,5,8,0:0:0:0:
408,252,52877,1,2,0:0:0:0:
309,159,53129,1,4,0:0:0:0:
404,72,53382,1,0,0:0:0:0:
308,160,53634,1,8,0:0:0:0:
212,72,53886,1,0,0:0:0:0:
308,160,54138,6,0,B|380:216|336:308,1,161.999995056153,4|0,0:0|0:0,0:0:0:0:
312,324,54642,2,0,B|248:340|188:316,1,107.999996704102,8|0,0:0|0:0,0:0:0:0:
172,340,55020,1,0,0:0:0:0:
148,320,55146,5,4,0:0:0:0:
136,288,55272,1,0,0:0:0:0:
132,256,55398,1,0,0:0:0:0:
140,224,55524,1,0,0:0:0:0:
156,196,55650,1,4,0:0:0:0:
256,264,55903,5,0,0:0:0:0:
300,140,56155,1,4,0:0:0:0:
340,264,56407,1,0,0:0:0:0:
236,188,56659,1,4,0:0:0:0:
364,188,56911,1,2,0:0:0:0:
296,320,57163,5,4,0:0:0:0:
184,136,57415,1,0,0:0:0:0:
296,320,57667,1,8,0:0:0:0:
412,132,57919,1,0,0:0:0:0:
296,320,58171,2,0,B|224:328|192:268,1,107.999996704102,2|0,0:0|0:0,0:0:0:0:
184,136,58676,2,0,B|218:77|288:80,1,107.999996704102,8|0,0:0|0:0,0:0:0:0:
412,132,59180,2,0,B|452:180|404:260,1,107.999996704102,4|0,0:0|0:0,0:0:0:0:
72,200,59684,1,8,0:0:0:0:
72,200,59936,5,0,0:0:0:0:
184,136,60188,1,2,0:0:0:0:
300,196,60440,1,0,0:0:0:0:
412,132,60692,1,8,0:0:0:0:
300,196,60944,1,2,0:0:0:0:
300,64,61197,5,4,0:0:0:0:
300,64,61449,1,0,0:0:0:0:
412,132,61701,1,8,0:0:0:0:
300,196,61953,1,0,0:0:0:0:
336,132,62205,2,0,B|388:184|360:232,1,107.999996704102,2|0,0:0|0:0,0:0:0:0:
362,227,62709,2,0,B|328:284|264:256,1,107.999996704102,8|0,0:0|0:0,0:0:0:0:
270,259,63214,2,0,B|212:230|236:160,1,107.999996704102,4|0,0:0|0:0,0:0:0:0:
104,164,63717,1,8,0:0:0:0:
104,164,63970,5,0,0:0:0:0:
124,292,64222,2,0,B|136:352|192:372,1,107.999996704102,2|0,0:0|0:0,0:0:0:0:
320,372,64726,1,8,0:0:0:0:
424,292,64978,1,2,0:0:0:0:
320,372,65230,1,4,0:0:0:0:
264,148,65482,5,0,0:0:0:0:
236,132,65608,1,0,0:0:0:0:
208,116,65735,1,8,0:0:0:0:
100,188,65987,5,0,0:0:0:0:
132,204,66113,1,0,0:0:0:0:
160,220,66239,2,0,L|256:272,1,107.999996704102,2|0,0:0|0:0,0:0:0:0:
352,356,66743,2,0,L|408:264,1,107.999996704102,8|0,0:0|0:0,0:0:0:0:
312,168,67247,1,6,0:0:0:0:
416,92,67499,5,0,0:0:0:0:
416,92,67625,1,0,0:0:0:0:
416,92,67751,1,8,0:0:0:0:
364,212,68003,5,0,0:0:0:0:
272,304,68256,1,2,0:0:0:0:
272,304,68508,1,0,0:0:0:0:
180,212,68760,1,8,0:0:0:0:
276,124,69012,1,2,0:0:0:0:
276,124,69264,6,0,B|344:120|397:150,1,125.999996154785,4|0,0:0|0:0,0:0:0:0:
397,150,69642,1,0,0:0:0:0:
397,150,69768,1,8,0:0:0:0:
240,224,70020,2,0,B|168:220|100:256,1,144,4|2,0:0|0:0,0:0:0:0:
102,256,70398,1,0,0:0:0:0:
102,256,70524,1,0,0:0:0:0:
276,316,70777,2,0,B|360:312|432:352,1,161.999995056153,12|0,0:0|0:0,0:0:0:0:
432,352,71155,1,0,0:0:0:0:
432,352,71281,1,0,0:0:0:0:
375,218,71533,5,0,0:0:0:0:
440,40,71785,1,8,0:0:0:0:
456,148,72037,1,0,0:0:0:0:
340,100,72289,1,2,0:0:0:0:
220,140,72541,1,0,0:0:0:0:
100,104,72793,1,8,0:0:0:0:
100,104,73045,2,0,B|100:184,1,45
100,192,73298,5,4,0:0:0:0:
256,324,73802,1,4,0:0:0:0:
420,192,74306,1,4,0:0:0:0:
256,60,74810,2,0,L|256:156,2,90,4|0|4,0:0|0:0|0:0,0:0:0:0:
116,92,75819,6,0,B|80:116|64:148,1,72,8|2,0:0|0:0,0:0:0:0:
120,212,76323,2,0,B|104:244|104:288,1,72
172,336,76827,1,8,0:0:0:0:
256,348,77079,1,2,0:0:0:0:
340,336,77331,1,0,0:0:0:0:
420,272,77583,2,0,B|420:228,1,36
392,216,77835,2,0,B|392:96,1,108,8|0,0:0|0:0,0:0:0:0:
360,88,78340,6,0,B|360:164,1,72,0|2,0:0|0:0,0:0:0:0:
264,196,78844,1,8,0:0:0:0:
180,112,79348,1,4,0:0:0:0:
116,168,79600,6,0,B|92:224|120:260,1,72,0|8,0:0|0:0,0:0:0:0:
156,308,80104,1,2,0:0:0:0:
240,332,80356,2,0,B|316:348,1,72
376,288,80861,2,0,B|296:268,1,72,8|0,0:0|0:0,0:0:0:0:
256,200,81365,1,2,0:0:0:0:
188,144,81617,2,0,B|160:112|152:104,1,36
136,108,81869,2,0,B|192:56|288:72,1,144,8|0,0:0|0:0,0:0:0:0:
356,52,82625,6,0,B|384:84|376:152,1,72,0|8,0:0|0:0,0:0:0:0:
384,204,83129,1,2,0:0:0:0:
348,280,83382,2,0,B|304:304|248:296,1,72,4|0,0:0|0:0,0:0:0:0:
180,220,83886,2,0,B|76:196|24:264,1,144,8|0,0:0|0:0,0:0:0:0:
128,324,84642,6,0,B|168:336|208:316,1,72,0|8,0:0|0:0,0:0:0:0:
276,276,85146,1,2,0:0:0:0:
332,208,85398,1,4,0:0:0:0:
332,208,85902,5,8,0:0:0:0:
324,120,86155,2,0,B|276:96|224:112,1,72
188,48,86659,6,0,B|164:72|156:128,1,72,0|8,0:0|0:0,0:0:0:0:
140,196,87163,1,2,0:0:0:0:
156,280,87415,1,4,0:0:0:0:
372,188,87919,1,8,0:0:0:0:
356,104,88171,1,2,0:0:0:0:
356,104,88676,2,0,B|324:80|276:80,1,72,0|8,0:0|0:0,0:0:0:0:
204,76,89180,5,2,0:0:0:0:
124,108,89432,2,0,B|88:152|96:228,1,108,4|0,0:0|0:0,0:0:0:0:
72,232,89936,2,0,B|112:304|224:280,1,144,4|0,0:0|0:0,0:0:0:0:
220,308,90566,5,0,0:0:0:0:
232,280,90693,1,0,0:0:0:0:
252,260,90819,1,0,0:0:0:0:
280,248,90945,1,8,0:0:0:0:
392,228,91197,1,2,0:0:0:0:
452,116,91449,1,4,0:0:0:0:
452,116,91701,5,0,0:0:0:0:
376,68,91953,1,8,0:0:0:0:
288,68,92205,1,0,0:0:0:0:
200,88,92457,2,0,B|148:92|124:136,1,90
52,180,92961,2,0,B|104:176|144:104,1,90,8|0,0:0|0:0,0:0:0:0:
80,60,93466,6,0,B|84:112|132:136,1,90,4|0,0:0|0:0,0:0:0:0:
172,208,93970,2,0,B|168:156|92:108,1,90,8|0,0:0|0:0,0:0:0:0:
100,224,94474,1,0,0:0:0:0:
148,300,94726,1,2,0:0:0:0:
236,316,94978,2,0,B|284:332|320:368,2,90,8|2|4,0:0|0:0|0:0,0:0:0:0:
256,228,95735,5,2,0:0:0:0:
308,156,95987,1,8,0:0:0:0:
388,116,96239,1,2,0:0:0:0:
476,124,96491,2,0,B|464:184|408:192,1,90
412,296,96995,2,0,B|364:308|328:272,1,90,8|0,0:0|0:0,0:0:0:0:
256,228,97499,1,4,0:0:0:0:
200,156,97751,1,2,0:0:0:0:
120,120,98003,1,8,0:0:0:0:
48,280,98508,5,0,0:0:0:0:
48,280,98760,1,0,0:0:0:0:
60,180,99012,2,0,B|76:128|124:120,1,90,8|2,0:0|0:0,0:0:0:0:
224,172,99516,2,0,B|340:172,1,90,4|0,0:0|0:0,0:0:0:0:
448,292,100020,2,0,B|356:292,1,90,8|0,0:0|0:0,0:0:0:0:
272,320,100524,1,0,0:0:0:0:
272,320,100777,5,2,0:0:0:0:
184,320,101029,2,0,B|124:320|92:272,1,90,8|0,0:0|0:0,0:0:0:0:
64,204,101533,2,0,B|112:176|168:196,1,90,4|0,0:0|0:0,0:0:0:0:
236,216,102037,2,0,B|304:184,1,45,8|0,0:0|0:0,0:0:0:0:
296,216,102289,2,0,B|340:232|368:268|368:268|388:224|380:180,1,180
304,132,103045,5,8,0:0:0:0:
188,96,103297,1,2,0:0:0:0:
304,132,103550,6,0,B|264:92|220:80|220:80|188:96,1,135,4|0,0:0|0:0,0:0:0:0:
176,128,104054,1,8,0:0:0:0:
88,128,104306,2,0,B|100:196|160:208|160:208|148:228,1,135
132,252,104810,2,0,B|80:328,1,90,0|8,0:0|0:0,0:0:0:0:
204,352,105314,2,0,B|228:308,1,45
256,296,105566,5,4,0:0:0:0:
256,96,106070,1,12,0:0:0:0:
140,192,106575,1,4,0:0:0:0:
368,192,107079,1,8,0:0:0:0:
368,192,107331,1,2,0:0:0:0:
206,52,125735,5,6,0:0:0:0:
196,180,125987,1,0,0:0:0:0:
96,112,126239,1,8,0:0:0:0:
168,112,126491,1,0,0:0:0:0:
300,80,126743,2,0,B|352:56|404:76,1,107.999996704102,2|0,0:0|0:0,0:0:0:0:
356,220,127247,2,0,B|304:244|252:224,1,107.999996704102,8|0,0:0|0:0,0:0:0:0:
196,84,127751,2,0,B|248:60|300:80,1,107.999996704102,4|0,0:0|0:0,0:0:0:0:
410,134,128256,1,8,0:0:0:0:
410,134,128508,5,0,0:0:0:0:
377,258,128760,1,2,0:0:0:0:
256,303,129012,1,0,0:0:0:0:
139,252,129264,1,8,0:0:0:0:
249,181,129516,1,2,0:0:0:0:
217,247,129769,5,4,0:0:0:0:
217,247,130021,1,0,0:0:0:0:
106,314,130273,1,8,0:0:0:0:
106,314,130525,1,0,0:0:0:0:
48,200,130777,2,0,B|52:140|92:104,1,107.999996704102,4|0,0:0|0:0,0:0:0:0:
88,224,131281,2,0,B|92:164|132:128,1,107.999996704102,8|0,0:0|0:0,0:0:0:0:
128,244,131786,2,0,B|132:184|172:148,1,107.999996704102,4|0,0:0|0:0,0:0:0:0:
272,200,132289,1,8,0:0:0:0:
272,200,132542,5,0,0:0:0:0:
400,188,132794,2,0,B|424:123|400:72,1,107.999996704102,2|0,0:0|0:0,0:0:0:0:
279,48,133298,1,8,0:0:0:0:
155,78,133550,1,2,0:0:0:0:
80,185,133802,1,4,0:0:0:0:
136,302,134054,5,0,0:0:0:0:
167,310,134180,1,0,0:0:0:0:
200,310,134307,1,8,0:0:0:0:
327,288,134559,5,0,0:0:0:0:
327,288,134685,1,0,0:0:0:0:
327,288,134811,1,2,0:0:0:0:
413,191,135063,1,0,0:0:0:0:
335,87,135315,1,8,0:0:0:0:
239,175,135567,1,0,0:0:0:0:
325,189,135819,1,4,0:0:0:0:
248,86,136071,5,0,0:0:0:0:
218,82,136197,1,0,0:0:0:0:
188,94,136323,1,8,0:0:0:0:
79,168,136575,5,0,0:0:0:0:
86,299,136828,1,2,0:0:0:0:
213,327,137080,1,0,0:0:0:0:
264,206,137332,1,8,0:0:0:0:
137,227,137584,1,2,0:0:0:0:
271,279,137836,6,0,B|412:308|496:216,1,215.999993408203,4|8,0:0|0:0,0:0:0:0:
472,184,138592,2,0,B|372:256|248:216,1,215.999993408203,4|2,0:0|0:0,0:0:0:0:
256,164,139348,2,12,B|380:204|480:108,1,215.999993408203,12|2,0:0|0:0,0:0:0:0:
364,76,140104,5,0,0:0:0:0:
256,56,140356,1,8,0:0:0:0:
148,72,140608,1,0,0:0:0:0:
80,156,140861,1,2,0:0:0:0:
92,264,141113,1,0,0:0:0:0:
168,312,141365,1,8,0:0:0:0:
256,320,141617,1,0,0:0:0:0:
344,292,141869,1,4,0:0:0:0:
256,192,141995,12,0,145903,0:0:0:0:
112,304,157499,5,8,0:0:0:0:
84,220,157751,1,2,0:0:0:0:
84,220,158003,6,0,B|140:76,1,144,4|8,0:0|0:0,0:0:0:0:
220,72,158760,1,0,0:0:0:0:
220,72,159012,2,0,B|164:216,1,144,0|8,0:0|0:0,0:0:0:0:
252,200,159768,1,0,0:0:0:0:
252,200,160020,6,0,B|308:56,1,144,0|8,0:0|0:0,0:0:0:0:
392,60,160777,1,0,0:0:0:0:
392,60,161029,2,0,B|336:204,1,144,0|8,0:0|0:0,0:0:0:0:
380,272,161785,1,2,0:0:0:0:
296,284,162037,6,0,B|208:304|136:348,1,144,4|8,0:0|0:0,0:0:0:0:
80,300,162793,1,0,0:0:0:0:
148,244,163045,2,0,B|208:208|296:192,1,144,0|8,0:0|0:0,0:0:0:0:
344,132,163802,1,0,0:0:0:0:
260,108,164054,6,0,B|192:116|100:164,1,144,0|8,0:0|0:0,0:0:0:0:
48,112,164810,1,0,0:0:0:0:
116,56,165062,2,0,B|192:24|280:12,1,144,4|8,0:0|0:0,0:0:0:0:
340,36,165819,1,2,0:0:0:0:
360,56,165945,1,0,0:0:0:0:
376,80,166071,6,0,B|392:160|364:244,1,144,6|8,0:0|0:0,0:0:0:0:
324,296,166827,1,0,0:0:0:0:
296,308,166953,1,0,0:0:0:0:
268,316,167079,2,0,B|176:332|112:284,1,144,0|8,0:0|0:0,0:0:0:0:
64,236,167835,1,0,0:0:0:0:
64,236,168087,6,0,B|116:184|200:148,1,144,4|8,0:0|0:0,0:0:0:0:
216,236,168844,2,0,B|248:248|296:236,2,72
292,164,169600,1,8,0:0:0:0:
352,276,169852,1,2,0:0:0:0:
236,320,170104,5,4,0:0:0:0:
132,112,170609,1,8,0:0:0:0:
248,108,170861,1,4,0:0:0:0:
408,308,171617,1,12,0:0:0:0:
408,308,172121,5,2,0:0:0:0:
256,192,174138,12,0,180188,0:0:0:0:
