osu file format v12

[General]
AudioFilename: www.mp3
AudioLeadIn: 0
PreviewTime: 39768
Countdown: 0
SampleSet: Soft
StackLeniency: 0.7
Mode: 0
LetterboxInBreaks: 0

[Editor]
Bookmarks: 6743,22877,23129,40903,41029,56911,57163,75314,75566,109600,124474,145903,146155,155987,180188
DistanceSpacing: 1.1
BeatDivisor: 4
GridSize: 4

[Metadata]
Title:1 year 2 months 20 days
TitleUnicode:1 year 2 months 20 days
Artist:BRIGHT
ArtistUnicode:BRIGHT
Creator:Athena Tennos
Version:Hard Collab
Source:
Tags:SAO Sword Art Online Yuuki Odagiri Ichinen Nikagetsu Hatsuka lucyfly xXCrystalMoonAnimeXx OrangeNeKo
BeatmapID:181330
BeatmapSetID:57546

[Difficulty]
HPDrainRate:5
CircleSize:4
OverallDifficulty:5
ApproachRate:7
SliderMultiplier:1.5
SliderTickRate:2

[Events]
//Background and Video events
0,0,"www.jpg",0,0
Video,-20,"www.flv"
//Break Periods
2,109600,123574
2,146103,155087
//Storyboard Layer 0 (Background)
//Storyboard Layer 1 (Fail)
//Storyboard Layer 2 (Pass)
//Storyboard Layer 3 (Foreground)
Sprite,Foreground,Centre,"Athena.png",320,240 M,0,6743,,196,428 S,0,6743,,0.8 F,0,6743,7247,0,1 F,0,7247,22877,1,0.9940476 F,0,22877,23129,0.9940476,0 F,0,41029,41281,0,1 F,0,41281,56911,1 F,0,56911,57163,1,0 F,0,75566,75819,0,1 F,0,75819,,1 F,0,75819,109600,1 F,0,109600,110104,1,0.02777779
Sprite,Foreground,Centre,"Crystal.png",320,240 M,0,23129,,254,425 S,0,23129,,0.6880002 F,0,23129,23382,0,1 F,0,23382,40777,1,0.9920949 F,0,40777,41029,0.9920949,0 F,0,57163,57415,0.02362133,1 F,0,57415,75314,1,0.9651294 F,0,75314,75566,0.9651294,0 F,0,123970,124474,0,1 F,0,124474,,1 F,0,124474,,1 F,0,124474,145903,1 F,0,145903,,1 F,0,145903,146155,1,0 F,0,155735,155987,0,1 F,0,155987,179684,1 F,0,179684,180188,1,0
Sprite,Foreground,Centre,"Athena.png",320,240 M,0,83382,,194,427 F,0,83382,83886,1,0 S,0,83382,83886,0.7920003,0.848 F,0,85398,85903,1,0 S,0,85398,85903,0.7835553,0.8475556 F,0,87415,87919,1,0 S,0,87415,87919,0.7824147,0.846415 F,0,89432,89936,1,0 S,0,89432,89936,0.782415,0.846415 F,0,91449,91953,1,0 S,0,91449,91953,0.7824147,0.846415 S,0,99516,,0.7815261 F,0,99516,100524,1,0 S,0,99516,100524,0.7815261,0.8455261 F,0,101533,102541,1,0.01091272 S,0,101533,102541,0.7815259,0.8455261 F,0,103550,104306,1,0 S,0,103550,104306,0.7815259,0.8455261 F,0,105566,106071,1,0 S,0,105566,106071,0.7809336,0.8449335 F,0,106575,107079,1,0 S,0,106575,107079,0.7946525,0.8426523
Sprite,Foreground,Centre,"Crystal.png",320,240 F,0,133802,134306,1,0 S,0,133802,134306,0.6879999,0.744 F,0,135819,136323,1,0 S,0,135819,136323,0.6959998,0.7399998 M,0,137835,,255,425 F,0,137835,138340,1,0 S,0,137835,138340,0.6879999,0.7360001 F,0,138844,139348,1,0 S,0,138844,139348,0.7024791,0.7344792 F,0,139852,140356,1,0 S,0,139852,140356,0.6944789,0.7344792 F,0,141869,142373,1,0 S,0,141869,142373,0.7024794,0.7344792
//Storyboard Sound Samples
//Background Colour Transformations
3,100,255,170,213

[TimingPoints]
693,504.201680672269,4,2,3,60,1,0
6743,-100,4,2,3,60,0,0
6995,-100,4,2,2,55,0,0
7121,-100,4,2,1,60,0,0
7751,-100,4,2,2,60,0,0
8760,-100,4,2,3,60,0,0
8886,-100,4,2,1,60,0,0
10272,-100,4,2,2,65,0,0
10398,-100,4,2,1,60,0,0
10777,-100,4,2,3,45,0,0
12793,-100,4,2,3,50,0,0
14306,-100,4,2,2,60,0,0
14432,-100,4,2,1,60,0,0
15062,-100,4,2,3,60,0,0
16827,-100,4,2,3,40,0,0
16953,-100,4,2,1,60,0,0
17331,-100,4,2,3,60,0,0
18087,-100,4,2,3,60,0,0
18340,-100,4,2,2,60,0,0
18466,-100,4,2,1,60,0,0
18844,-100,4,2,1,65,0,0
19348,-100,4,2,1,60,0,0
23129,-100,4,2,2,60,0,0
23256,-100,4,2,1,60,0,0
23886,-100,4,2,3,60,0,0
24012,-100,4,2,1,60,0,0
24894,-100,4,2,2,45,0,0
25398,-100,4,2,2,60,0,0
25903,-100,4,2,3,60,0,0
26029,-100,4,2,1,60,0,0
26911,-100,4,2,1,45,0,0
27163,-100,4,2,2,60,0,0
27289,-100,4,2,1,60,0,0
27919,-100,4,2,3,60,0,0
28928,-100,4,2,3,45,0,0
29054,-100,4,2,1,60,0,0
29432,-100,4,2,3,60,0,0
29558,-100,4,2,1,60,0,0
29936,-100,4,2,2,60,0,0
30440,-100,4,2,3,60,0,0
31197,-100,4,2,2,60,0,0
31323,-100,4,2,1,60,0,0
31701,-100,4,2,3,60,0,0
31827,-100,4,2,1,60,0,0
34978,-100,4,2,1,65,0,0
35230,-100,4,2,2,65,0,0
35356,-100,4,2,1,65,0,0
36239,-100,4,2,2,65,0,0
36365,-100,4,2,1,65,0,0
39768,-100,4,2,3,60,0,0
41029,-100,4,2,1,60,0,1
41281,-100,4,2,2,60,0,1
41407,-100,4,2,1,60,0,1
43045,-100,4,2,2,55,0,1
43550,-100,4,2,1,60,0,1
43802,-100,4,2,0,70,0,1
45314,-100,4,2,2,60,0,1
45440,-100,4,2,1,60,0,1
47835,-100,4,2,3,75,0,1
49348,-100,4,2,2,60,0,1
49474,-100,4,2,1,60,0,1
51365,-100,4,2,2,60,0,1
51491,-100,4,2,1,60,0,1
51869,-100,4,2,3,70,0,1
53382,-100,4,2,2,60,0,1
53508,-100,4,2,1,60,0,1
53886,-100,4,2,3,60,0,1
55146,-100,4,2,3,75,0,1
57037,-100,4,2,1,60,0,0
57163,-100,4,2,1,60,0,1
57415,-100,4,2,2,60,0,1
57541,-100,4,2,1,60,0,1
59936,-100,4,2,3,75,0,1
61449,-100,4,2,2,60,0,1
61575,-100,4,2,1,60,0,1
62205,-100,4,2,3,60,0,1
63718,-100,4,2,1,60,0,1
63970,-100,4,2,3,60,0,1
65482,-100,4,2,2,60,0,1
65608,-100,4,2,1,60,0,1
66239,-100,4,2,3,60,0,1
69264,-100,4,2,3,70,0,1
72919,-100,4,2,1,60,0,1
73298,-100,4,2,3,60,0,0
75314,-100,4,2,1,60,0,1
75440,-100,4,2,1,60,0,0
78087,-100,4,2,3,70,0,0
81365,-100,4,2,3,60,0,0
81491,-100,4,2,1,60,0,0
82625,-100,4,2,3,60,0,0
83382,-100,4,2,3,70,0,0
87415,-100,4,2,1,70,0,0
89432,-100,4,2,1,80,0,0
91701,-100,4,2,2,60,0,0
91827,-100,4,2,1,60,0,0
95482,-100,4,2,1,80,0,0
95735,-100,4,2,2,60,0,0
95861,-100,4,2,1,60,0,0
96239,-100,4,2,3,60,0,0
99516,-100,4,2,1,70,0,0
101533,-100,4,2,1,75,0,0
103550,-100,4,2,1,80,0,0
107583,-100,4,2,3,40,0,0
109600,-100,4,2,3,60,0,0
124474,-100,4,2,3,70,0,0
125735,-100,4,2,1,70,0,1
125987,-100,4,2,2,70,0,1
126113,-100,4,2,1,70,0,1
126995,-100,4,2,3,70,0,1
130020,-100,4,2,2,70,0,1
130146,-100,4,2,1,70,0,1
130777,-100,4,2,3,70,0,1
130903,-100,4,2,1,70,0,1
131533,-100,4,2,3,70,0,1
134054,-100,4,2,2,70,0,1
134180,-100,4,2,1,70,0,1
134558,-100,4,2,3,70,0,1
138087,-100,4,2,2,70,0,1
138214,-100,4,2,1,70,0,1
138592,-100,4,2,2,70,0,1
140104,-100,4,2,3,70,0,1
141869,-100,4,2,1,70,0,0
145903,-100,4,2,3,50,0,0
146029,-100,4,2,1,60,0,0
157247,-100,4,2,3,60,0,0
158003,-100,4,2,1,80,0,1
158256,-100,4,2,2,60,0,1
158382,-100,4,2,1,60,0,1
158760,-100,4,2,3,60,0,1
160777,-100,4,2,3,70,0,1
162037,-100,4,2,1,60,0,1
162793,-100,4,2,3,60,0,1
164810,-100,4,2,3,75,0,1
166071,-100,4,2,1,60,0,1
166323,-100,4,2,2,60,0,1
166449,-100,4,2,1,60,0,1
166827,-100,4,2,3,60,0,1
167835,-100,4,2,2,60,0,1
168592,-100,4,2,1,60,0,1
170104,-100,4,2,2,70,0,1
170356,-100,4,2,3,60,0,1
170482,-100,4,2,1,60,0,1
172121,-100,4,2,3,60,0,0
172373,-133.333333333333,4,2,3,60,0,0
175524,-133.333333333333,4,2,3,30,0,0
176911,-133.333333333333,4,2,3,15,0,0
177037,-100,4,2,1,5,0,0

[Colours]
Combo1 : 244,158,254
Combo2 : 141,254,251
Combo3 : 255,170,172
Combo4 : 149,255,154
SliderBorder : 255,255,255

[HitObjects]
88,120,6743,1,6,0:0:0:0:
88,120,6995,2,0,B|40:192|88:272,1,150,8|0,0:0|0:0,0:0:0:0:
136,328,7751,1,2,0:0:0:0:
136,328,8003,2,0,B|176:320|206:344,1,75,0|0,0:0|0:0,0:0:0:0:
288,328,8508,1,0,0:0:0:0:
288,328,8760,6,0,B|328:328|358:305,2,75,2|0|0,0:0|0:0|0:0,0:0:0:0:
304,248,9516,2,0,B|344:208|420:224|436:284,1,150
456,356,10272,2,0,B|500:352|512:312,1,75,8|0,0:0|0:0,0:0:0:0:
508,224,10777,5,2,0:0:0:0:
320,76,11281,1,2,0:0:0:0:
100,172,11785,2,0,B|76:204|92:244,2,75,2|0|2,0:0|0:0|0:0,0:0:0:0:
320,264,12793,6,0,B|324:303|362:322,1,75,2|0,0:0|0:0,0:0:0:0:
256,220,13298,2,0,B|220:204|184:228,1,75,2|0,0:0|0:0,0:0:0:0:
324,192,13802,2,0,B|355:168|353:125,1,75,2|0,0:0|0:0,0:0:0:0:
252,292,14306,2,0,B|220:315|222:358,1,75,10|0,0:0|0:0,0:0:0:0:
320,264,14810,5,4,0:0:0:0:
324,192,15062,1,2,0:0:0:0:
292,128,15314,1,0,0:0:0:0:
228,92,15566,1,0,0:0:0:0:
292,128,15819,2,0,B|328:112|336:72,2,75,2|0|0,0:0|0:0|0:0,0:0:0:0:
232,168,16575,1,0,0:0:0:0:
108,204,16827,6,0,B|71:219|58:258,2,75,6|0|0,0:0|0:0|0:0,0:0:0:0:
93,115,17583,2,0,B|132:108|164:132,1,75,2|0,0:0|0:0,0:0:0:0:
196,212,18087,1,2,0:0:0:0:
264,268,18340,1,8,0:0:0:0:
304,348,18592,1,0,0:0:0:0:
384,304,18844,6,0,B|408:268|396:232|396:232|432:240|464:208,1,150,6|2,0:0|0:0,0:0:0:0:
468,120,19600,1,0,0:0:0:0:
380,96,19852,2,0,B|340:96|316:128,1,75,2|0,0:0|0:0,0:0:0:0:
240,244,20356,2,0,B|280:244|304:212,1,75,2|0,0:0|0:0,0:0:0:0:
264,80,20861,5,2,0:0:0:0:
232,104,20987,1,2,0:0:0:0:
100,124,21239,1,2,0:0:0:0:
124,156,21365,1,2,0:0:0:0:
232,228,21617,5,2,0:0:0:0:
104,272,21869,1,8,0:0:0:0:
232,228,22121,5,2,0:0:0:0:
192,244,22247,1,0,0:0:0:0:
148,256,22373,1,8,0:0:0:0:
276,212,22625,5,0,0:0:0:0:
104,272,22877,1,6,0:0:0:0:
104,272,23129,2,0,B|84:344,1,75,8|8,0:0|0:0,0:0:0:0:
20,288,23634,5,0,0:0:0:0:
44,208,23886,2,0,B|64:136,1,75,2|0,0:0|0:0,0:0:0:0:
144,124,24390,1,8,0:0:0:0:
172,200,24642,1,0,0:0:0:0:
144,276,24894,2,0,B|216:324|308:268|308:268,1,150,6|8,0:0|0:0,0:0:0:0:
256,200,25650,5,0,0:0:0:0:
288,124,25903,2,0,B|304:80|352:76,1,75,2|0,0:0|0:0,0:0:0:0:
364,152,26407,2,0,B|376:200|428:204,1,75,8|0,0:0|0:0,0:0:0:0:
492,228,26911,6,0,B|480:272|437:276,1,75,4|8,0:0|0:0,0:0:0:0:
400,292,27289,1,0,0:0:0:0:
360,308,27415,2,0,B|292:352|216:312|216:312,1,150,8|2,0:0|0:0,0:0:0:0:
248,232,28171,1,2,0:0:0:0:
288,160,28424,1,8,0:0:0:0:
328,232,28676,1,2,0:0:0:0:
360,308,28928,6,0,B|292:352|216:312|216:312,1,150,6|10,0:0|0:0,0:0:0:0:
140,276,29684,1,0,0:0:0:0:
68,236,29936,2,0,B|36:212|36:212|76:172|68:108,1,150,2|10,0:0|0:0,0:0:0:0:
52,28,30693,5,2,0:0:0:0:
136,28,30945,2,0,B|176:40|180:84,1,75,4|8,0:0|0:0,0:0:0:0:
136,152,31449,1,8,0:0:0:0:
176,164,31575,1,0,0:0:0:0:
220,152,31701,1,2,0:0:0:0:
180,83,31953,2,0,B|191:44|227:28,2,75,0|0|8,0:0|0:0|0:0,0:0:0:0:
260,104,32709,6,0,B|304:72|356:172|400:128,1,150,0|0,0:0|0:0,0:0:0:0:
400,52,33466,2,0,B|478:59|497:126|482:216|385:209,1,225,8|0,0:0|0:0,0:0:0:0:
418,207,34474,1,8,0:0:0:0:
341,232,34726,1,0,0:0:0:0:
357,152,34978,5,4,0:0:0:0:
418,208,35230,1,8,0:0:0:0:
357,152,35482,1,8,0:0:0:0:
437,128,35735,1,0,0:0:0:0:
493,188,35987,6,0,B|504:232|476:264,1,75,0|8,0:0|0:0,0:0:0:0:
418,208,36491,1,8,0:0:0:0:
437,128,36743,1,0,0:0:0:0:
493,188,36995,6,0,B|508:240|476:272|448:296|416:288,1,150,4|8,0:0|0:0,0:0:0:0:
404,292,38003,5,2,0:0:0:0:
392,296,38508,37,8,0:0:0:0:
380,300,39012,5,6,0:0:0:0:
116,88,39768,5,2,0:0:0:0:
284,68,40020,1,2,0:0:0:0:
158,184,40272,1,2,0:0:0:0:
195,17,40524,1,2,0:0:0:0:
263,172,40777,1,2,0:0:0:0:
256,336,41029,6,0,B|224:360|184:348,1,75,4|8,0:0|0:0,0:0:0:0:
148,328,41407,1,0,0:0:0:0:
112,348,41533,2,0,B|72:360|40:336,1,75,8|0,0:0|0:0,0:0:0:0:
100,232,42037,2,0,B|108:192|84:160,1,75
48,144,42415,1,0,0:0:0:0:
40,104,42541,2,0,B|64:72|104:72,1,75,8|0,0:0|0:0,0:0:0:0:
196,152,43045,6,0,B|240:148|256:112|256:112|276:148|316:152,1,150,6|8,0:0|0:0,0:0:0:0:
428,108,43802,1,2,0:0:0:0:
332,32,44054,1,0,0:0:0:0:
316,152,44306,1,2,0:0:0:0:
416,220,44558,1,8,0:0:0:0:
364,112,44810,1,2,0:0:0:0:
292,208,45062,6,0,B|276:248|296:280,1,75,4|8,0:0|0:0,0:0:0:0:
324,308,45440,1,0,0:0:0:0:
356,332,45566,2,0,B|388:356|428:344,1,75,8|0,0:0|0:0,0:0:0:0:
412,240,46071,6,0,B|372:244|348:276,1,75
324,308,46449,1,0,0:0:0:0:
296,336,46575,2,0,B|272:368|232:372,1,75,8|0,0:0|0:0,0:0:0:0:
132,308,47079,6,0,B|104:276|72:264|72:264|88:228|72:192,1,150,4|8,0:0|0:0,0:0:0:0:
12,88,47835,1,2,0:0:0:0:
132,88,48087,1,0,0:0:0:0:
72,192,48340,1,2,0:0:0:0:
72,72,48592,1,8,0:0:0:0:
184,120,48844,1,2,0:0:0:0:
284,184,49096,6,0,B|324:176|340:140,1,75,4|8,0:0|0:0,0:0:0:0:
376,120,49474,1,0,0:0:0:0:
408,144,49600,2,0,B|424:180|464:188,1,75,8|0,0:0|0:0,0:0:0:0:
372,268,50104,2,0,B|332:276|316:312,1,75
280,332,50482,1,0,0:0:0:0:
248,308,50608,2,0,B|231:271|191:263,1,75,8|0,0:0|0:0,0:0:0:0:
72,244,51113,5,4,0:0:0:0:
24,352,51365,1,8,0:0:0:0:
56,376,51491,1,0,0:0:0:0:
96,376,51617,1,8,0:0:0:0:
152,296,51869,1,2,0:0:0:0:
144,184,52121,1,0,0:0:0:0:
80,64,52373,1,2,0:0:0:0:
16,184,52625,1,8,0:0:0:0:
128,260,52877,1,2,0:0:0:0:
216,176,53129,6,0,B|244:152|252:112,1,75,4|8,0:0|0:0,0:0:0:0:
248,72,53508,1,0,0:0:0:0:
216,48,53634,1,8,0:0:0:0:
120,120,53886,1,2,0:0:0:0:
180,224,54138,1,0,0:0:0:0:
300,244,54390,1,2,0:0:0:0:
332,220,54516,1,0,0:0:0:0:
348,184,54642,1,8,0:0:0:0:
292,76,54894,1,2,0:0:0:0:
172,88,55146,5,4,0:0:0:0:
140,204,55398,1,2,0:0:0:0:
256,172,55650,1,12,0:0:0:0:
140,204,55903,5,0,0:0:0:0:
232,284,56155,1,4,0:0:0:0:
116,320,56407,1,2,0:0:0:0:
232,284,56659,1,12,0:0:0:0:
140,204,56911,1,2,0:0:0:0:
256,108,57163,5,4,0:0:0:0:
320,60,57415,1,8,0:0:0:0:
400,36,57667,2,0,B|480:48|512:132,1,150,8|0,0:0|0:0,0:0:0:0:
360,196,58676,1,8,0:0:0:0:
202,265,59180,2,0,B|232:344|312:356,1,150,4|8,0:0|0:0,0:0:0:0:
392,344,59936,5,2,0:0:0:0:
464,304,60188,1,0,0:0:0:0:
504,232,60440,1,2,0:0:0:0:
420,232,60693,2,0,B|364:208|301:232,1,112.5,8|0,0:0|0:0,0:0:0:0:
276,252,61197,2,0,B|236:276|171:252,2,75,4|8|8,0:0|0:0|0:0,0:0:0:0:
232,184,61953,1,0,0:0:0:0:
312,164,62205,6,0,B|304:104|216:72|165:131|165:131|112:104,1,225,2|0,0:0|0:0,0:0:0:0:
84,100,63087,1,0,0:0:0:0:
44,88,63214,1,6,0:0:0:0:
44,88,63718,5,8,0:0:0:0:
44,172,63970,1,2,0:0:0:0:
44,256,64222,2,0,B|46:312|93:350|146:342,1,150,0|8,0:0|0:0,0:0:0:0:
132,256,64978,1,2,0:0:0:0:
205,296,65230,2,0,B|224:252|202:212,1,75,4|8,0:0|0:0,0:0:0:0:
188,180,65608,1,0,0:0:0:0:
148,168,65735,1,8,0:0:0:0:
232,164,65987,6,0,B|230:119|276:88,1,75,0|2,0:0|0:0,0:0:0:0:
396,164,66491,2,0,B|397:119|352:88,1,75,0|10,0:0|0:0,0:0:0:0:
316,164,66995,1,2,0:0:0:0:
360,236,67247,5,4,0:0:0:0:
380,272,67373,1,0,0:0:0:0:
400,308,67499,1,2,0:0:0:0:
268,236,67751,5,8,0:0:0:0:
248,272,67877,1,0,0:0:0:0:
232,312,68003,2,0,B|268:348|252:400,2,75,2|2|2,0:0|0:0|0:0,0:0:0:0:
148,344,68760,2,0,B|123:317|131:273,1,75,8|2,0:0|0:0,0:0:0:0:
48,244,69264,6,0,B|60:192|128:164|180:200,2,150,4|8|4,0:0|0:0|0:0,0:0:0:0:
132,280,70524,1,0,0:0:0:0:
220,264,70777,2,0,B|280:196|224:124,1,150,4|6,0:0|0:0,0:0:0:0:
140,108,71533,5,2,0:0:0:0:
168,192,71785,2,0,B|236:252|308:196,1,150,8|2,0:0|0:0,0:0:0:0:
240,136,72541,1,0,0:0:0:0:
240,48,72793,1,10,0:0:0:0:
240,136,73045,1,0,0:0:0:0:
196,216,73298,6,0,B|136:252,2,37.5,4|2|0,0:0|0:0|0:0,0:0:0:0:
284,216,73802,2,0,B|344:252,2,37.5,4|2|0,0:0|0:0|0:0,0:0:0:0:
240,136,74306,2,0,B|240:32,2,75,4|2|4,0:0|0:0|0:0,0:0:0:0:
328,136,75062,1,0,0:0:0:0:
372,216,75314,1,4,0:0:0:0:
256,348,75819,6,0,B|216:352|192:316,1,75,8|0,0:0|0:0,0:0:0:0:
44,188,76323,2,0,B|84:184|108:220,1,75
72,336,76827,2,0,B|36:312|40:272,1,75,8|0,0:0|0:0,0:0:0:0:
144,152,77331,2,0,B|180:168|183:211,1,75,0|0,0:0|0:0,0:0:0:0:
160,300,77835,5,8,0:0:0:0:
92,240,78087,1,2,0:0:0:0:
48,160,78340,2,0,B|12:92,1,75,0|2,0:0|0:0,0:0:0:0:
100,80,78844,2,0,B|156:32,1,75,8|2,0:0|0:0,0:0:0:0:
216,100,79348,6,0,B|288:124,1,75,4|2,0:0|0:0,0:0:0:0:
348,188,79852,1,8,0:0:0:0:
280,248,80104,1,2,0:0:0:0:
192,236,80356,1,0,0:0:0:0:
256,172,80608,1,2,0:0:0:0:
348,188,80861,1,8,0:0:0:0:
360,276,81113,6,0,B|368:352,2,75,2|2|2,0:0|0:0|0:0,0:0:0:0:
348,188,81869,1,8,0:0:0:0:
140,68,82373,1,0,0:0:0:0:
92,148,82625,2,0,B|52:212,2,75,2|8|2,0:0|0:0|0:0,0:0:0:0:
188,224,83382,5,4,0:0:0:0:
468,112,83886,1,8,0:0:0:0:
376,336,84390,1,0,0:0:0:0:
324,260,84642,2,0,B|284:196,2,75,2|8|0,0:0|0:0|0:0,0:0:0:0:
256,344,85398,5,4,0:0:0:0:
60,116,85903,1,8,0:0:0:0:
0,292,86407,2,0,B|36:312|72:300,1,75,2|0,0:0|0:0,0:0:0:0:
212,244,86911,2,0,B|176:224|140:236,1,75,10|0,0:0|0:0,0:0:0:0:
236,352,87415,6,0,B|272:376|356:340|360:300,1,150,4|8,0:0|0:0,0:0:0:0:
336,184,88171,1,0,0:0:0:0:
128,64,88676,1,0,0:0:0:0:
256,268,89180,1,0,0:0:0:0:
256,148,89432,6,0,B|256:72,1,75,4|0,0:0|0:0,0:0:0:0:
184,216,89936,2,0,B|120:256,1,75,12|0,0:0|0:0,0:0:0:0:
256,340,90440,2,0,B|320:380,1,75,4|0,0:0|0:0,0:0:0:0:
400,244,90945,2,0,B|399:170,1,75,12|0,0:0|0:0,0:0:0:0:
256,88,91449,1,4,0:0:0:0:
136,108,91701,6,0,B|100:128,1,37.5,8|0,0:0|0:0,0:0:0:0:
88,168,91953,1,8,0:0:0:0:
80,288,92205,1,0,0:0:0:0:
164,200,92457,2,0,B|196:176|236:184,1,75
396,208,92961,2,0,B|364:232|324:224,1,75,8|0,0:0|0:0,0:0:0:0:
256,88,93466,6,0,B|292:103|305:142,1,75,4|0,0:0|0:0,0:0:0:0:
256,288,93970,2,0,B|219:272|206:233,1,75,8|0,0:0|0:0,0:0:0:0:
196,152,94474,1,0,0:0:0:0:
256,88,94726,1,0,0:0:0:0:
340,88,94978,2,0,B|380:96|412:72,1,75,8|0,0:0|0:0,0:0:0:0:
476,20,95482,5,6,0:0:0:0:
504,104,95735,1,8,0:0:0:0:
496,200,95987,1,8,0:0:0:0:
456,296,96239,1,2,0:0:0:0:
348,348,96491,5,0,0:0:0:0:
380,264,96743,1,2,0:0:0:0:
388,164,96995,1,8,0:0:0:0:
348,64,97247,1,2,0:0:0:0:
256,20,97499,6,0,B|240:56|251:93,1,75,4|2,0:0|0:0,0:0:0:0:
320,156,98003,2,0,B|296:180|252:196|204:180|188:152,1,150,8|0,0:0|0:0,0:0:0:0:
156,44,98760,1,2,0:0:0:0:
36,44,99012,1,8,0:0:0:0:
100,144,99264,1,2,0:0:0:0:
36,244,99516,6,0,B|28:280|40:320|84:344|120:340,1,150,4|8,0:0|0:0,0:0:0:0:
196,288,100272,1,0,0:0:0:0:
272,340,100524,1,0,0:0:0:0:
348,288,100777,2,0,B|368:252|356:216,1,75,0|8,0:0|0:0,0:0:0:0:
292,152,101281,1,0,0:0:0:0:
372,108,101533,6,0,B|412:96|444:120,1,75,4|0,0:0|0:0,0:0:0:0:
492,260,102037,2,0,B|468:228|476:188,1,75,8|0,0:0|0:0,0:0:0:0:
512,108,102541,1,0,0:0:0:0:
456,40,102793,1,0,0:0:0:0:
368,44,103045,2,0,B|332:64|324:104,1,75,8|0,0:0|0:0,0:0:0:0:
304,204,103550,6,0,B|296:240|308:284|340:308|384:308,1,150,4|8,0:0|0:0,0:0:0:0:
376,232,104306,2,0,B|356:267|321:290|281:288|248:272,1,150
228,200,105062,1,8,0:0:0:0:
268,136,105314,1,0,0:0:0:0:
256,192,105566,12,2,107583,0:0:0:0:
109,276,124474,5,2,0:0:0:0:
277,296,124726,1,2,0:0:0:0:
151,180,124978,1,2,0:0:0:0:
188,347,125230,1,2,0:0:0:0:
256,192,125483,1,2,0:0:0:0:
256,192,125735,5,4,0:0:0:0:
220,100,125987,1,8,0:0:0:0:
148,32,126239,2,0,B|68:44|20:112,1,150,8|2,0:0|0:0,0:0:0:0:
56,200,126995,1,2,0:0:0:0:
144,160,127247,2,0,B|216:164|232:240,1,112.5,8|0,0:0|0:0,0:0:0:0:
227,223,127751,2,0,B|288:236|232:288|288:312,1,112.5,4|0,0:0|0:0,0:0:0:0:
282,309,128256,1,8,0:0:0:0:
372,348,128508,5,2,0:0:0:0:
464,380,128760,2,0,B|484:324|452:260|382:250,1,150,0|8,0:0|0:0,0:0:0:0:
372,348,129516,1,2,0:0:0:0:
320,257,129768,2,0,B|321:216|352:190,1,75,4|8,0:0|0:0,0:0:0:0:
424,256,130272,2,0,B|464:208|448:152,1,112.5,8|0,0:0|0:0,0:0:0:0:
447,151,130777,1,2,0:0:0:0:
292,36,131281,5,8,0:0:0:0:
252,40,131407,1,0,0:0:0:0:
228,72,131533,1,2,0:0:0:0:
304,136,131785,2,0,B|344:164|336:212,2,75,4|2|8,0:0|0:0|0:0,0:0:0:0:
248,204,132541,6,0,B|200:216|192:276,1,75,2|0,0:0|0:0,0:0:0:0:
168,340,133045,2,0,B|122:336|91:275|112:220,1,150,2|2,0:0|0:0,0:0:0:0:
197,253,133802,2,0,B|245:245|277:281,1,75,4|8,0:0|0:0,0:0:0:0:
288,316,134180,1,0,0:0:0:0:
276,364,134306,1,8,0:0:0:0:
324,280,134558,5,2,0:0:0:0:
396,216,134810,2,0,B|436:198|492:222,2,75,0|2|8,0:0|0:0|0:0,0:0:0:0:
324,280,135566,1,2,0:0:0:0:
276,364,135819,2,0,B|222:345|200:267|248:220,1,150,4|8,0:0|0:0,0:0:0:0:
316,184,136575,1,2,0:0:0:0:
324,280,136827,2,0,B|316:336|244:372|192:332,1,150,0|8,0:0|0:0,0:0:0:0:
232,248,137583,1,2,0:0:0:0:
232,100,137835,5,4,0:0:0:0:
108,32,138087,1,8,0:0:0:0:
108,32,138592,5,2,0:0:0:0:
156,172,138844,1,4,0:0:0:0:
156,172,139348,5,4,0:0:0:0:
28,96,139600,1,2,0:0:0:0:
232,100,140104,6,0,B|204:56|140:68,1,75,2|8,0:0|0:0,0:0:0:0:
124,64,140482,1,0,0:0:0:0:
80,76,140608,1,2,0:0:0:0:
120,156,140861,2,0,B|36:208,1,75,2|2,0:0|0:0,0:0:0:0:
124,252,141365,2,0,B|24:316,1,112.5,2|0,0:0|0:0,0:0:0:0:
8,328,141869,1,4,0:0:0:0:
256,192,141995,12,6,145903,0:0:0:0:
256,192,155987,5,4,0:0:0:0:
256,192,156491,1,4,0:0:0:0:
116,236,156995,5,4,0:0:0:0:
108,192,157121,1,0,0:0:0:0:
116,148,157247,1,2,0:0:0:0:
192,92,157499,2,0,P|160:64|120:52,1,75,8|2,0:0|0:0,0:0:0:0:
32,32,158003,6,0,B|24:112,1,75,4|8,0:0|0:0,0:0:0:0:
20,156,158382,1,0,0:0:0:0:
15,204,158508,1,8,0:0:0:0:
116,236,158760,1,2,0:0:0:0:
175,316,159012,2,0,B|121:384|41:356,1,150,2|8,0:0|0:0,0:0:0:0:
88,268,159768,1,2,0:0:0:0:
100,172,160020,2,0,B|180:188|184:280,1,150,4|8,0:0|0:0,0:0:0:0:
88,268,160777,5,2,0:0:0:0:
100,172,161029,1,0,0:0:0:0:
164,100,161281,1,2,0:0:0:0:
256,72,161533,1,8,0:0:0:0:
244,168,161785,1,2,0:0:0:0:
173,232,162037,6,0,B|125:247|56:201|69:144,1,150,4|8,0:0|0:0,0:0:0:0:
160,136,162793,1,0,0:0:0:0:
150,40,163045,2,0,B|192:23|266:68|254:128,1,150,0|8,0:0|0:0,0:0:0:0:
160,136,163802,1,2,0:0:0:0:
216,64,164054,2,0,B|272:40|344:56,1,112.5,4|0,0:0|0:0,0:0:0:0:
326,52,164558,1,8,0:0:0:0:
372,144,164810,6,0,B|408:168|464:136,1,75,2|2,0:0|0:0,0:0:0:0:
472,108,165188,1,0,0:0:0:0:
460,60,165314,1,2,0:0:0:0:
420,32,165440,1,0,0:0:0:0:
372,20,165566,1,10,0:0:0:0:
368,124,165819,5,2,0:0:0:0:
308,212,166071,2,8,B|352:304,1,75,4|0,0:0|0:0,0:0:0:0:
364,328,166449,1,0,0:0:0:0:
392,372,166575,1,8,0:0:0:0:
248,124,166827,5,2,0:0:0:0:
308,212,167079,2,0,B|264:304,1,75,2|2,0:0|0:0,0:0:0:0:
252,328,167457,1,0,0:0:0:0:
224,372,167583,1,8,0:0:0:0:
136,300,167835,5,2,0:0:0:0:
32,316,168087,2,0,B|28:364|88:400,1,75,4|2,0:0|0:0,0:0:0:0:
136,300,168592,2,0,B|140:252|80:216,1,75,8|2,0:0|0:0,0:0:0:0:
16,176,169096,2,0,B|40:128|120:104|168:152,1,150,0|8,0:0|0:0,0:0:0:0:
106,235,169852,1,2,0:0:0:0:
212,240,170104,5,4,0:0:0:0:
212,188,170230,1,0,0:0:0:0:
176,152,170356,1,2,0:0:0:0:
106,236,170608,6,0,B|96:280|136:308,1,75,0|4,0:0|0:0,0:0:0:0:
212,240,171113,2,0,B|256:250|284:210,1,75,0|2,0:0|0:0,0:0:0:0:
212,136,171617,2,0,B|222:92|182:64,1,75,4|0,0:0|0:0,0:0:0:0:
144,44,171995,1,0,0:0:0:0:
92,48,172121,1,6,0:0:0:0:
124,128,172373,6,0,B|144:181|144:181|201:180|241:234,1,168.750006437302,2|0,0:0|0:0,0:0:0:0:
224,316,173382,1,2,0:0:0:0:
303,287,173634,1,0,0:0:0:0:
239,231,173886,1,2,0:0:0:0:
159,260,174138,1,4,0:0:0:0:
102,284,175524,5,2,0:0:0:0:
45,309,176911,5,2,0:0:0:0:
256,192,177037,12,0,180188,0:0:0:0:
