osu file format v12

[General]
AudioFilename: www.mp3
AudioLeadIn: 0
PreviewTime: 39768
Countdown: 0
SampleSet: Soft
StackLeniency: 0.4
Mode: 0
LetterboxInBreaks: 0

[Editor]
Bookmarks: 6743,43045,47079,51239,59180,63214,127751,131785
DistanceSpacing: 0.8
BeatDivisor: 4
GridSize: 4

[Metadata]
Title:1 year 2 months 20 days
TitleUnicode:1 year 2 months 20 days
Artist:BRIGHT
ArtistUnicode:BRIGHT
Creator:Athena Tennos
Version:Athena
Source:
Tags:SAO Sword Art Online Yuuki Odagiri Ichinen Nikagetsu Hatsuka lucyfly xXCrystalMoonAnimeXx OrangeNeKo
BeatmapID:204428
BeatmapSetID:57546

[Difficulty]
HPDrainRate:7
CircleSize:4
OverallDifficulty:7
ApproachRate:8
SliderMultiplier:2.1
SliderTickRate:2

[Events]
//Background and Video events
0,0,"www.jpg",0,0
Video,-20,"www.flv"
//Break Periods
2,109800,123724
//Storyboard Layer 0 (Background)
//Storyboard Layer 1 (Fail)
//Storyboard Layer 2 (Pass)
//Storyboard Layer 3 (Foreground)
//Storyboard Sound Samples
//Background Colour Transformations
3,100,255,170,213

[TimingPoints]
693,504.201680672269,4,2,1,60,1,0
6743,-100,4,2,1,70,0,0
6995,-100,4,2,2,55,0,0
7247,-100,4,2,3,60,0,0
10272,-100,4,2,2,60,0,0
10777,-100,4,2,2,45,0,0
11029,-100,4,2,2,60,0,0
11785,-100,4,2,2,50,0,0
12793,-100,4,2,2,45,0,0
14810,-100,4,2,2,55,0,0
15062,-100,4,2,2,50,0,0
20861,-100,4,2,1,50,0,0
21617,-100,4,2,3,50,0,0
22877,-100,4,2,3,60,0,0
23129,-100,4,2,2,55,0,0
23382,-100,4,2,3,55,0,0
26911,-100,4,2,3,60,0,0
27163,-100,4,2,3,55,0,0
30945,-100,4,2,3,60,0,0
31197,-100,4,2,3,55,0,0
34978,-100,4,2,3,60,0,0
36995,-100,4,2,3,65,0,0
41029,-100,4,2,1,70,0,1
41281,-100,4,2,3,70,0,1
43045,-100,4,2,3,75,0,1
43550,-100,4,2,3,70,0,1
49096,-100,4,2,3,75,0,1
49348,-100,4,2,3,70,0,1
53129,-100,4,2,3,75,0,1
53382,-100,4,2,3,70,0,1
57037,-100,4,2,1,70,0,0
57163,-100,4,2,1,80,0,1
57415,-100,4,2,3,70,0,1
61197,-100,4,2,3,75,0,1
61449,-100,4,2,3,70,0,1
65230,-100,4,2,3,75,0,1
65987,-100,4,2,3,70,0,1
67247,-100,4,2,3,75,0,1
68003,-100,4,2,3,70,0,1
69264,-100,4,2,3,75,0,1
72037,-100,4,2,3,70,0,1
73298,-100,4,2,1,60,0,0
75314,-100,4,2,1,75,0,1
75440,-100,4,2,1,60,0,0
75566,-100,4,2,3,60,0,0
75819,-133.333333333333,4,2,1,60,0,0
76071,-133.333333333333,4,2,3,60,0,0
83382,-133.333333333333,4,2,3,70,0,0
83886,-133.333333333333,4,2,3,60,0,0
85398,-133.333333333333,4,2,3,65,0,0
85903,-133.333333333333,4,2,3,60,0,0
89432,-133.333333333333,4,2,3,70,0,0
91701,-100,4,2,2,60,0,0
91953,-100,4,2,3,60,0,0
99516,-100,4,2,3,65,0,0
99768,-100,4,2,3,60,0,0
101533,-100,4,2,3,65,0,0
101785,-100,4,2,3,60,0,0
103550,-100,4,2,3,65,0,0
104054,-100,4,2,3,60,0,0
105566,-100,4,2,3,65,0,0
107079,-100,4,2,3,60,0,0
107331,-100,4,2,3,55,0,0
107457,-100,4,2,3,35,0,0
109600,-100,4,2,3,70,0,0
124474,-100,4,2,2,75,0,0
125735,-83.3333333333333,4,2,1,80,0,1
125987,-83.3333333333333,4,2,3,80,0,1
127751,-83.3333333333333,4,2,3,85,0,1
128256,-83.3333333333333,4,2,3,80,0,1
129768,-83.3333333333333,4,2,3,85,0,1
130020,-83.3333333333333,4,2,3,80,0,1
133802,-83.3333333333333,4,2,3,85,0,1
134054,-83.3333333333333,4,2,3,80,0,1
137835,-83.3333333333333,4,2,3,85,0,1
140104,-83.3333333333333,4,2,3,80,0,1
141869,-100,4,2,1,80,0,0
142373,-100,4,2,1,75,0,0
143129,-100,4,2,3,75,0,0
145903,-100,4,2,3,80,0,0
146155,-100,4,2,3,75,0,0
147919,-100,4,2,3,80,0,0
155987,-100,4,2,3,85,0,0
158003,-100,4,2,1,80,0,1
158256,-100,4,2,3,80,0,1
162037,-100,4,2,3,85,0,1
162289,-100,4,2,3,80,0,1
166071,-100,4,2,3,85,0,1
166323,-100,4,2,3,80,0,1
170104,-100,4,2,3,75,0,1
170861,-100,4,2,3,60,0,1
171617,-100,4,2,3,55,0,1
172121,-100,4,2,1,50,0,0
172877,-100,4,2,3,45,0,0
174138,-100,4,2,3,40,0,0
174390,-100,4,2,3,25,0,0
177037,-100,4,2,3,15,0,0
178171,-100,4,2,3,13,0,0
179180,-100,4,2,3,10,0,0
179936,-100,4,2,3,5,0,0

[Colours]
Combo1 : 244,158,254
Combo2 : 141,254,251
Combo3 : 255,170,172
Combo4 : 149,255,154
SliderBorder : 255,255,255

[HitObjects]
58,152,6743,5,0,0:0:0:0:
104,268,6995,1,8,0:0:0:0:
131,308,7121,1,0,0:0:0:0:
173,332,7247,1,0,0:0:0:0:
298,353,7499,1,0,0:0:0:0:
260,232,7751,2,0,L|288:188,1,52.5
316,148,8003,2,0,P|364:128|416:128,1,105
512,256,8508,1,2,0:0:0:0:
416,312,8760,6,0,B|391:260|410:204,1,105,2|0,0:0|0:0,0:0:0:0:
424,164,9138,1,0,0:0:0:0:
460,132,9264,1,2,0:0:0:0:
400,20,9516,2,0,B|440:56,1,52.5,2|0,0:0|0:0,0:0:0:0:
328,104,9768,2,0,B|381:101,1,52.5
332,212,10020,2,0,B|368:172,2,52.5,2|0|8,0:0|0:0|0:0,0:0:0:0:
292,312,10524,1,2,0:0:0:0:
224,232,10777,5,4,0:0:0:0:
180,328,11029,1,0,0:0:0:0:
132,340,11155,1,0,0:0:0:0:
84,336,11281,2,0,P|36:312|8:268,1,105
120,144,11785,2,0,P|124:196|99:243,1,105
44,84,12289,2,0,P|88:56|140:52,1,105
196,212,12793,5,4,0:0:0:0:
340,300,13045,1,2,2:0:0:0:
292,308,13171,1,0,2:0:0:0:
244,300,13298,1,0,2:0:0:0:
384,212,13550,1,2,0:0:0:0:
460,60,13802,5,0,0:0:0:0:
416,44,13928,1,0,0:0:0:0:
368,40,14054,1,2,0:0:0:0:
320,52,14180,1,0,0:0:0:0:
284,80,14306,1,8,0:0:0:0:
256,204,14558,1,0,0:0:0:0:
384,212,14810,1,4,0:0:0:0:
504,164,15062,5,2,0:0:0:0:
512,212,15188,1,0,0:0:0:0:
504,260,15314,1,0,0:0:0:0:
428,360,15566,1,2,0:0:0:0:
312,308,15819,2,0,B|280:264,1,52.5
252,228,16071,2,0,B|216:272|164:280,1,105,2|0,0:0|0:0,0:0:0:0:
40,252,16575,1,2,0:0:0:0:
0,132,16827,6,0,B|0:76|48:44,1,105,4|2,0:0|0:0,0:0:0:0:
92,28,17205,1,0,0:0:0:0:
140,36,17331,1,0,0:0:0:0:
236,112,17583,2,0,B|256:160,1,52.5,2|0,0:0|0:0,0:0:0:0:
336,60,17835,2,0,B|316:108,1,52.5
444,96,18087,2,0,B|396:116,1,52.5,2|0,0:0|0:0,0:0:0:0:
408,272,18340,2,0,B|448:176,1,105,8|2,0:0|0:0,0:0:0:0:
320,156,18844,5,4,0:0:0:0:
320,156,19096,1,2,0:0:0:0:
300,200,19222,1,0,0:0:0:0:
260,228,19348,2,0,P|212:248|160:240,1,105
140,72,19852,2,0,P|181:103|200:152,1,105
60,252,20356,2,0,P|66:200|99:159,1,105
260,228,20861,5,2,0:0:0:0:
212,236,20987,1,2,0:0:0:0:
140,72,21239,5,2,0:0:0:0:
172,108,21365,1,2,0:0:0:0:
60,252,21617,5,2,0:0:0:0:
100,160,21869,1,8,0:0:0:0:
60,252,22121,5,2,2:0:0:0:
79,205,22247,1,0,2:0:0:0:
99,159,22373,1,8,2:0:0:0:
40,300,22625,1,2,0:0:0:0:
200,152,22877,5,4,0:0:0:0:
328,52,23129,2,0,B|380:60,1,52.5,8|0,0:0|0:0,0:0:0:0:
428,48,23382,2,0,B|468:88|456:144,1,105,8|2,0:0|0:0,0:0:0:0:
424,216,23886,1,2,0:0:0:0:
356,340,24138,5,2,0:0:0:0:
348,292,24264,1,0,0:0:0:0:
340,244,24390,1,8,0:0:0:0:
308,84,24642,1,2,0:0:0:0:
256,172,24894,5,4,0:0:0:0:
124,212,25146,2,0,P|137:237|156:257,1,52.5,2|0,0:0|0:0,0:0:0:0:
188,352,25398,2,0,P|230:322|256:274,1,105,8|2,0:0|0:0,0:0:0:0:
256,172,25903,5,0,0:0:0:0:
140,40,26155,1,2,0:0:0:0:
140,88,26281,1,0,0:0:0:0:
168,124,26407,1,8,0:0:0:0:
256,172,26659,1,2,0:0:0:0:
340,84,26911,6,0,L|288:104,1,52.5,4|0,0:0|0:0,0:0:0:0:
384,184,27163,2,0,L|333:161,1,52.5,2|0,0:0|0:0,0:0:0:0:
332,280,27415,2,0,L|312:228,1,52.5,8|0,0:0|0:0,0:0:0:0:
224,300,27667,2,0,L|246:249,1,52.5,2|0,0:0|0:0,0:0:0:0:
256,172,27919,5,0,0:0:0:0:
72,288,28171,1,2,0:0:0:0:
152,92,28424,1,8,0:0:0:0:
224,300,28676,2,0,P|192:336|128:340,1,105,2|4,0:0|0:0,0:0:0:0:
220,224,29180,2,0,P|267:233|302:287,1,105,2|8,0:0|0:0,0:0:0:0:
152,268,29684,2,0,P|136:222|165:164,1,105,2|0,0:0|0:0,0:0:0:0:
172,160,30062,1,0,2:0:0:0:
192,152,30188,1,2,2:0:0:0:
212,152,30314,1,0,2:0:0:0:
232,160,30440,1,8,2:0:0:0:
320,252,30692,1,2,2:0:0:0:
400,348,30945,6,0,P|452:344|492:312,2,105,4|0|2,0:0|0:0|0:0,0:0:0:0:
236,260,31701,1,2,0:0:0:0:
400,224,31953,2,0,B|436:184|432:128,1,105,0|2,0:0|0:0,0:0:0:0:
312,44,32457,1,8,0:0:0:0:
168,80,32709,6,0,B|108:76|76:32,1,105,2|4,0:0|0:0,0:0:0:0:
236,48,33214,1,2,0:0:0:0:
244,96,33340,1,0,0:0:0:0:
216,136,33466,1,8,0:0:0:0:
216,288,33718,2,0,L|242:333,1,52.5,2|0,0:0|0:0,0:0:0:0:
140,272,33970,2,0,L|166:226,1,52.5
164,344,34222,2,0,L|112:344,1,52.5,2|0,0:0|0:0,0:0:0:0:
36,320,34474,2,0,B|16:268|32:216,1,105,8|2,0:0|0:0,0:0:0:0:
72,112,34978,5,4,0:0:0:0:
140,272,35230,1,0,0:0:0:0:
140,272,35356,1,0,0:0:0:0:
141,270,35482,1,8,0:0:0:0:
228,140,35735,1,2,0:0:0:0:
140,176,35987,1,4,0:0:0:0:
400,108,36239,1,0,0:0:0:0:
400,108,36365,1,0,0:0:0:0:
399,109,36491,1,8,0:0:0:0:
348,268,36743,1,2,0:0:0:0:
400,108,36995,6,0,B|432:152|412:208,1,105,4|0,0:0|0:0,0:0:0:0:
360,368,37499,2,0,B|328:324|348:268,1,105,8|2,0:0|0:0,0:0:0:0:
400,108,38003,2,0,B|361:153|307:147,1,105,0|2,0:0|0:0,0:0:0:0:
108,140,38508,2,0,B|146:94|200:100,1,105,8|2,0:0|0:0,0:0:0:0:
196,208,39012,5,4,0:0:0:0:
196,208,39138,1,0,0:0:0:0:
328,312,39390,1,0,0:0:0:0:
328,312,39516,1,8,0:0:0:0:
476,228,39768,1,2,0:0:0:0:
308,208,40020,5,0,0:0:0:0:
432,324,40272,1,2,0:0:0:0:
400,156,40524,1,0,0:0:0:0:
328,312,40777,1,2,0:0:0:0:
476,228,41029,6,0,B|496:176|472:124,1,105,4|2,0:0|0:0,0:0:0:0:
452,88,41407,1,0,0:0:0:0:
416,64,41533,1,8,0:0:0:0:
256,116,41785,1,2,0:0:0:0:
256,216,42037,1,0,0:0:0:0:
256,116,42289,5,2,0:0:0:0:
256,168,42415,1,0,0:0:0:0:
256,216,42541,1,8,0:0:0:0:
256,64,42793,1,2,0:0:0:0:
256,264,43045,5,4,0:0:0:0:
256,264,43171,1,0,0:0:0:0:
108,344,43424,1,0,0:0:0:0:
108,344,43550,2,0,B|48:336|24:288,1,105,8|2,0:0|0:0,0:0:0:0:
32,172,44054,1,0,0:0:0:0:
128,64,44306,2,0,L|172:32,1,52.5,0|2,0:0|0:0,0:0:0:0:
272,64,44558,2,0,L|228:96,1,52.5,8|0,0:0|0:0,0:0:0:0:
192,122,44810,1,2,0:0:0:0:
160,156,44936,1,0,0:0:0:0:
148,204,45062,6,0,B|135:257|170:309,1,105,4|2,0:0|0:0,2:0:0:0:
208,328,45440,1,0,0:0:0:0:
252,340,45566,2,0,B|284:340|284:340|320:312|320:276,1,105,8|2,0:0|0:0,0:0:0:0:
272,136,46071,5,0,0:0:0:0:
304,232,46323,1,2,0:0:0:0:
288,184,46449,1,0,0:0:0:0:
272,136,46575,1,8,0:0:0:0:
320,280,46827,1,2,0:0:0:0:
188,104,47079,5,4,0:0:0:0:
188,104,47205,1,0,0:0:0:0:
404,68,47457,1,0,0:0:0:0:
404,68,47583,1,8,0:0:0:0:
360,192,47835,1,2,0:0:0:0:
404,68,48087,5,0,0:0:0:0:
360,192,48340,1,2,0:0:0:0:
360,192,48466,1,0,0:0:0:0:
360,192,48592,1,8,0:0:0:0:
428,304,48844,1,2,0:0:0:0:
304,328,49096,6,0,B|256:300|256:240,1,105,4|2,0:0|0:0,0:0:0:0:
256,196,49474,1,0,0:0:0:0:
256,152,49600,2,0,B|256:92|208:64,1,105,8|2,0:0|0:0,0:0:0:0:
128,168,50104,5,0,0:0:0:0:
88,252,50356,1,2,0:0:0:0:
107,209,50482,1,0,0:0:0:0:
128,168,50608,1,8,0:0:0:0:
67,294,50861,1,2,0:0:0:0:
124,76,51113,6,0,B|177:78|212:127,1,105,4|2,0:0|0:0,0:0:0:0:
228,168,51491,1,0,0:0:0:0:
248,208,51617,2,0,B|276:250|336:260,1,105,8|2,0:0|0:0,0:0:0:0:
404,200,52121,5,0,0:0:0:0:
336,261,52373,1,2,0:0:0:0:
370,230,52499,1,0,0:0:0:0:
404,200,52625,1,8,0:0:0:0:
301,295,52877,1,2,0:0:0:0:
480,156,53129,6,0,B|444:112|383:114,1,105,4|2,0:0|0:0,0:0:0:0:
344,124,53508,1,0,0:0:0:0:
304,136,53634,2,0,B|240:132|216:88,1,105,8|2,0:0|0:0,0:0:0:0:
304,32,54138,5,0,0:0:0:0:
224,216,54390,1,2,0:0:0:0:
224,216,54516,1,0,0:0:0:0:
224,216,54642,1,8,0:0:0:0:
427,236,54894,1,2,0:0:0:0:
224,216,55146,5,4,0:0:0:0:
200,208,55272,1,0,0:0:0:0:
176,200,55398,1,2,0:0:0:0:
156,192,55524,1,0,0:0:0:0:
132,184,55650,1,12,0:0:0:0:
132,184,55903,5,2,0:0:0:0:
355,225,56155,1,4,0:0:0:0:
147,329,56407,1,2,0:0:0:0:
251,105,56659,1,12,0:0:0:0:
282,350,56911,1,2,0:0:0:0:
132,184,57163,6,0,P|112:136|120:84,1,105,4|0,0:0|0:0,0:0:0:0:
148,48,57541,1,0,0:0:0:0:
192,40,57667,1,8,0:0:0:0:
304,168,57919,1,0,0:0:0:0:
384,20,58171,5,0,0:0:0:0:
452,128,58424,1,2,0:0:0:0:
452,172,58550,1,0,0:0:0:0:
452,216,58676,1,8,0:0:0:0:
452,128,58928,1,2,0:0:0:0:
452,256,59180,1,4,0:0:0:0:
452,256,59306,1,0,0:0:0:0:
284,316,59558,1,0,0:0:0:0:
284,316,59684,2,0,B|224:308|204:256,1,105,8|2,0:0|0:0,0:0:0:0:
228,72,60188,5,0,0:0:0:0:
452,128,60440,2,0,L|440:74,1,52.5
348,56,60693,2,0,L|359:113,1,52.5,8|0,0:0|0:0,0:0:0:0:
360,152,60945,1,2,0:0:0:0:
356,196,61071,1,0,0:0:0:0:
324,228,61197,6,0,B|276:260|220:244,1,105,4|2,0:0|0:0,0:0:0:0:
188,220,61575,1,0,0:0:0:0:
152,196,61701,2,0,B|112:160|56:160,1,105,8|2,0:0|0:0,0:0:0:0:
52,280,62205,5,0,0:0:0:0:
164,336,62457,1,2,0:0:0:0:
204,316,62583,1,0,0:0:0:0:
244,296,62709,1,8,0:0:0:0:
164,336,62961,1,2,0:0:0:0:
284,272,63214,5,4,0:0:0:0:
284,272,63340,1,0,0:0:0:0:
444,328,63592,1,0,0:0:0:0:
444,328,63718,2,0,B|492:308|516:252,1,105,8|2,0:0|0:0,0:0:0:0:
484,132,64222,5,0,0:0:0:0:
316,148,64474,1,2,0:0:0:0:
316,148,64600,1,0,0:0:0:0:
316,148,64726,1,8,0:0:0:0:
468,220,64978,1,2,0:0:0:0:
392,72,65230,6,0,B|352:36|296:36,1,105,4|2,0:0|0:0,0:0:0:0:
256,56,65608,1,0,0:0:0:0:
216,36,65735,2,0,B|160:36|120:72,1,105,8|2,0:0|0:0,0:0:0:0:
112,240,66239,5,0,0:0:0:0:
56,168,66491,1,2,0:0:0:0:
84,204,66617,1,0,0:0:0:0:
112,240,66743,1,8,0:0:0:0:
32,132,66995,1,2,0:0:0:0:
144,272,67247,6,0,B|188:300|244:300,1,105,4|2,0:0|0:0,0:0:0:0:
288,296,67625,1,0,0:0:0:0:
332,276,67751,1,8,0:0:0:0:
400,112,68003,5,2,0:0:0:0:
256,216,68256,1,0,0:0:0:0:
444,184,68508,1,2,0:0:0:0:
444,184,68634,1,0,0:0:0:0:
444,184,68760,1,8,0:0:0:0:
324,88,69012,1,2,0:0:0:0:
324,88,69138,1,0,0:0:0:0:
324,88,69264,6,0,B|288:48|232:36,1,105,4|2,0:0|0:0,0:0:0:0:
188,28,69642,1,0,0:0:0:0:
144,40,69768,1,8,0:0:0:0:
8,96,70020,6,0,B|60:112|92:160,1,105,6|0,0:0|0:0,0:0:0:0:
104,200,70398,1,0,0:0:0:0:
96,244,70524,1,2,0:0:0:0:
16,300,70777,6,0,B|48:348|108:344,1,105,12|2,0:0|0:0,0:0:0:0:
152,336,71155,1,0,0:0:0:0:
184,300,71281,1,0,0:0:0:0:
320,124,71533,5,2,0:0:0:0:
276,144,71659,1,0,0:0:0:0:
260,188,71785,1,8,0:0:0:0:
384,228,72037,5,2,0:0:0:0:
256,68,72289,1,0,0:0:0:0:
128,228,72541,1,2,0:0:0:0:
256,284,72793,1,8,0:0:0:0:
184,336,73045,1,2,0:0:0:0:
328,336,73298,5,4,0:0:0:0:
452,224,73550,1,2,0:0:0:0:
472,184,73676,1,0,0:0:0:0:
492,144,73802,1,12,0:0:0:0:
452,224,74054,5,2,0:0:0:0:
432,184,74180,1,0,0:0:0:0:
412,144,74306,1,4,0:0:0:0:
452,224,74558,5,2,0:0:0:0:
408,216,74684,1,0,0:0:0:0:
364,208,74810,1,8,0:0:0:0:
320,200,74936,1,0,0:0:0:0:
276,192,75062,1,2,0:0:0:0:
232,184,75188,1,0,0:0:0:0:
188,176,75314,6,0,B|152:136|152:80,1,105,4|2,0:0|0:0,0:0:0:0:
296,92,75819,2,0,B|336:80|376:96,1,78.7500030040742,8|2,0:0|0:0,0:0:0:0:
328,220,76323,2,0,B|318:260|288:288,1,78.7500030040742,0|2,0:0|0:0,0:0:0:0:
136,204,76827,2,0,B|176:192|220:208,1,78.7500030040742,8|2,0:0|0:0,0:0:0:0:
172,300,77331,6,0,B|146:332|104:340,1,78.7500030040742,0|2,0:0|0:0,0:0:0:0:
28,256,77835,1,8,0:0:0:0:
28,140,78087,1,2,0:0:0:0:
96,44,78340,2,0,B|140:44|176:64,1,78.7500030040742,0|2,0:0|0:0,0:0:0:0:
288,192,78844,2,0,B|244:192|212:172,1,78.7500030040742,8|2,0:0|0:0,0:0:0:0:
276,96,79348,1,4,0:0:0:0:
368,56,79600,6,0,B|412:56|444:88,1,78.7500030040742,2|10,0:0|0:0,0:0:0:0:
464,192,80104,1,0,0:0:0:0:
368,248,80356,2,0,B|332:264,1,39.3750015020371
292,276,80608,1,2,0:0:0:0:
212,192,80861,1,8,0:0:0:0:
112,140,81113,6,0,B|128:100|172:88,1,78.7500030040742,2|0,0:0|0:0,0:0:0:0:
212,192,81617,2,0,B|220:232|196:288,1,78.7500030040742,2|10,0:0|0:0,0:0:0:0:
136,360,82121,1,0,0:0:0:0:
36,312,82373,1,0,0:0:0:0:
32,204,82625,2,0,B|40:164,1,39.3750015020371,2|0,0:0|0:0,0:0:0:0:
64,128,82877,1,8,0:0:0:0:
164,92,83129,1,2,0:0:0:0:
260,120,83382,6,0,B|352:120|404:56,1,157.500006008148,4|8,0:0|0:0,0:0:0:0:
468,152,84138,1,2,0:0:0:0:
436,264,84390,1,0,0:0:0:0:
368,360,84642,2,0,B|328:372,1,39.3750015020371,2|0,0:0|0:0,0:0:0:0:
284,368,84894,2,0,B|276:324|296:292,1,78.7500030040742,8|2,0:0|0:0,0:0:0:0:
336,184,85398,6,0,B|244:184|192:248,1,157.500006008148,4|8,0:0|0:0,0:0:0:0:
156,376,86155,2,0,B|112:368|88:336,1,78.7500030040742,2|0,0:0|0:0,0:0:0:0:
12,232,86659,2,0,B|16:192,1,39.3750015020371,2|0,0:0|0:0,0:0:0:0:
0,152,86911,2,0,B|36:124|76:124,1,78.7500030040742,10|2,0:0|0:0,0:0:0:0:
140,224,87415,6,0,B|216:188|256:112,1,157.500006008148,4|8,0:0|0:0,0:0:0:0:
64,200,88171,2,0,P|64:240|80:276,1,78.7500030040742
228,268,88676,2,0,B|268:280|308:272,1,78.7500030040742,2|8,0:0|0:0,0:0:0:0:
396,192,89180,1,2,0:0:0:0:
384,92,89432,6,0,B|320:36,1,78.7500030040742,4|2,0:0|0:0,0:0:0:0:
396,192,89936,2,0,B|456:248,1,78.7500030040742,12|2,0:0|0:0,0:0:0:0:
256,192,90440,2,0,B|316:136,1,78.7500030040742,4|2,0:0|0:0,0:0:0:0:
256,296,90945,2,0,B|200:352,1,78.7500030040742,12|2,0:0|0:0,0:0:0:0:
256,192,91449,5,4,0:0:0:0:
172,72,91701,2,0,B|120:88,1,52.5,8|0,0:0|0:0,0:0:0:0:
88,60,91953,2,0,B|48:100|52:156,1,105,8|2,0:0|0:0,0:0:0:0:
104,287,92457,2,0,B|56:316|4:292,1,105,0|2,0:0|0:0,0:0:0:0:
184,236,92961,2,0,B|232:207|284:231,1,105,8|2,0:0|0:0,0:0:0:0:
431,239,93466,6,0,B|436:296|392:332,1,105,4|2,0:0|0:0,0:0:0:0:
296,144,93970,2,0,B|291:87|335:51,1,105,8|2,0:0|0:0,0:0:0:0:
368,184,94474,2,0,B|336:232|276:224,2,105,0|2|8,0:0|0:0|0:0,0:0:0:0:
296,144,95230,1,2,0:0:0:0:
252,136,95356,1,0,0:0:0:0:
212,116,95482,1,4,0:0:0:0:
140,40,95735,5,2,0:0:0:0:
80,96,95987,1,8,0:0:0:0:
52,176,96239,1,2,0:0:0:0:
164,168,96491,5,0,0:0:0:0:
168,272,96743,1,2,0:0:0:0:
224,360,96995,1,8,0:0:0:0:
324,252,97247,1,2,0:0:0:0:
468,280,97499,5,4,0:0:0:0:
508,116,97751,1,2,0:0:0:0:
464,104,97877,1,0,0:0:0:0:
416,108,98003,2,0,B|365:130|314:113,1,105,8|2,0:0|0:0,0:0:0:0:
416,108,98508,2,0,B|362:105|325:57,2,105,0|2|8,0:0|0:0|0:0,0:0:0:0:
256,52,99264,1,2,0:0:0:0:
136,108,99516,6,0,B|92:140|92:200,1,105,4|2,0:0|0:0,0:0:0:0:
100,240,99894,1,0,0:0:0:0:
128,272,100020,1,8,0:0:0:0:
296,256,100272,1,2,0:0:0:0:
188,192,100524,1,0,0:0:0:0:
244,320,100777,2,0,B|264:344|320:348|344:324,1,105,2|8,0:0|0:0,0:0:0:0:
436,220,101281,1,2,0:0:0:0:
412,36,101533,6,0,B|360:60|340:108,2,105,4|2|8,0:0|0:0|0:0,0:0:0:0:
364,252,102289,1,2,0:0:0:0:
328,228,102415,1,0,0:0:0:0:
312,188,102541,2,0,B|264:160|208:168,1,105,0|2,0:0|0:0,0:0:0:0:
24,200,103045,2,0,B|72:228|128:220,1,105,8|2,0:0|0:0,0:0:0:0:
184,84,103550,6,0,P|136:44|172:112,1,210,4|8,0:0|0:0,0:0:0:0:
320,64,104306,2,0,B|368:44|424:56,1,105,2|0,0:0|0:0,0:0:0:0:
392,220,104810,2,0,B|392:276|348:312,1,105,2|8,0:0|0:0,0:0:0:0:
228,196,105314,1,2,0:0:0:0:
376,112,105566,5,4,0:0:0:0:
228,196,105819,1,0,0:0:0:0:
176,356,106071,1,12,0:0:0:0:
296,236,106323,1,0,0:0:0:0:
300,68,106575,1,4,0:0:0:0:
344,300,106827,1,0,0:0:0:0:
124,256,107079,1,8,0:0:0:0:
124,256,107331,2,0,L|72:248,1,52.5,2|0,0:0|0:0,0:0:0:0:
256,192,109600,5,4,0:0:0:0:
444,216,124474,5,2,0:0:0:0:
349,357,124726,1,0,0:0:0:0:
341,187,124978,1,2,0:0:0:0:
448,320,125230,1,0,0:0:0:0:
283,276,125482,1,2,0:0:0:0:
444,216,125735,6,0,B|452:144|396:100,1,125.999996154785,4|2,0:0|0:0,0:0:0:0:
356,88,126113,1,0,0:0:0:0:
308,88,126239,2,0,B|264:92|264:92|224:112|212:152,1,125.999996154785,8|2,0:0|0:0,0:0:0:0:
135,303,126743,5,0,0:0:0:0:
104,217,126995,1,2,0:0:0:0:
119,260,127121,1,0,0:0:0:0:
135,303,127247,1,8,0:0:0:0:
88,175,127499,1,2,0:0:0:0:
152,348,127751,5,4,0:0:0:0:
152,348,127877,1,0,0:0:0:0:
328,308,128129,1,0,0:0:0:0:
328,308,128256,1,8,0:0:0:0:
328,124,128508,1,2,0:0:0:0:
164,192,128760,5,0,0:0:0:0:
328,308,129012,1,2,0:0:0:0:
328,308,129138,1,0,0:0:0:0:
328,308,129264,1,8,0:0:0:0:
328,124,129516,1,2,0:0:0:0:
164,192,129768,2,0,P|212:232|276:232,1,125.999996154785,4|2,0:0|0:0,0:0:0:0:
320,220,130146,1,0,0:0:0:0:
360,192,130272,2,0,P|421:192|469:232,1,125.999996154785,8|2,0:0|0:0,0:0:0:0:
326,308,130777,5,0,0:0:0:0:
426,288,131029,1,2,0:0:0:0:
376,300,131155,1,0,0:0:0:0:
326,308,131281,1,8,0:0:0:0:
471,280,131533,1,2,0:0:0:0:
275,315,131785,5,4,0:0:0:0:
275,315,131911,1,0,0:0:0:0:
124,232,132163,1,0,0:0:0:0:
124,232,132289,1,8,0:0:0:0:
204,84,132541,1,2,0:0:0:0:
108,116,132793,5,0,0:0:0:0:
204,84,133045,1,2,0:0:0:0:
156,100,133171,1,0,0:0:0:0:
108,116,133298,1,8,0:0:0:0:
248,68,133550,1,2,0:0:0:0:
60,132,133802,6,0,B|32:192|52:256,1,125.999996154785,4|2,0:0|0:0,0:0:0:0:
72,292,134180,1,0,0:0:0:0:
108,308,134306,1,8,0:0:0:0:
320,284,134558,1,2,0:0:0:0:
152,176,134810,5,0,0:0:0:0:
240,356,135062,1,2,0:0:0:0:
240,356,135188,1,0,0:0:0:0:
240,356,135314,1,8,0:0:0:0:
336,180,135566,1,2,0:0:0:0:
152,176,135819,6,0,B|176:244|240:260,1,125.999996154785,4|2,0:0|0:0,0:0:0:0:
280,272,136197,1,0,0:0:0:0:
324,268,136323,1,8,0:0:0:0:
436,120,136575,1,2,0:0:0:0:
236,112,136827,5,0,0:0:0:0:
408,220,137079,1,2,0:0:0:0:
412,20,137331,1,8,0:0:0:0:
236,112,137583,1,2,0:0:0:0:
464,200,137835,6,0,B|472:136|440:76,1,125.999996154785,4|2,0:0|0:0,0:0:0:0:
396,60,138214,1,0,0:0:0:0:
348,68,138340,1,8,0:0:0:0:
120,260,138592,6,0,B|171:298|239:301,1,125.999996154785,6|0,0:0|0:0,0:0:0:0:
276,272,138970,1,0,0:0:0:0:
292,225,139096,1,2,0:0:0:0:
101,87,139348,6,0,B|57:134|49:202,1,125.999996154785,12|2,0:0|0:0,0:0:0:0:
76,240,139726,1,0,0:0:0:0:
120,261,139852,1,0,0:0:0:0:
320,264,140104,1,2,0:0:0:0:
292,225,140230,1,0,0:0:0:0:
268,184,140356,1,8,0:0:0:0:
344,304,140608,1,2,0:0:0:0:
244,144,140861,5,0,0:0:0:0:
368,344,141113,1,2,0:0:0:0:
220,104,141365,1,8,0:0:0:0:
412,340,141617,1,2,0:0:0:0:
488,192,141869,1,4,0:0:0:0:
276,196,142373,6,0,B|171:168|99:85,1,210,8|0,0:0|0:0,0:0:0:0:
196,40,143129,1,2,0:0:0:0:
300,48,143382,1,8,0:0:0:0:
384,112,143634,1,2,0:0:0:0:
404,216,143886,6,0,B|384:260|384:260|432:312|432:312|404:364|312:368|256:324,1,315,4|2,0:0|0:0,0:0:0:0:
172,232,144894,1,0,0:0:0:0:
288,220,145146,1,2,0:0:0:0:
140,336,145398,1,8,0:0:0:0:
88,152,145650,1,2,0:0:0:0:
236,36,145903,5,4,0:0:0:0:
368,100,146155,1,2,0:0:0:0:
416,156,146281,1,0,0:0:0:0:
344,168,146407,1,8,0:0:0:0:
168,200,146659,1,2,0:0:0:0:
120,256,146785,1,0,0:0:0:0:
192,268,146911,1,0,0:0:0:0:
368,296,147163,5,2,0:0:0:0:
441,303,147289,1,0,0:0:0:0:
400,364,147415,2,0,B|352:388|296:368,1,105,8|2,0:0|0:0,0:0:0:0:
192,268,147919,6,0,B|200:212,2,52.5,4|0|2,0:0|0:0|0:0,0:0:0:0:
28,312,148424,6,0,B|-24:344,2,52.5,8|0|2,0:0|0:0|0:0,0:0:0:0:
76,152,148928,6,0,B|-4:72,2,105,0|2|8,0:0|0:0|0:0,0:0:0:0:
156,300,149684,1,2,0:0:0:0:
328,344,149936,6,0,B|380:336|412:288,1,105,4|2,0:0|0:0,0:0:0:0:
472,352,150440,2,0,B|508:248|468:144,1,210,8|0,0:0|0:0,0:0:0:0:
316,56,151197,1,2,0:0:0:0:
220,208,151449,1,8,0:0:0:0:
376,292,151701,2,0,B|388:236|352:192,1,105,2|4,0:0|0:0,0:0:0:0:
204,92,152205,2,0,B|152:96,1,52.5,2|0,0:0|0:0,0:0:0:0:
120,116,152457,6,0,B|84:156|88:212,1,105,8|2,0:0|0:0,0:0:0:0:
212,340,152961,1,0,0:0:0:0:
336,260,153214,1,2,0:0:0:0:
360,212,153340,1,0,0:0:0:0:
384,164,153466,1,8,0:0:0:0:
312,304,153718,5,2,0:0:0:0:
408,116,153970,1,4,0:0:0:0:
312,304,154222,2,2,L|260:292,1,52.5
212,280,154474,1,8,0:0:0:0:
408,116,154726,6,2,L|460:128,1,52.5
508,140,154978,1,0,0:0:0:0:
316,164,155230,2,0,L|264:152,1,52.5,2|0,0:0|0:0,0:0:0:0:
216,140,155482,1,8,0:0:0:0:
316,164,155735,5,2,0:0:0:0:
168,128,155987,2,0,B|180:76|232:48,1,105,4|2,0:0|0:0,0:0:0:0:
184,220,156491,2,0,B|223:256|221:315,1,105,4|2,0:0|0:0,0:0:0:0:
100,184,156995,2,0,B|48:199|-1:168,1,105,4|2,0:0|0:0,0:0:0:0:
184,64,157499,1,12,0:0:0:0:
396,72,157751,1,2,0:0:0:0:
468,176,158003,6,0,B|468:232|436:276,1,105,4|2,0:0|0:0,0:0:0:0:
408,300,158382,1,0,0:0:0:0:
372,316,158508,1,8,0:0:0:0:
256,268,158760,1,2,0:0:0:0:
224,188,159012,5,4,0:0:0:0:
256,268,159264,1,2,0:0:0:0:
240,228,159390,1,0,0:0:0:0:
224,188,159516,1,8,0:0:0:0:
256,88,159768,1,2,0:0:0:0:
152,64,160020,5,4,0:0:0:0:
256,88,160272,1,2,0:0:0:0:
204,76,160398,1,0,0:0:0:0:
152,64,160524,1,8,0:0:0:0:
92,144,160777,6,0,B|60:188|68:244,1,105,2|4,0:0|0:0,0:0:0:0:
80,284,161155,1,0,0:0:0:0:
112,312,161281,1,2,0:0:0:0:
152,324,161407,1,0,0:0:0:0:
196,320,161533,1,8,0:0:0:0:
224,188,161785,1,2,0:0:0:0:
92,144,162037,6,0,B|100:85|160:60,1,105,4|2,0:0|0:0,0:0:0:0:
200,56,162415,1,0,0:0:0:0:
244,76,162541,1,8,0:0:0:0:
336,140,162793,1,2,0:0:0:0:
336,232,163045,5,4,0:0:0:0:
336,140,163298,1,2,0:0:0:0:
336,184,163424,1,0,0:0:0:0:
336,232,163550,1,8,0:0:0:0:
292,352,163802,1,2,0:0:0:0:
168,340,164054,6,0,B|132:300|140:240,1,105,4|2,0:0|0:0,0:0:0:0:
148,200,164432,1,0,0:0:0:0:
176,164,164558,1,8,0:0:0:0:
256,264,164810,1,2,0:0:0:0:
176,164,165062,5,4,0:0:0:0:
216,144,165188,1,0,0:0:0:0:
256,136,165314,1,2,0:0:0:0:
296,144,165440,1,0,0:0:0:0:
336,164,165566,1,8,0:0:0:0:
256,264,165819,1,2,0:0:0:0:
336,164,166071,6,0,B|341:107|299:70,1,105,4|2,0:0|0:0,0:0:0:0:
256,48,166449,1,0,0:0:0:0:
208,40,166575,1,8,0:0:0:0:
86,63,166827,1,2,0:0:0:0:
32,144,167079,5,4,0:0:0:0:
86,63,167331,1,2,0:0:0:0:
59,103,167457,1,0,0:0:0:0:
32,144,167583,1,8,0:0:0:0:
44,268,167835,1,2,0:0:0:0:
156,328,168087,22,0,B|200:356|256:344,1,105,4|2,0:0|0:0,0:0:0:0:
300,332,168466,1,0,0:0:0:0:
336,300,168592,1,8,0:0:0:0:
384,192,168844,2,0,B|392:136|448:116,2,105,2|0|2,0:0|0:0|0:0,0:0:0:0:
420,312,169600,1,8,0:0:0:0:
464,196,169852,1,2,0:0:0:0:
360,264,170104,6,0,B|252:264|160:208,1,210,4|8,0:0|0:0,0:0:0:0:
56,48,170861,2,0,B|164:48|256:104,1,210,6|2,0:0|0:0,0:0:0:0:
432,36,171617,2,0,B|432:143|376:236,1,210,12|4,0:0|0:0,0:0:0:0:
256,268,172373,21,2,0:0:0:0:
180,144,172625,1,0,0:0:0:0:
332,144,172877,1,2,0:0:0:0:
256,268,173129,1,0,0:0:0:0:
108,264,173382,1,2,0:0:0:0:
264,152,173634,2,0,P|256:208|248:152,1,157.5
268,92,174138,38,0,B|308:-12|440:-4|508:100|484:228|376:324|320:320|256:364|256:364|192:320|136:324|28:228|4:100|72:-4|204:-12|244:92,1,1155,4|0,0:0|0:0,0:0:0:0:
256,192,177037,12,0,180188,0:0:0:0:
