osu file format v5

[General]
AudioFilename: [267] The Festival of Ghost 2.mp3
AudioLeadIn: 0
PreviewTime: -1
Countdown: 3
SampleSet: Normal
StackLeniency: 0.7
Mode: 0
LetterboxInBreaks: 1

[Metadata]
Title:The Festival of Ghost 2
Artist:BRANDY
Creator:darrihuka
Version:DaRRi MIx
Source:
Tags:

[Difficulty]
HPDrainRate:5
CircleSize:5
OverallDifficulty:7
SliderMultiplier:2.2
SliderTickRate:4

[Events]
//Background and Video events
0,0,"FOG2.JPG"
//Break Periods
//Storyboard Layer 0 (Background)
//Storyboard Layer 1 (Failing)
//Storyboard Layer 2 (Passing)
//Storyboard Layer 3 (Foreground)
//Storyboard Sound Samples
//Background Colour Transformations
3,100,163,162,255

[TimingPoints]
5855,882.352941176471,4,2,0,100,1
20854,441.176470588235,4,1,0,100,1
49972,476.190476190476,4,2,0,100,1
51876,517.241379310345,4,2,0,100,1
53944,566.037735849057,4,2,0,100,1
56229,476.190476190476,4,1,0,100,1
58133,441.176470588235,4,1,0,100,1
59897,441.176470588235,4,2,0,100,1
61691,441.176470588235,4,1,0,100,1
65225,441.176470588235,4,2,0,100,1
66989,441.176470588235,4,1,0,100,1
78680,882.352941176471,4,2,0,100,1
79341,441.176470588235,4,1,0,100,1
81105,441.176470588235,4,2,0,100,1
82869,441.176470588235,4,1,0,100,1
109340,882.352941176471,4,1,0,100,1
111104,410.958904109589,4,1,0,100,1
112747,410.958904109589,4,2,0,100,1
114390,410.958904109589,4,1,0,100,1
116033,410.958904109589,4,2,0,100,1
117676,410.958904109589,4,1,0,100,1

[Colours]
Combo1 : 203,53,253
Combo2 : 150,255,111
Combo3 : 252,58,48
Combo4 : 198,198,198
Combo5 : 255,232,70

[HitObjects]
117,192,6296,6,0,B|232:192,1,110,2|0
256,192,7178,1,0
395,192,7619,6,0,B|280:192,1,110,2|0
256,192,8501,1,0
256,53,8943,6,0,B|256:168,1,110,2|0
256,192,9825,1,0
256,331,10266,6,0,B|256:216,1,110,2|0
256,192,11148,1,0
256,332,11590,5,0
311,289,11810,1,0
364,334,12031,1,0
418,290,12252,1,0
487,290,12472,1,2
451,229,12693,1,0
451,159,12913,2,0,B|397:205|344:152,1,110,2|0
352,160,13796,1,2
168,248,14457,5,0
112,200,14678,1,0
168,152,14899,1,0
112,104,15119,1,0
392,104,15781,5,0
336,152,16002,1,0
392,200,16223,1,0
336,248,16443,1,0
180,231,16884,5,2
218,177,17105,1,0
256,125,17325,1,0
293,179,17546,1,0
326,233,17766,1,2
208,176,18207,2,0,B|261:214|310:172,2,110,2|0|2
163,113,19531,5,2
96,168,19752,1,0
96,168,19862,1,0
96,168,19972,1,2
24,112,20193,1,0
24,112,20303,1,0
24,112,20413,1,2
96,56,20634,1,0
96,56,20744,1,0
96,56,20854,6,0,B|320:56,1,220
416,128,21515,6,0,B|176:128,1,220
96,200,22177,6,0,B|320:200,1,220
416,272,22838,6,0,B|184:272,1,220
96,272,23501,5,0
416,200,23942,1,0
96,128,24383,1,0
416,56,24824,1,0
96,56,25265,5,0
416,128,25706,1,0
96,200,26147,1,0
416,272,26588,1,0
256,192,27030,12,0,28353
96,106,29015,5,0
136,40,29236,1,0
176,104,29456,1,0
216,40,29677,1,0
56,40,30008,1,0
136,176,30339,1,0
104,248,30559,6,0,B|75:247|54:220,2,55
160,296,31221,6,0,B|189:295|210:268,2,55
104,344,31883,6,0,B|75:343|54:316,2,55
256,288,32545,5,0
256,288,32765,1,0
256,288,32986,1,0
256,368,33206,1,0
336,240,33537,1,0
184,240,33868,1,0
288,240,34089,6,0,B|312:240|336:208,2,55
224,192,34530,6,0,B|200:192|176:160,2,55,0|0|0
336,160,34971,5,0
176,120,35192,1,0
336,80,35412,1,0
176,40,35633,1,0
416,104,36074,5,0
376,40,36295,1,0
336,106,36515,1,0
456,40,36736,1,0
296,40,37067,1,0
376,176,37398,1,0
408,248,37618,6,0,B|437:247|458:220,2,55
352,296,38280,6,0,B|323:295|302:268,2,55
408,344,38942,6,0,B|437:343|458:316,2,55
184,240,39603,5,0
256,368,39824,1,0
336,240,40045,1,0
256,288,40265,1,0
256,288,40596,1,0
256,288,40927,1,0
168,192,41368,5,0
256,272,41589,1,0
256,272,41699,1,0
344,192,41920,1,0
256,272,42140,1,0
256,272,42251,1,0
256,192,42471,1,0
256,112,42692,1,0
256,32,42912,5,0
72,192,43353,1,0
312,88,43795,5,0
128,248,44236,1,0
368,144,44677,5,0
184,304,45118,1,0
312,88,45559,5,0
224,168,45780,1,0
272,224,46001,1,0
368,144,46221,1,0
424,200,46442,5,0
248,360,46883,1,0
368,144,47324,1,0
184,304,47765,5,0
128,248,47986,1,0
176,176,48206,2,0,B|209:252|319:250|369:179|349:118|350:80|311:47|267:25|219:44|174:59|166:101|160:160,1,440,0|2
336,95,49530,1,2
256,48,49971,5,0
217,53,50130,1,0
181,67,50289,1,0
158,98,50448,5,2
182,127,50606,1,0
217,141,50765,1,0
255,144,50924,5,0
294,149,51083,1,0
330,163,51241,1,0
353,194,51400,5,2
329,223,51559,1,0
294,237,51718,1,0
256,242,51876,5,0
217,247,52048,1,0
181,261,52220,1,0
158,292,52393,5,2
182,321,52565,1,0
217,335,52738,1,0
256,339,52910,5,0
295,334,53082,1,0
331,320,53254,1,0
354,289,53427,5,2
330,260,53599,1,0
295,246,53772,1,0
255,242,53944,5,0
216,237,54132,1,0
180,223,54321,1,0
157,192,54510,5,2
181,163,54698,1,0
216,149,54887,1,0
255,145,55076,5,0
294,140,55264,1,0
330,126,55453,1,0
353,95,55642,5,2
329,66,55830,1,0
294,52,56019,1,0
256,48,56229,6,0,B|256:136,2,73.3333333333333
200,96,56705,2,0,B|200:176,2,73.3333333333333
144,144,57181,2,0,B|144:224,2,73.3333333333333
88,192,57657,2,0,B|88:272,2,73.3333333333333
88,264,58133,6,0,B|168:320|217:199|304:281,1,220,0|0
424,312,59015,6,0,B|344:368|295:247|208:329,1,220,0|0
256,192,59897,12,0,61221
88,88,61691,2,0,B|190:-12|288:96,2,220
208,136,62793,1,0
88,192,63014,1,0
208,240,63235,1,0
88,296,63455,6,0,B|190:196|288:304,2,220
208,344,64558,1,0
328,296,64779,1,0
448,344,64999,1,0
424,232,65225,6,0,B|360:232,3,55,0|0|2|0
392,168,65666,6,0,B|464:168,3,55,0|0|2|0
424,104,66107,6,0,B|352:104,3,55,0|0|2|0
392,40,66548,6,0,B|464:40,3,55,0|0|2|0
389,41,66989,5,0
368,48,67100,1,0
347,55,67210,1,2
326,62,67320,1,0
307,50,67430,5,0
288,62,67541,1,2
269,74,67651,1,0
250,86,67761,1,0
228,80,67872,5,2
215,98,67982,1,0
202,116,68092,1,0
189,134,68202,1,2
192,152,68313,5,0
176,160,68423,1,0
160,168,68533,1,2
144,176,68644,1,0
128,184,68753,5,0
440,184,69194,1,0
280,184,69525,5,0
344,240,69856,1,0
376,184,70077,1,0
408,240,70297,1,0
440,184,70518,5,0
128,184,70959,1,0
288,72,71290,5,0
224,128,71620,1,0
192,72,71841,1,0
160,128,72061,1,0
128,184,72283,5,0
384,184,72724,1,0
64,184,73165,1,0
448,184,73606,1,0
216,88,74047,5,2
176,168,74268,1,0
136,88,74489,5,2
176,168,74709,1,0
88,160,74930,5,2
176,168,75150,1,0
264,160,75371,1,0
344,128,75591,1,2
352,216,75812,5,2
352,216,76143,1,2
272,256,76364,5,0
272,256,76474,1,0
352,216,76694,5,2
352,216,77025,1,2
392,296,77246,5,0
392,296,77356,1,0
352,216,77577,6,2,B|328:280,2,55
356,62,78680,6,2,L|348:54|340:62|332:54|324:62|316:54|308:62|300:54|292:62|284:54|276:62|268:54|260:62|252:54|244:62|236:54,1,165
184,56,79561,5,0
128,56,79782,1,0
112,168,80223,1,0
168,168,80443,1,0
152,280,80885,1,0
96,280,81105,6,0,B|96:216,3,55,2|0|0|0
160,224,81546,6,0,B|192:168,3,55,2|0|0|0
248,208,81988,6,0,B|320:184,3,55,2|0|0|0
320,256,82429,6,0,B|392:256,4,55,2|0|0|0|0
400,256,83091,1,0
480,256,83311,1,0
480,104,83752,1,0
400,104,83973,1,0
400,104,84414,1,0
400,104,84635,5,2
112,104,85076,1,2
112,328,85517,1,2
400,328,85958,1,2
184,136,86399,5,0
184,136,86620,1,0
96,184,86841,5,2
184,136,87061,1,0
184,136,87282,1,0
152,40,87502,5,2
184,136,87723,1,0
184,136,87943,1,0
248,208,88164,5,2
184,136,88385,1,0
184,136,88605,1,0
280,120,88826,5,2
184,136,89046,1,0
184,136,89267,1,0
216,40,89488,5,2
280,120,89708,1,2
368,160,89929,5,0
368,160,90149,1,0
280,208,90370,5,2
368,160,90591,1,0
368,160,90811,1,0
432,232,91032,5,2
368,160,91252,1,0
336,256,91473,5,2
256,288,91693,6,0,B|224:312|168:312,2,73.3333333333333,2|0|0
256,216,92135,6,0,B|288:240|344:240,2,73.3333333333333,2|0|0
256,144,92576,6,0,B|224:168|168:168,2,73.3333333333333,2|0|0
256,72,93017,6,0,B|299:72|336:112,2,73.3333333333333,2|0|0
256,72,93458,6,0,B|184:72|136:96,2,110
256,136,94120,5,0
256,136,94230,1,0
256,136,94340,6,0,B|328:136|376:160,2,110,0|0|0
256,200,95002,5,0
256,200,95112,1,0
256,200,95222,6,0,B|184:200|136:224,2,110,0|0|0
256,264,95885,5,0
256,264,95995,1,0
256,264,96105,6,0,B|337:265|376:224,2,110,0|0|0
168,208,96767,5,0
80,264,96988,1,0
168,312,97208,1,0
256,264,97429,1,0
168,208,97649,1,0
80,160,97870,1,0
168,112,98090,1,0
256,152,98311,1,0
256,48,98532,1,0
344,96,98752,6,2,B|456:160,1,110,6|2
344,168,99193,6,2,B|248:248,1,110,6|2
320,288,99635,5,2
376,240,99855,1,2
432,288,100076,1,2
376,336,100296,1,2
320,288,100517,6,2,B|224:208,1,110,6|2
232,136,100958,6,2,B|144:216,1,110,6|2
80,264,101399,5,2
136,136,101620,1,2
272,104,101840,1,2
392,176,102061,1,2
408,320,102282,5,0
104,320,102723,1,0
408,248,103164,1,0
104,248,103605,1,0
408,176,104046,1,0
104,176,104488,1,0
320,112,104929,5,0
192,112,105149,1,0
320,40,105370,1,0
192,40,105590,1,0
408,40,105811,5,0
104,40,106252,1,0
408,112,106693,1,0
104,112,107134,1,0
408,184,107575,1,0
104,184,108017,1,0
320,256,108458,5,0
192,256,108678,1,0
320,328,108899,1,0
192,328,109119,1,0
64,328,109340,6,2,C|64:208,1,110,2|0
128,248,110001,2,2,C|128:128,1,110,2|0
192,168,110663,2,2,C|192:104,1,55,2|0
192,40,111104,5,0
368,40,111514,1,0
280,96,111720,1,0
280,96,111823,1,0
280,96,111925,5,0
328,168,112131,1,0
376,96,112336,1,0
424,168,112542,1,0
472,96,112747,5,0
477,117,112850,1,0
475,139,112953,1,2
465,159,113056,1,0
476,177,113158,5,0
468,197,113261,1,2
456,216,113364,1,0
439,231,113467,1,0
448,250,113569,5,2
431,264,113672,1,0
412,275,113775,1,0
392,284,113877,1,2
393,306,113980,5,0
376,320,114083,1,0
356,329,114186,1,2
335,336,114288,1,2
312,336,114391,5,0
312,336,114597,1,0
264,264,114802,1,2
216,336,115008,1,0
264,264,115213,5,2
176,256,115419,1,2
216,336,115624,1,0
264,264,115830,1,2
256,192,116033,12,2,117266
72,160,117676,5,0
224,160,118086,1,0
224,240,118292,1,0
224,160,118497,1,0
288,200,118703,1,0
224,160,118908,1,0
224,240,119114,1,0
224,160,119319,5,0
288,120,119525,1,0
352,80,119730,2,2,B|312:32,2,55
416,120,120141,5,0
472,168,120347,1,0
416,216,120552,2,2,B|464:272,2,55
256,192,120963,12,4,122196
168,144,122812,5,0
72,192,123018,1,0
72,192,123121,1,0
72,288,123326,1,0
168,344,123532,1,0
168,344,123634,1,0
256,288,123840,1,0
256,192,124045,1,0
344,48,124456,5,0
440,96,124662,1,0
440,96,124765,1,0
440,192,124970,1,0
344,248,125176,1,0
344,248,125278,1,0
256,192,125484,1,0
256,96,125689,1,0
152,96,125895,6,4,B|88:104|56:160,1,110,6|4
152,192,126306,1,0
200,272,126511,1,0
256,192,126717,1,0
208,104,126922,1,0
304,104,127128,1,0
352,192,127333,1,0
304,272,127539,6,4,B|368:280|400:336,1,110,6|4
392,224,127949,1,0
480,272,128155,1,0
480,176,128360,1,0
392,120,128566,1,0
480,72,128771,2,0,B|528:104,2,55
392,24,129182,6,4,B|296:104,1,110,6|4
232,96,129593,1,0
152,96,129799,1,0
72,96,130004,2,0,B|152:176,3,110,2|0|0|0
240,176,130826,5,2
336,176,131032,1,0
288,256,131237,2,2,B|256:256|232:288,2,55
376,256,131648,2,2,B|408:256|432:288,2,55,2|2|2
336,176,132059,5,0
336,176,132265,1,2
392,112,132470,6,0,B|341:63|234:65|184:120,1,220,6|0
144,176,133086,2,0,B|122:201|112:232,1,55,2|0
144,176,133703,6,0,B|96:232|104:304,1,110,6|0
32,328,134114,2,0,B|25:241|46:167|112:104,1,220,6|0
160,72,134730,1,0
160,72,134936,6,0,B|203:138|313:135|360:56,2,220,6|6|0
349,70,136169,1,0
256,224,136580,1,0
384,224,136888,1,0
408,224,136939,1,0
432,224,136991,1,0
424,64,137402,5,2
424,192,137607,1,0
328,104,137812,1,2
328,232,138018,1,0
232,144,138223,1,2
232,272,138429,1,2
96,280,138634,1,2
16,176,138840,1,2
96,72,139045,5,2
96,200,139250,1,0
192,112,139455,1,2
192,240,139661,1,0
288,152,139866,1,2
288,280,140072,1,2
416,280,140277,1,2
416,152,140483,1,2
352,80,140689,5,0
352,184,140895,5,2
352,184,140997,1,2
264,136,141203,1,2
264,136,141306,1,2
352,80,141511,5,0
352,184,141717,5,2
352,184,141819,1,2
440,136,142025,1,2
440,136,142128,1,2
352,80,142333,6,0,B|352:152,2,55,2|2|6
256,192,142744,12,0,147984
