osu file format v9

[General]
AudioFilename: Move_It_On_DJ_HD_Mix.mp3
AudioLeadIn: 1996
PreviewTime: 32873
Countdown: 1
SampleSet: Normal
StackLeniency: 0.4
Mode: 0
LetterboxInBreaks: 1

[Editor]
Bookmarks: 57440
DistanceSpacing: 1
BeatDivisor: 4
GridSize: 8

[Metadata]
Title:Move It On (DJ HD Mix)
Artist:BRANDY
Creator:fartownik
Version:SHD
Source:O2Jam
Tags:Natteke Hanyuu

[Difficulty]
HPDrainRate:7
CircleSize:4
OverallDifficulty:6
ApproachRate:8
SliderMultiplier:2
SliderTickRate:0.5

[Events]
//Background and Video events
0,0,"O2JAM.jpg"
//Break Periods
2,48195,52915
2,97330,103467
//Storyboard Layer 0 (Background)
//Storyboard Layer 1 (Fail)
//Storyboard Layer 2 (Pass)
//Storyboard Layer 3 (Foreground)
//Storyboard Sound Samples
//Background Colour Transformations
3,100,0,0,0

[TimingPoints]
280,472.44094488189,4,1,0,0,1,0
747,-100,4,1,0,40,0,0
6062,-200,4,1,0,40,0,0
7361,-100,4,1,0,40,0,0
8247,-100,4,1,0,60,0,0
14448,-100,4,1,0,35,0,0
15038,-100,4,1,0,60,0,0
16810,-100,4,2,0,60,0,0
17105,-100,4,2,0,0,0,0
17223,-66.6666666666667,4,1,0,60,0,0
17755,-100,4,1,0,60,0,0
24723,-50,4,1,0,60,0,0
25019,-66.6666666666667,4,1,0,0,0,0
25137,-100,4,1,0,61,0,0
30629,-200,4,1,0,61,0,0
31101,-100,4,1,0,25,0,0
31456,-100,4,1,0,36,0,0
31692,-100,4,1,0,45,0,0
31928,-100,4,1,0,54,0,0
32164,-100,4,1,0,64,0,0
32873,-66.6666666666667,4,1,0,64,0,1
33050,-66.6666666666667,4,1,0,0,0,1
33168,-100,4,1,0,60,0,1
33523,-100,4,1,0,0,0,1
33641,-100,4,1,0,60,0,1
36830,-100,4,1,0,0,0,1
36948,-100,4,1,0,60,0,1
37302,-100,4,1,0,0,0,1
37420,-100,4,1,0,60,0,1
40314,-66.6666666666667,4,1,0,60,0,1
40609,-66.6666666666667,4,1,0,0,0,1
40727,-100,4,1,0,60,0,1
47282,-200,4,1,0,60,0,1
47991,-100,4,1,0,60,0,0
59271,-66.6666666666667,4,1,0,60,0,0
59507,-66.6666666666667,4,1,0,0,0,0
59625,-100,4,1,0,60,0,0
68247,-200,4,1,0,60,0,0
69133,-100,4,1,0,30,0,0
69369,-100,4,1,0,45,0,0
69605,-100,4,1,0,60,0,0
69841,-100,4,1,0,75,0,0
74034,-133.333333333333,4,1,0,60,0,0
74448,-100,4,1,0,60,0,0
76219,-100,4,2,0,39,0,0
76751,-100,4,1,0,39,0,0
76869,-100,4,2,0,39,0,0
78168,-100,4,1,0,60,0,0
82007,-66.6666666666667,4,1,0,60,0,1
82184,-66.6666666666667,4,1,0,0,0,1
82302,-66.6666666666667,4,1,0,60,0,1
82656,-66.6666666666667,4,1,0,0,0,1
82775,-100,4,1,0,60,0,1
85668,-66.6666666666667,4,1,0,60,0,1
85963,-66.6666666666667,4,1,0,0,0,1
86082,-66.6666666666667,4,1,0,60,0,1
86436,-66.6666666666667,4,1,0,0,0,1
86554,-66.6666666666667,4,1,0,60,0,1
86908,-66.6666666666667,4,1,0,0,0,1
87026,-66.6666666666667,4,1,0,61,0,1
87086,-100,4,1,0,61,0,1
89507,-66.6666666666667,4,1,0,61,0,1
89743,-66.6666666666667,4,1,0,0,0,1
89861,-66.6666666666667,4,1,0,60,0,1
90215,-66.6666666666667,4,1,0,0,0,1
90334,-66.6666666666667,4,1,0,60,0,1
90688,-66.6666666666667,4,1,0,0,0,1
90806,-100,4,1,0,60,0,1
93227,-66.6666666666667,4,1,0,60,0,1
95117,-100,4,1,0,60,0,1
97125,-100,4,1,0,60,0,0
104093,-66.6666666666667,4,1,0,60,0,0
104389,-66.6666666666667,4,1,0,0,0,0
104507,-100,4,2,0,60,0,0
108345,-66.6666666666667,4,1,0,60,0,0
108641,-66.6666666666667,4,1,0,0,0,0
108759,-100,4,2,0,60,0,0
110353,-66.6666666666667,4,1,0,60,0,0
112243,-100,4,1,0,60,0,0
127243,-133.333333333333,4,1,0,60,0,0
127715,-100,4,1,0,60,0,0
128188,-66.6666666666667,4,1,0,60,0,0
128660,-50,4,1,0,60,0,0

[Colours]
Combo1 : 255,176,30
Combo2 : 255,0,45
Combo3 : 255,255,0
Combo4 : 170,11,255

[HitObjects]
120,304,280,2,0,B|184:248|256:304,1,150
296,328,752,6,2,B|272:176,1,150,6|8
416,88,1342,1,0
416,88,1461,2,2,B|400:144,1,50,2|0
400,184,1697,2,2,B|423:332,1,150,2|8
264,336,2287,1,0
264,336,2405,2,0,B|248:272,1,50,2|0
208,304,2642,6,0,B|136:344|64:304,1,150,4|0
64,256,3114,2,0,B|136:296|208:256,1,150,0|0
240,224,3587,2,0,B|200:128,1,100,4|2
128,64,4059,1,0
128,64,4177,1,2
64,136,4413,1,0
64,136,4531,6,2,B|96:288,1,150,6|8
256,224,5240,1,0
448,136,5476,6,2,B|416:288,1,150,2|8
376,312,5949,1,0
288,360,6185,6,2,B|240:136,1,225,2|0
240,88,7366,5,4
200,56,7484,1,0
152,72,7602,1,0
136,120,7720,1,0
168,160,7839,1,0
184,208,7957,1,0
168,256,8075,1,0
128,280,8193,1,0
80,264,8311,5,10
216,328,8665,1,0
264,312,8783,1,8
312,296,8902,1,0
360,280,9020,2,0,B|408:264,1,50,0|0
456,248,9256,6,0,B|360:240|392:136,1,150,10|0
440,136,9728,1,8
408,40,9965,1,0
336,208,10201,6,0,B|320:160,1,50,2|0
241,164,10437,2,0,B|257:212,1,50
176,216,10673,2,0,B|160:168,1,50
80,168,10909,2,0,B|96:216,1,50
16,216,11146,5,2
120,328,11382,1,2
160,296,11500,1,0
208,272,11618,1,2
256,256,11736,1,0
304,272,11854,1,2
352,296,11972,1,0
392,328,12091,5,10
208,320,12445,1,0
160,296,12563,1,8
144,248,12681,1,0
152,200,12799,2,0,B|168:176|152:144,1,50
240,72,13035,2,0,B|216:120|240:176,1,100,10|0
236,169,13390,1,0
236,169,13508,1,8
328,128,13744,1,0
400,200,13980,6,0,B|408:232|384:248,3,50
408,288,14453,2,0,B|408:264|432:240,3,50
400,200,14925,6,0,B|336:208|344:128,1,100,0|2
304,104,15280,1,2
264,136,15398,1,2
224,104,15516,1,2
184,136,15634,1,2
144,104,15752,1,2
104,136,15870,6,0,B|168:200|104:272,2,150
104,136,16697,1,0
107,269,16933,1,0
107,269,17051,2,0,B|160:256,1,50,2|0
216,304,17287,6,0,B|216:224|216:224|296:152|296:152|296:40,1,299.999991059304,4|0
384,80,17996,5,0
392,96,18114,1,0
400,112,18232,2,0,B|368:160|400:208,1,100,8|0
448,207,18587,1,2
344,304,18823,1,2
160,304,19059,1,2
160,304,19177,1,8
80,208,19413,5,0
72,192,19531,1,0
64,176,19650,1,0
160,304,19886,1,0
152,288,20004,1,0
144,272,20122,2,0,B|176:224|144:176,1,100,8|0
192,192,20476,6,0,B|184:144,1,50,0|2
224,168,20713,2,0,B|216:112,1,50
256,152,20949,2,0,B|256:104,1,50,0|10
288,168,21185,2,0,B|296:112,1,50,0|0
320,192,21421,2,0,B|328:144,1,50,0|0
408,304,21776,5,0
416,240,21894,1,0
424,176,22012,1,8
256,248,22248,1,0
256,248,22484,1,2
104,304,22720,1,0
96,240,22839,1,0
88,176,22957,2,8,B|72:64,2,100,8|0|6
200,80,23783,5,0
200,80,23902,1,12
264,216,24256,1,0
264,216,24374,1,6
328,176,24492,1,0
328,176,24610,1,4
392,216,24728,1,0
392,216,24846,6,0,B|480:136|384:40,1,200,10|0
320,72,25201,2,0,B|272:72,1,50,2|4
200,296,25555,5,0
96,176,25791,2,0,B|168:120|96:48,1,150,8|2
72,48,26264,2,0,B|176:48,2,100,0|0|8
16,120,26854,2,0,B|116:120,1,100,0|10
196,120,27209,6,0,B|156:168|196:208,2,100,4|0|8
312,120,27917,1,0
312,120,28035,1,2
312,120,28154,1,0
312,120,28272,2,0,B|352:168|312:208,1,100
256,280,28626,2,0,B|368:280,1,100,8|0
400,304,28980,1,2
408,256,29098,5,0
440,176,29335,1,0
440,72,29571,2,0,B|368:16|304:72,1,150,8|2
256,48,30043,2,0,B|256:152,2,100,0|0|8
88,72,30752,6,0,B|122:41|155:72,1,75,4|0
200,96,31224,5,0
240,128,31342,1,0
248,176,31461,1,0
216,216,31579,1,0
168,224,31697,1,0
120,216,31815,1,0
72,232,31933,1,0
56,280,32051,1,0
72,328,32169,1,0
112,352,32287,1,0
160,352,32405,1,8
200,320,32524,1,0
240,296,32642,1,0
288,296,32760,1,0
336,320,32878,6,2,B|408:360|480:320,1,149.999995529652,6|0
455,192,33350,2,2,B|409:222|361:192,1,100,10|0
57,192,33823,2,2,B|103:222|151:192,1,100,10|0
304,120,34177,2,2,B|258:150|208:120,1,100,10|0
56,48,34531,1,10
97,64,34650,1,0
139,48,34768,6,2,B|186:16|232:48,1,100,2|0
384,128,35240,1,2
384,128,35358,1,0
216,200,35594,1,0
216,200,35713,1,2
296,200,35949,5,10
128,128,36185,1,2
128,128,36303,2,2,B|144:232,1,100,10|0
96,320,36657,6,2,B|142:350|191:319,1,100,6|0
416,208,37130,2,2,B|370:238|321:207,1,100,10|0
256,80,37602,2,0,B|248:144|184:136,1,100,10|0
80,264,37957,2,0,B|88:200|152:208,1,100,10|0
224,216,38311,1,10
256,344,38547,5,8
400,312,38783,1,2
416,160,39020,1,0
416,160,39138,1,10
336,40,39374,1,8
176,40,39610,1,2
176,40,39728,1,0
96,160,39965,1,8
112,312,40201,1,0
328,240,40437,6,2,B|256:280|184:240,1,149.999995529652,6|0
96,128,40909,2,0,B|136:96|136:96|184:96,1,100,10|0
256,72,41264,2,0,B|256:176,1,100,10|0
416,128,41618,1,2
416,256,41854,2,0,B|376:288|376:288|328:288,1,100,10|0
256,312,42209,2,0,B|256:208,1,100,10|0
184,192,42563,2,0,B|128:192|128:192|96:160,1,100,10|0
88,88,42917,1,8
88,88,43035,1,0
208,48,43272,6,0,B|256:80|304:48,1,100,10|0
256,112,43626,1,8
344,144,43862,2,0,B|392:176|440:144,1,100,0|8
448,112,44217,6,8,B|416:216,1,100
328,264,44689,2,2,B|176:288,1,150
176,344,45161,2,0,B|200:296|152:256,1,100
96,200,45634,1,0
160,144,45870,1,0
96,88,46106,5,0
96,88,46224,1,0
96,88,46342,1,2
195,240,46579,1,0
235,256,46697,1,2
275,256,46815,1,0
315,240,46933,1,2
440,224,47169,1,2
456,192,47287,6,0,B|495:120|455:48,1,150,0|4
256,192,53665,12,0,55555
32,160,55791,5,0
128,200,56028,2,0,B|200:256|144:336,1,150,8|0
112,312,56500,1,2
208,328,56618,2,0,B|232:312|256:320,2,50,0|0|0
280,328,56972,6,8,B|352:280|424:328,2,150
256,248,58035,2,8,B|256:96,1,150,8|2
104,144,58626,2,0,B|144:192|104:240,1,100,2|0
136,144,58980,2,0,B|176:192|136:240,1,100,2|0
168,144,59335,6,0,B|224:216|168:280,1,149.999995529652,2|0
384,200,59807,2,0,B|312:256|368:336,1,150,8|0
392,320,60279,1,2
320,336,60398,2,0,B|272:328,2,50,8|0|0
248,336,60752,5,8
128,320,60988,2,0,B|176:328,1,50,0|0
248,296,61224,5,0
264,248,61342,1,0
304,216,61461,1,0
352,208,61579,1,0
400,216,61697,5,0
440,192,61815,1,0
464,144,61933,1,0
448,96,62051,1,0
408,72,62169,6,0,B|360:56,1,50,2|0
312,128,62405,2,0,B|344:80,1,50,0|2
384,176,62642,2,0,B|336:152,1,50,0|2
432,104,62878,2,0,B|408:152,1,50,0|0
440,192,63114,5,0
456,216,63232,1,0
456,248,63350,1,0
440,272,63468,1,0
408,280,63587,1,8
376,272,63705,1,0
352,248,63823,1,0
320,240,63941,1,0
288,248,64059,1,0
272,272,64177,1,0
248,288,64295,1,0
216,296,64413,1,0
184,288,64531,1,2
128,208,64768,5,0
112,240,64886,1,2
184,288,65122,1,2
200,256,65240,1,0
256,192,65476,5,8
312,128,65713,1,0
328,96,65831,1,8
400,144,66067,1,8
384,176,66185,1,0
384,208,66303,1,0
400,232,66421,1,0
424,248,66539,1,0
456,256,66657,1,0
488,248,66776,1,0
504,224,66894,6,0,B|480:272|504:320,1,100,4|0
384,296,67366,2,0,B|304:312|232:296,1,150,8|0
232,328,67839,6,0,B|272:288|248:232,1,100
344,216,68311,2,2,B|424:232|496:216,1,150,2|0
480,208,69138,5,0
472,200,69256,1,0
464,192,69374,1,8
456,184,69492,1,0
448,176,69610,1,0
440,168,69728,1,8
432,160,69846,1,0
424,152,69965,1,0
416,144,70083,1,0
408,136,70201,1,0
400,128,70319,1,0
392,120,70437,1,0
384,112,70555,1,0
376,104,70673,6,0,B|328:104,2,50,2|2|0
288,136,71146,1,8
288,136,71382,1,0
136,280,71618,2,0,B|184:280,2,50,2|2|0
224,248,72091,1,8
256,192,72327,6,0,B|168:112|77:192,1,200,0|0
80,248,73035,1,8
80,192,73272,1,0
80,136,73508,5,2
208,112,73744,2,2,B|256:136|304:112,1,100,2|8
336,72,74098,2,0,B|336:200,1,112.499996647239,0|2
360,200,74571,5,2
384,216,74689,1,0
360,200,74925,1,8
360,200,75161,1,0
176,184,75398,5,2
152,200,75516,1,2
128,216,75634,1,0
152,200,75870,1,8
152,200,76106,1,0
256,240,76342,5,2
328,192,76579,1,0
328,192,76697,1,0
328,192,76815,1,0
256,144,77051,1,0
256,144,77169,1,0
416,192,77405,5,0
104,192,77642,1,0
328,192,77878,5,0
184,192,78114,1,0
200,216,78232,6,0,B|232:256,2,50
256,272,78705,2,0,B|256:120,1,150,8|0
312,168,79177,6,0,B|280:128,2,50
256,122,79650,2,0,B|256:272,1,150,8|0
200,216,80122,6,0,B|232:256,2,50
168,216,80476,1,0
136,216,80594,2,0,B|104:168,2,50,8|0|0
104,216,80949,1,0
72,216,81067,6,0,B|104:256,1,50,2|0
112,344,81303,2,0,B|80:304,1,50,2|0
8,216,81539,2,0,B|40:256,1,50,2|0
48,344,81776,2,0,B|16:304,1,50,2|0
80,304,82012,6,2,B|152:256|224:304,1,149.999995529652,6|0
432,80,82484,2,2,B|360:128|288:80,1,149.999995529652,10|0
256,48,82839,1,0
216,80,82957,2,2,B|171:118|126:80,2,100,2|2|10
176,168,83665,2,0,B|200:272,1,100
256,296,84020,5,0
312,264,84138,1,0
432,264,84374,1,8
312,264,84610,1,0
440,192,84846,5,2
360,104,85083,1,2
328,296,85319,1,10
200,48,85555,1,2
184,328,85791,6,2,B|112:376|40:328,1,149.999995529652,6|0
184,192,86264,2,2,B|252:237|324:189,1,149.999995529652,10|0
464,40,86736,2,2,B|395:85|323:37,1,149.999995529652,6|0
256,24,87091,1,0
184,40,87209,1,8
104,120,87445,6,0,B|56:192|104:264,1,150,4|0
152,232,87917,2,2,B|184:328,1,100,2|10
360,328,88272,2,2,B|328:233,1,100,2|0
272,216,88626,1,0
232,168,88744,1,2
248,112,88862,1,0
296,80,88980,1,0
352,88,89098,1,8
464,24,89335,1,0
496,72,89453,1,8
456,120,89571,6,2,B|400:192|456:256,1,149.999995529652,6|0
296,336,90043,2,2,B|352:272|296:200,1,149.999995529652,10|0
192,120,90516,2,2,B|136:192|192:256,1,149.999995529652,6|0
152,304,90870,1,0
192,352,90988,2,0,B|304:352,1,100,8|0
416,352,91461,1,2
416,352,91579,2,0,B|368:312|416:264,1,100,8|0
448,216,91933,2,0,B|416:112,2,100,8|0|10
392,192,92524,5,0
272,216,92760,1,0
216,192,92878,1,8
96,216,93114,1,0
24,144,93350,6,0,B|56:112|56:112|168:112,1,149.999995529652,6|0
160,112,93705,1,0
160,112,93823,1,2
256,56,94059,1,0
256,56,94177,2,0,B|256:216,1,149.999995529652,2|2
488,144,94650,1,0
488,144,94768,2,0,B|456:112|456:112|344:112,1,149.999995529652,2|0
416,216,95122,6,0,B|360:216,1,50,0|4
352,272,95358,2,0,B|288:272,1,50,0|0
280,216,95594,2,0,B|224:216,1,50,0|6
200,272,95831,2,0,B|152:272,1,50,0|2
128,216,96067,2,0,B|72:216,1,50,0|2
152,120,96421,1,0
264,160,96657,1,0
320,176,96776,1,0
376,152,96894,1,0
392,96,97012,1,0
368,40,97130,1,4
416,256,104217,6,2,B|352:192|416:120,1,149.999995529652,2|0
328,80,104689,5,2
176,96,105043,1,2
328,120,105398,1,2
120,144,105870,1,2
120,240,106106,2,0,B|120:296|184:320|256:296|256:240,1,200,0|2
408,232,106933,5,2
256,208,107287,1,2
464,184,107760,1,2
464,88,107996,1,2
384,24,108232,1,2
304,88,108468,6,2,B|240:152|168:88,1,149.999995529652
119,89,108823,1,2
48,224,109177,1,2
208,344,109650,1,2
304,344,109886,1,2
384,280,110122,1,0
392,256,110240,1,0
400,224,110358,6,2,B|432:136|336:104,1,149.999995529652,2|0
256,192,110713,1,0
112,224,110831,2,2,B|80:136|176:104,1,149.999995529652,2|0
256,192,111185,1,0
400,160,111303,6,2,B|432:248|336:280,1,149.999995529652,2|0
256,192,111657,1,0
112,160,111776,2,2,B|80:248|176:280,1,149.999995529652,2|0
256,192,112130,1,0
400,160,112248,6,0,B|440:104,1,66.6666666666667,0|0
336,114,112602,2,0,B|355:51,1,66.6666666666667,0|0
256,96,112839,2,0,B|256:24,1,66.6666666666667,0|0
177,114,113193,2,0,B|158:51,1,66.6666666666667,0|0
111,156,113547,2,0,B|71:100,1,66.6666666666667,0|4
88,296,114138,6,0,B|144:304,1,50
256,208,114492,2,0,B|256:264,1,50,0|8
424,296,114846,2,0,B|368:304,1,50
328,312,115083,2,0,B|336:352,2,25
344,264,115319,2,0,B|368:216|328:168,1,100,0|8
344,72,115791,1,0
424,88,116028,6,0,B|368:80,1,50
256,176,116382,2,0,B|256:120,1,50,0|8
88,88,116736,2,0,B|144:80,1,50
256,32,117091,2,0,B|256:80,1,50
256,176,117445,1,8
256,288,117681,1,0
344,264,117917,6,0,B|296:248,2,50,4|0|0
296,192,118272,2,0,B|344:176,2,50,0|8|0
344,120,118626,2,0,B|296:104,1,50
352,64,118862,2,0,B|376:56,2,25
400,72,119098,2,0,B|448:88|504:72,1,100,0|8
400,72,119571,1,0
360,192,119807,6,0,B|352:248,2,50
280,192,120161,2,0,B|288:248,2,50,0|8|0
216,192,120516,6,0,B|208:248,1,50
112,240,120870,2,0,B|104:190,1,50
8,192,121224,2,0,B|0:240,3,50
32,200,121697,6,0,B|64:152|120:176,1,100,8|0
144,216,122051,2,0,B|240:240,1,100,8|0
280,240,122405,1,8
480,200,122642,6,0,B|448:152|392:176,1,100,8|0
368,216,122996,2,0,B|272:240,1,100,8|0
240,240,123350,1,8
240,240,123468,1,0
208,200,123587,6,0,B|208:144|152:128,1,100,8|0
16,64,123941,2,0,B|16:120|72:136,1,100,8|0
120,200,124295,1,8
304,200,124531,6,0,B|304:144|360:128,1,100,8|0
496,64,124886,2,0,B|496:120|440:136,1,100,8|0
392,200,125240,2,0,B|384:232|392:256,1,50,8|0
456,312,125476,6,0,B|360:336,1,100,8|0
208,224,125831,2,0,B|304:200,1,100,8|0
368,104,126185,1,8
128,144,126421,6,0,B|224:120,1,100,8|0
392,200,126776,2,0,B|296:224,1,100,8|0
218,321,127130,1,8
220,322,127366,6,0,B|256:304|292:322,1,74.9999977648259,2|0
210,239,127839,2,2,B|258:215|306:239,1,100,2|0
185,157,128311,2,2,B|257:117|329:157,1,149.999995529652,2|0
160,75,128783,2,2,B|256:27|352:75,1,200,2|0
448,40,129256,5,4
