osu file format v9

[General]
AudioFilename: Move_It_On_DJ_HD_Mix.mp3
AudioLeadIn: 2007
PreviewTime: 32873
Countdown: 1
SampleSet: Normal
StackLeniency: 0.4
Mode: 0
LetterboxInBreaks: 1

[Editor]
Bookmarks: 57440
DistanceSpacing: 1
BeatDivisor: 4
GridSize: 8

[Metadata]
Title:Move It On (DJ HD Mix)
Artist:BRANDY
Creator:fartownik
Version:Rough
Source:O2Jam
Tags:Natteke Hanyuu

[Difficulty]
HPDrainRate:6
CircleSize:4
OverallDifficulty:5
ApproachRate:7
SliderMultiplier:1.6
SliderTickRate:0.5

[Events]
//Background and Video events
0,0,"O2JAM.jpg"
//Break Periods
2,48196,52765
2,97330,103317
//Storyboard Layer 0 (Background)
//Storyboard Layer 1 (Fail)
//Storyboard Layer 2 (Pass)
//Storyboard Layer 3 (Foreground)
//Storyboard Sound Samples
//Background Colour Transformations
3,100,0,0,0

[TimingPoints]
280,472.44094488189,4,1,0,0,1,0
747,-100,4,1,0,40,0,0
6062,-200,4,1,0,40,0,0
7361,-100,4,1,0,40,0,0
8247,-100,4,1,0,60,0,0
14448,-100,4,1,0,35,0,0
14861,-100,4,1,0,60,0,0
15097,-100,4,1,0,50,0,0
15215,-100,4,1,0,40,0,0
15334,-100,4,1,0,30,0,0
15452,-100,4,1,0,20,0,0
15570,-100,4,1,0,10,0,0
15806,-100,4,1,0,60,0,0
30629,-200,4,1,0,61,0,0
31101,-100,4,1,0,25,0,0
31456,-100,4,1,0,36,0,0
31692,-100,4,1,0,45,0,0
31928,-100,4,1,0,54,0,0
32164,-100,4,1,0,64,0,0
32873,-100,4,1,0,64,0,1
33523,-100,4,1,0,0,0,1
33641,-100,4,1,0,60,0,1
36830,-100,4,1,0,0,0,1
36948,-100,4,1,0,60,0,1
37302,-100,4,1,0,0,0,1
37420,-100,4,1,0,60,0,1
47282,-200,4,1,0,60,0,1
47991,-100,4,1,0,60,0,0
59625,-100,4,1,0,60,0,0
76219,-100,4,2,0,39,0,0
76751,-100,4,1,0,39,0,0
76869,-100,4,2,0,39,0,0
78168,-100,4,1,0,60,0,0
82007,-100,4,1,0,60,0,1
95117,-100,4,1,0,60,0,1
97125,-100,4,1,0,60,0,0
104566,-100,4,2,0,60,0,0
108345,-100,4,1,0,60,0,0
108778,-100,4,2,0,60,0,0
110353,-66.6666666666667,4,1,0,60,0,0
112243,-100,4,1,0,60,0,0

[Colours]
Combo1 : 255,176,30
Combo2 : 255,0,45
Combo3 : 255,255,0
Combo4 : 170,11,255

[HitObjects]
272,280,280,2,0,B|344:296|368:224,1,120
408,232,752,6,2,B|360:176|408:120,1,120
456,64,1342,1,2
456,64,1461,1,0
376,80,1697,2,2,B|256:104,1,120
144,72,2287,1,2
144,72,2405,1,0
144,152,2642,6,0,B|200:200|160:264,1,120
120,256,3114,2,0,B|144:336,1,80
216,304,3587,1,0
288,328,3823,1,2
392,272,4177,1,2
336,160,4531,6,2,B|384:216|336:272,1,120
288,328,5122,1,2
288,328,5240,1,0
368,312,5476,2,2,B|488:288,1,120
484,288,5949,1,0
480,184,6185,6,2,B|472:152|416:152|392:224|336:224|328:184,1,180
296,168,7366,6,0,B|272:128,3,40
264,208,7839,2,0,B|288:248,3,40
224,192,8311,6,0,B|192:160|176:248|120:216,1,120,10|0
104,176,8783,2,0,B|80:256,1,80,8|0
144,304,9256,1,10
216,280,9492,1,0
232,280,9610,1,0
248,280,9728,2,0,B|336:280,1,80,8|0
288,208,10201,6,0,B|296:168,3,40
224,160,10673,2,0,B|216:120,3,40
224,80,11146,2,2,B|187:51|148:80,1,80,2|2
112,80,11500,2,0,B|72:80,4,40,2|2|2|2|2
136,112,12091,6,2,B|192:144|96:176|144:216,1,120,10|0
184,208,12563,2,0,B|224:192|264:208,1,80,8|0
328,160,13035,1,10
355,232,13272,1,0
363,248,13390,1,0
371,264,13508,2,0,B|410:338,1,80,8|0
320,312,13980,6,0,B|288:280|248:336|208:304,1,120
232,272,14453,2,0,B|200:240|160:296|120:264,1,120,0|0
144,232,14925,6,0,B|120:208|88:248|64:224,1,80,0|2
48,216,15280,1,0
40,200,15398,1,0
40,184,15516,1,0
48,168,15634,1,2
64,160,15752,1,0
80,152,15870,6,0,B|112:128|96:80,1,80
128,96,16224,2,0,B|256:88,1,120
224,112,16697,2,0,B|184:160|200:216|248:248|296:232|320:208,1,200,0|4
424,104,17760,5,0
440,184,17996,1,0
456,264,18232,1,8
336,192,18587,1,0
336,192,18705,1,0
256,184,18941,1,0
176,192,19177,1,8
56,264,19531,1,0
56,264,19650,1,0
72,184,19886,1,8
88,104,20122,6,0,B|96:56|144:64,1,80,8|0
200,128,20594,2,0,B|248:136|240:184,1,80,8|0
160,216,21067,2,0,B|152:264|104:256,1,80,8|0
72,184,21539,5,0
120,120,21776,1,0
200,128,22012,1,8
312,128,22366,1,0
312,128,22484,1,0
392,120,22720,1,0
440,184,22957,1,8
400,256,23193,1,0
256,192,23429,12,6,24846
120,160,25319,6,0,B|96:80,2,80,0|0|8
208,224,26146,1,0
208,224,26264,2,0,B|232:304,2,80,0|0|8
256,208,26854,2,0,B|256:128,1,80,0|8
296,160,27209,6,0,B|320:80,2,80,0|0|8
392,224,28035,1,0
392,224,28154,2,0,B|368:304,2,80,0|0|8
456,152,28862,1,0
456,152,29098,5,0
400,96,29335,1,0
344,40,29571,1,8
288,96,29807,2,0,B|288:144,2,40,0|8|0
232,40,30280,1,0
176,96,30516,1,8
120,40,30752,2,0,B|56:40,1,60
24,40,31224,6,0,B|40:80,3,40
24,112,31697,2,0,B|16:152,3,40
32,192,32169,2,0,B|48:232,5,40
16,256,32878,6,0,B|56:240|96:256,1,80,6|0
176,296,33350,2,0,B|256:312|336:296,1,160,10|10
440,232,34177,1,10
344,160,34531,1,10
408,112,34768,1,2
344,64,35004,1,0
408,16,35240,1,0
408,16,35358,1,2
256,96,35713,1,2
184,64,35949,5,10
112,32,36185,1,0
112,32,36303,1,10
48,136,36657,2,0,B|8:120,2,40
128,112,37130,6,0,B|208:96|288:112,1,160,10|10
384,176,37957,1,10
280,240,38311,1,10
304,163,38547,6,0,B|328:123|304:83,1,80,2|8
232,59,39020,2,0,B|224:99,1,40,2|10
144,99,39374,1,8
64,99,39610,2,0,B|56:139,1,40,2|0
112,200,39965,1,8
96,280,40201,1,0
176,256,40437,6,0,B|216:240|256:256,1,80,2|0
320,296,40909,1,10
392,256,41146,2,0,B|344:184|384:104,1,160,0|2
440,48,41854,1,10
384,104,42091,1,0
304,104,42327,1,0
304,104,42445,1,10
248,48,42681,1,0
248,48,42799,2,0,B|168:48,2,80,10|0|0
224,128,43508,6,2,B|256:168|224:200,1,80
256,216,43862,2,0,B|256:344,1,120,0|6
416,344,44689,6,0,B|384:312|400:264,1,80,8|0
448,208,45161,2,0,B|488:160|448:96,2,120
392,152,46106,2,0,B|352:144,2,40,0|0|2
352,224,46579,2,0,B|304:232,1,40,0|2
354,299,46933,1,2
288,352,47169,2,0,B|336:368,1,40,2|0
325,365,47996,5,4
256,192,53665,12,4,55555
176,304,56028,5,8
336,280,56500,2,0,B|416:272,2,80,0|0|8
336,280,57445,2,0,B|384:232|336:168,2,120
256,280,58390,1,0
176,280,58626,2,2,B|120:280|120:232,1,80,2|0
160,240,58980,2,2,B|216:240|216:192,1,80,2|0
256,192,59335,5,4
336,80,59807,1,8
176,104,60279,2,0,B|96:112,2,80,0|0|8
240,152,60988,1,0
176,200,61224,2,0,B|200:232,3,40
176,264,61697,2,0,B|152:304,3,40
176,328,62169,5,2
256,240,62524,1,2
256,240,62760,1,2
336,328,63114,5,4
384,320,63350,1,0
416,280,63587,1,8
424,232,63823,1,0
336,192,64059,5,0
327,144,64295,1,0
288,112,64531,1,8
240,104,64768,2,0,B|168:136|80:104,1,160
104,64,65476,1,8
80,104,65713,1,0
104,144,65949,6,0,B|120:184,3,40,0|0|0|0
104,200,66421,2,0,B|96:240,3,40,8|0|0|0
104,264,66894,5,4
136,296,67130,1,0
184,296,67366,1,8
216,264,67602,1,0
296,216,67839,5,0
328,184,68075,1,0
376,184,68311,1,8
408,216,68547,1,0
256,192,69020,12,2,70673
208,232,71146,6,0,B|144:280,1,80,8|0
256,256,71618,1,2
304,152,72091,2,0,B|368:104,1,80,8|0
448,104,72563,2,0,B|408:160|448:216,2,120,2|0|0
408,40,73508,2,0,B|368:56|328:40,1,80,2|0
256,40,73980,1,8
240,48,74098,1,0
240,48,74453,5,2
304,152,74925,2,0,B|368:104,1,80,8|0
256,128,75398,1,2
208,232,75870,2,0,B|144:280,1,80,8|0
72,280,76342,5,2
104,216,76579,1,0
104,216,76697,1,0
104,216,76815,2,0,B|120:136,1,80
136,152,77169,2,0,B|152:72,1,80
232,73,77642,2,0,B|216:153,1,80
296,152,78114,1,0
296,152,78232,6,0,B|304:104,2,40,2|0|0
336,216,78705,2,0,B|296:272|336:336,1,120,8|0
352,336,79177,6,0,B|392:352,2,40,2|0|0
288,288,79650,2,0,B|237:241|168:272,1,120,8|0
168,288,80122,5,2
208,152,80594,1,2
256,192,81067,12,6,82012
168,312,82484,6,0,B|200:280|168:240,1,80,10|0
216,176,82957,1,2
296,176,83193,1,0
216,152,83429,1,10
296,152,83665,2,0,B|416:152,1,120
456,152,84138,2,0,B|424:192|456:224,1,80,0|10
416,288,84610,1,0
336,296,84846,6,0,B|256:296,1,80,2|0
176,280,85319,2,0,B|256:280,1,80,10|0
336,264,85791,6,2,B|280:192|336:112,2,160,6|2|2
416,264,86972,1,0
376,336,87209,1,10
296,336,87445,2,0,B|216:312|136:336,1,160,0|2
56,328,88154,2,0,B|72:288,1,40,0|10
144,256,88508,2,0,B|161:215,5,40,0|0|10|0|0|10
232,192,89335,1,0
280,256,89571,5,6
440,256,90043,2,0,B|408:224|440:184,1,80,10|0
360,176,90516,1,2
280,176,90752,1,0
360,152,90988,1,10
280,152,91224,2,0,B|112:152,1,160,0|0
56,200,91933,1,10
40,280,92169,1,0
104,328,92405,2,0,B|184:344,2,80,2|0|10
128,256,93114,1,0
208,280,93350,6,2,B|264:208|208:128,1,160,6|2
136,152,94059,2,0,B|120:112,1,40,0|2
56,64,94413,1,2
32,144,94650,2,0,B|56:192,1,40,0|2
112,232,95004,2,0,B|192:256|104:344|192:360,1,160
264,360,95713,5,0
344,360,95949,1,0
424,360,96185,2,0,B|464:376,2,40
384,296,96657,1,0
376,280,96776,1,0
368,264,96894,1,0
360,248,97012,1,0
352,232,97130,1,4
256,272,104217,6,2,B|256:112,1,160,6|2
368,144,105043,1,2
256,112,105398,1,2
256,272,105870,1,8
256,272,106106,1,8
256,112,106579,5,2
144,144,106933,1,2
256,112,107287,1,2
256,272,107760,1,8
256,272,107996,1,8
320,320,108232,1,0
384,272,108468,6,0,B|336:224|384:160,1,120,6|0
424,160,108941,2,0,B|416:80,1,80,2|0
336,104,109413,2,0,B|328:24,1,80,0|8
256,72,109886,1,0
184,48,110122,1,0
112,80,110358,6,2,B|208:192|112:296,3,239.999992847443
368,160,112248,6,2,B|352:192|372:216,9,53.3333333333333,2|2|2|2|2|2|2|2|2|4
256,320,114138,6,0,B|216:304|176:320,1,80,4|0
96,320,114610,2,0,B|128:288|88:248|128:208,1,120,8|0
192,160,115201,2,0,B|208:200,1,40
272,240,115555,1,8
344,200,115791,1,0
416,240,116028,6,0,B|400:280|416:320,1,80
488,280,116500,2,0,B|512:224|488:160,1,120,8|0
416,72,117209,1,0
344,104,117445,2,0,B|304:120,3,40,8|0|0|0
296,160,117917,6,0,B|256:184|216:160,1,80
192,88,118390,2,0,B|176:104|133:113|92:104|73:86,1,120,8|0
133,26,118980,2,0,B|133:66,1,40,0|0
112,144,119335,1,8
136,216,119571,1,0
168,288,119807,6,0,B|208:312|246:287,1,80,0|0
320,304,120279,1,8
432,272,120634,1,8
320,232,120988,1,8
320,160,121224,2,0,B|320:120,3,40
376,120,121697,6,8,B|320:88|257:119,2,120
320,192,122642,2,8,B|264:224|202:192,2,120,8|8|8
256,120,123587,2,8,B|200:88|137:119,2,120
205,194,124531,2,8,B|149:226|90:195,2,120
256,256,125476,5,8
360,320,125831,1,8
376,200,126185,1,8
296,188,126421,5,8
192,124,126776,1,8
176,244,127130,1,8
256,296,127366,6,0,B|336:328,1,80,0|2
296,232,127839,2,0,B|376:240,1,80,4|2
296,152,128311,2,0,B|376:144,1,80,4|2
256,88,128783,2,0,B|336:56,1,80,4|2
408,56,129256,5,4
