osu file format v14

[General]
AudioFilename: Radio-Death_Parade_OP_Opening__[HD_720P].mp3
AudioLeadIn: 1500
PreviewTime: 41748
Countdown: 0
SampleSet: Normal
StackLeniency: 0.7
Mode: 0
LetterboxInBreaks: 0
WidescreenStoryboard: 0

[Editor]
DistanceSpacing: 1
BeatDivisor: 4
GridSize: 4
TimelineZoom: 1.3

[Metadata]
Title:Flyers
TitleUnicode:Flyers
Artist:BRADIO
ArtistUnicode:BRADIO
Creator:luxoDeh
Version:Hard
Source:Death Parade
Tags:opening tv size version デス・パレード billiards Takaaki Shingyoji Soichi Ohyama Ryosuke Sakai Yuki Tanabe madhouse Akareh ryuu
BeatmapID:605403
BeatmapSetID:265617

[Difficulty]
HPDrainRate:6
CircleSize:4
OverallDifficulty:6
ApproachRate:7.5
SliderMultiplier:1.8
SliderTickRate:1

[Events]
//Background and Video events
0,0,"background.png",0,0
Video,932,"Death+Parade+OP.avi"
//Break Periods
//Storyboard Layer 0 (Background)
//Storyboard Layer 1 (Fail)
//Storyboard Layer 2 (Pass)
//Storyboard Layer 3 (Foreground)
//Storyboard Sound Samples

[TimingPoints]
310,431.654676258993,4,1,1,60,1,0
741,-142.857142857143,4,2,1,60,0,0
1604,-142.857142857143,4,1,1,60,0,0
2252,-142.857142857143,4,2,1,60,0,0
3547,-142.857142857143,4,1,1,60,0,0
3979,-142.857142857143,4,2,1,60,0,0
4842,-142.857142857143,4,1,1,60,0,0
5489,-142.857142857143,4,3,1,60,0,0
5921,-142.857142857143,4,1,1,60,0,0
6137,-142.857142857143,4,3,1,60,0,0
7000,-100,4,1,1,60,0,0
27935,-125,4,1,1,60,0,0
28259,-125,4,2,1,60,0,0
28367,-125,4,1,1,60,0,0
28691,-125,4,2,1,60,0,0
28799,-125,4,1,1,60,0,0
29122,-125,4,2,1,60,0,0
29230,-100,4,1,1,60,0,0
34842,-125,4,1,1,60,0,0
35166,-125,4,2,1,60,0,0
35274,-125,4,1,1,60,0,0
35597,-125,4,2,1,60,0,0
35705,-125,4,1,1,60,0,0
36029,-125,4,2,1,60,0,0
36137,-100,4,1,1,60,0,0
40993,-100,4,3,1,60,0,0
41317,-100,4,1,1,60,0,0
41425,-100,4,3,1,60,0,0
41748,-100,4,1,1,60,0,1
54806,-100,4,3,1,60,0,1
55130,-100,4,1,1,60,0,1
55238,-100,4,3,1,60,0,1
55561,-83.3333333333333,4,1,1,60,0,1
68619,-83.3333333333333,4,3,1,60,0,1
68943,-83.3333333333333,4,1,1,60,0,1
69051,-83.3333333333333,4,3,1,60,0,1
69374,-83.3333333333333,4,1,1,60,0,0
75849,-100,4,1,1,60,0,0

[Colours]
Combo1 : 128,0,0
Combo2 : 255,0,128
Combo3 : 128,128,192
Combo4 : 255,0,0

[HitObjects]
290,81,310,6,0,P|352:65|456:120,1,180,4|0,0:0|0:0,0:0:0:0:
352,192,1173,1,0,0:0:0:0:
256,331,1604,5,4,0:0:0:0:
257,223,1820,2,0,P|223:242|66:210,1,188.999994232178
254,40,3331,5,0,0:0:0:0:
433,126,3763,2,0,P|381:141|295:110,1,125.999996154785,4|0,0:0|0:0,0:0:0:0:
73,45,5058,5,4,0:0:0:0:
58,151,5274,2,0,L|35:284,1,125.999996154785,0|8,0:0|0:0,0:0:0:0:
121,345,5921,1,8,0:0:0:0:
178,254,6137,2,0,L|199:129,1,125.999996154785,4|8,0:0|0:0,0:0:0:0:
264,79,6784,1,8,0:0:0:0:
335,39,7000,1,8,0:0:0:0:
449,175,7216,6,0,P|389:183|258:168,1,180,4|8,0:0|0:0,0:0:0:0:
123,67,8079,2,0,P|183:59|314:74,1,180,0|8,0:0|0:0,0:0:0:0:
107,233,8943,2,0,P|68:187|31:62,1,180,0|8,0:0|0:0,0:0:0:0:
100,17,9590,1,0,0:0:0:0:
211,60,9806,2,0,P|250:106|287:231,1,180,0|8,0:0|0:0,0:0:0:0:
287,308,10453,1,0,0:0:0:0:
180,345,10669,6,0,P|125:348|-17:336,1,180,0|8,0:0|0:0,0:0:0:0:
71,173,11533,2,0,P|126:170|268:182,1,180,0|8,0:0|0:0,0:0:0:0:
339,192,12180,1,0,0:0:0:0:
423,305,12396,6,0,L|459:355,1,45
437,224,12720,2,0,L|424:168,1,45
485,41,13043,2,0,L|458:97,1,45
332,79,13367,2,0,L|304:23,2,45,0|0|0,0:0|0:0|0:0,0:0:0:0:
372,99,13691,1,8,0:0:0:0:
332,179,13907,1,0,0:0:0:0:
234,235,14122,6,0,P|161:236|127:229,1,90,4|0,0:0|0:0,0:0:0:0:
83,166,14554,2,0,P|82:93|89:59,1,90,8|0,0:0|0:0,0:0:0:0:
235,32,14986,2,0,P|287:32|412:108,1,180,0|8,0:0|0:0,0:0:0:0:
442,169,15633,1,0,0:0:0:0:
429,332,15849,2,0,P|373:335|316:324,1,90
257,292,16281,1,8,0:0:0:0:
121,336,16497,2,0,L|63:359,2,45
172,261,16928,1,0,0:0:0:0:
210,179,17144,1,8,0:0:0:0:
345,61,17360,6,0,L|397:50,2,45,0|0|0,0:0|0:0|0:0,0:0:0:0:
322,194,17792,2,0,L|270:236,2,45,0|0|8,0:0|0:0|0:0,0:0:0:0:
395,141,18223,1,0,0:0:0:0:
477,231,18439,2,0,P|431:258|372:266,1,90
320,86,18871,2,0,P|366:59|425:51,1,90,8|0,0:0|0:0,0:0:0:0:
322,194,19302,2,0,P|261:175|216:114,1,135
204,77,19734,2,0,L|122:172,1,90,8|0,0:0|0:0,0:0:0:0:
75,202,20166,1,0,0:0:0:0:
102,287,20381,1,0,0:0:0:0:
74,372,20597,1,8,0:0:0:0:
192,240,20813,6,0,L|252:266,2,45,0|0|0,0:0|0:0|0:0,0:0:0:0:
158,156,21245,1,0,0:0:0:0:
95,42,21461,2,0,P|185:29|240:56,1,135,8|0,0:0|0:0,0:0:0:0:
266,61,21892,2,0,L|280:158,1,90
333,221,22324,1,8,0:0:0:0:
223,198,22540,1,0,0:0:0:0:
280,292,22756,2,0,P|356:303|417:210,1,180,0|8,0:0|0:0,0:0:0:0:
388,65,23403,2,0,L|421:32,2,45
375,154,23835,1,0,0:0:0:0:
402,264,24051,2,0,B|422:355|422:355|400:342|374:337,1,135,8|0,0:0|0:0,0:0:0:0:
348,329,24482,6,0,P|284:324|234:331,1,90
106,357,24914,2,0,P|81:301|84:206,1,135,8|0,0:0|0:0,0:0:0:0:
81,182,25345,2,0,L|-11:238,1,90
170,203,25777,1,8,0:0:0:0:
112,105,25993,1,0,0:0:0:0:
170,203,26209,2,0,P|210:167|227:123,1,90
93,25,26640,2,0,P|47:57|42:145,1,135,8|0,0:0|0:0,0:0:0:0:
54,172,27072,1,0,0:0:0:0:
104,246,27288,1,0,0:0:0:0:
283,285,27504,2,0,P|321:245|337:139,1,135,8|0,0:0|0:0,0:0:0:0:
339,126,27935,6,0,L|434:215,1,108,4|0,0:0|0:0,0:0:0:0:
448,125,28367,2,0,L|357:40,1,108,8|0,0:0|0:0,0:0:0:0:
294,47,28799,2,0,L|190:105,1,108
174,173,29230,5,8,0:0:0:0:
219,251,29446,1,0,0:0:0:0:
287,359,29662,2,0,P|227:375|95:351,1,180,0|8,0:0|0:0,0:0:0:0:
32,232,30310,1,0,0:0:0:0:
32,232,30417,1,0,0:0:0:0:
32,232,30525,2,0,P|88:228|148:240,1,90
240,252,30957,2,0,P|281:203|296:158,1,90,8|0,0:0|0:0,0:0:0:0:
242,32,31389,6,0,P|208:65|162:143,1,135
148,182,31820,2,0,L|76:86,1,90,8|0,0:0|0:0,0:0:0:0:
109,257,32252,1,0,0:0:0:0:
198,250,32468,1,0,0:0:0:0:
229,165,32684,1,8,0:0:0:0:
298,60,32899,1,0,0:0:0:0:
298,60,33007,1,0,0:0:0:0:
298,60,33115,2,0,P|358:48|448:71,1,135
469,83,33547,1,8,0:0:0:0:
430,164,33763,1,0,0:0:0:0:
370,263,33979,2,0,P|422:281|482:269,1,90
430,164,34410,2,0,P|378:146|310:168,1,90,8|0,0:0|0:0,0:0:0:0:
256,229,34842,6,0,L|159:320,1,108,4|0,0:0|0:0,0:0:0:0:
85,285,35274,2,0,L|163:211,1,108,8|0,0:0|0:0,0:0:0:0:
148,123,35705,2,0,L|51:214,1,108
9,249,36137,5,8,0:0:0:0:
2,159,36353,1,0,0:0:0:0:
115,47,36568,2,0,P|166:43|222:149,1,180,0|8,0:0|0:0,0:0:0:0:
202,229,37216,1,0,0:0:0:0:
216,317,37432,2,0,P|257:297|286:246,1,90
333,116,37863,2,0,P|292:136|263:187,1,90,8|0,0:0|0:0,0:0:0:0:
350,205,38295,5,0,0:0:0:0:
413,141,38511,1,0,0:0:0:0:
274,51,38727,2,0,B|244:85|244:85|201:75|201:75|174:124|112:123,1,180,8|0,0:0|0:0,0:0:0:0:
38,131,39374,1,0,0:0:0:0:
55,221,39590,2,0,L|82:321,1,90,8|0,0:0|0:0,0:0:0:0:
205,310,40022,2,0,L|228:223,1,90
304,110,40453,2,0,P|363:99|452:121,1,135,8|0,0:0|0:0,0:0:0:0:
474,136,40885,6,0,L|464:197,3,45
467,225,41317,2,0,L|477:291,3,45,8|0|0|0,0:0|0:0|0:0|0:0,0:0:0:0:
480,314,41748,6,0,P|406:303|287:318,1,180,4|8,0:0|0:0,0:0:0:0:
216,343,42396,1,0,0:0:0:0:
237,214,42612,2,0,L|264:71,1,135
269,36,43043,1,8,0:0:0:0:
185,68,43259,1,0,0:0:0:0:
118,191,43475,2,0,L|102:288,1,90
58,131,43907,2,0,L|37:25,1,90,8|0,0:0|0:0,0:0:0:0:
118,191,44338,2,0,P|188:195|271:188,1,135
297,184,44770,1,8,0:0:0:0:
275,271,44986,1,0,0:0:0:0:
393,354,45202,6,0,B|429:343|429:343|448:302|448:302|488:272|479:206,1,180,4|8,0:0|0:0,0:0:0:0:
448,130,45849,1,0,0:0:0:0:
380,70,46065,2,0,P|358:119|373:177,1,90
474,109,46497,2,0,P|496:60|481:2,1,90,8|0,0:0|0:0,0:0:0:0:
380,70,46928,1,0,0:0:0:0:
311,127,47144,1,0,0:0:0:0:
201,127,47360,1,8,0:0:0:0:
132,70,47576,1,0,0:0:0:0:
258,191,47792,2,0,P|239:250|144:294,1,135
135,294,48223,1,8,0:0:0:0:
102,377,48439,1,0,0:0:0:0:
51,270,48655,6,0,P|79:227|126:207,1,90,4|0,0:0|0:0,0:0:0:0:
298,220,49086,2,0,P|270:263|223:283,1,90,8|0,0:0|0:0,0:0:0:0:
191,282,49410,1,0,0:0:0:0:
156,253,49518,2,0,P|142:181|163:56,1,180,0|8,0:0|0:0,0:0:0:0:
223,16,50166,1,0,0:0:0:0:
322,91,50381,2,0,P|367:119|409:127,1,90
414,216,50813,2,0,P|359:225|309:217,1,90,8|0,0:0|0:0,0:0:0:0:
242,186,51245,2,0,P|184:177|91:195,1,135
67,205,51676,1,8,0:0:0:0:
84,116,51892,1,0,0:0:0:0:
85,290,52108,6,0,P|19:280|-15:175,1,180,0|8,0:0|0:0,0:0:0:0:
2,95,52756,1,0,0:0:0:0:
167,53,52971,2,0,P|222:48|270:61,1,90
371,178,53403,2,0,P|316:183|268:170,1,90,8|0,0:0|0:0,0:0:0:0:
327,97,53835,1,0,0:0:0:0:
406,54,54051,1,0,0:0:0:0:
492,150,54266,2,0,P|502:213|481:265,1,90,8|0,0:0|0:0,0:0:0:0:
478,278,54590,1,0,0:0:0:0:
440,303,54698,6,0,L|390:339,3,45,8|0|0|0,0:0|0:0|0:0|0:0,0:0:0:0:
358,334,55130,2,0,L|321:307,3,45,8|0|0|0,0:0|0:0|0:0|0:0,0:0:0:0:
284,281,55561,6,0,P|218:297|56:273,1,215.999993408203,4|8,0:0|0:0,0:0:0:0:
23,183,56209,1,0,0:0:0:0:
119,72,56425,2,0,P|185:56|347:80,1,215.999993408203,0|8,0:0|0:0,0:0:0:0:
435,182,57072,1,0,0:0:0:0:
435,182,57180,1,0,0:0:0:0:
435,182,57288,2,0,P|377:225|326:227,1,107.999996704102
176,209,57720,2,0,P|234:166|285:164,1,107.999996704102,8|0,0:0|0:0,0:0:0:0:
262,270,58151,1,0,0:0:0:0:
169,324,58367,1,0,0:0:0:0:
72,240,58583,1,8,0:0:0:0:
115,141,58799,1,0,0:0:0:0:
256,52,59015,6,0,P|338:41|479:53,1,215.999993408203,4|8,0:0|0:0,0:0:0:0:
503,154,59662,1,0,0:0:0:0:
469,256,59878,2,0,P|387:267|246:255,1,215.999993408203,0|8,0:0|0:0,0:0:0:0:
93,207,60525,1,0,0:0:0:0:
93,207,60633,1,0,0:0:0:0:
93,207,60741,2,0,L|66:323,1,107.999996704102
168,158,61173,2,0,L|155:39,1,107.999996704102,8|0,0:0|0:0,0:0:0:0:
64,108,61604,1,0,0:0:0:0:
168,158,61820,1,0,0:0:0:0:
253,92,62036,1,8,0:0:0:0:
429,117,62252,1,0,0:0:0:0:
429,117,62360,1,0,0:0:0:0:
429,117,62468,6,0,P|440:178|427:239,1,107.999996704102,4|0,0:0|0:0,0:0:0:0:
269,294,62899,2,0,P|314:244|364:228,1,107.999996704102,8|0,0:0|0:0,0:0:0:0:
481,296,63331,2,0,P|436:346|386:362,1,107.999996704102
344,363,63655,1,0,0:0:0:0:
290,369,63763,2,0,P|203:368|153:369,1,107.999996704102,8|0,0:0|0:0,0:0:0:0:
94,304,64194,1,0,0:0:0:0:
38,211,64410,1,0,0:0:0:0:
140,178,64626,1,8,0:0:0:0:
163,72,64842,1,0,0:0:0:0:
248,138,65058,2,0,P|316:119|468:145,1,215.999993408203,0|8,0:0|0:0,0:0:0:0:
482,309,65705,1,0,0:0:0:0:
482,309,65813,1,0,0:0:0:0:
482,309,65921,6,0,P|414:328|262:302,1,215.999993408203,4|8,0:0|0:0,0:0:0:0:
204,222,66568,1,0,0:0:0:0:
107,173,66784,2,0,P|95:226|122:290,1,107.999996704102
293,183,67216,2,0,P|255:143|187:130,1,107.999996704102,8|0,0:0|0:0,0:0:0:0:
280,266,67648,2,0,B|343:270|384:225|373:165|373:165|437:142,1,215.999993408203,0|8,0:0|0:0,0:0:0:0:
468,48,68295,1,0,0:0:0:0:
307,62,68511,6,0,L|247:41,3,53.9999983520508,8|0|0|0,0:0|0:0|0:0|0:0,0:0:0:0:
201,45,68943,2,0,L|150:62,3,53.9999983520508,8|0|0|0,0:0|0:0|0:0|0:0,0:0:0:0:
97,49,69374,6,0,P|68:118|90:275,1,215.999993408203,4|8,0:0|0:0,0:0:0:0:
151,337,70022,1,0,0:0:0:0:
223,256,70238,2,0,P|278:215|337:199,1,107.999996704102
415,244,70669,2,0,P|360:285|301:301,1,107.999996704102,8|0,0:0|0:0,0:0:0:0:
146,220,71101,6,0,P|214:157|331:118,1,215.999993408203,4|8,0:0|0:0,0:0:0:0:
437,108,71748,1,0,0:0:0:0:
465,212,71964,2,0,L|504:346,1,107.999996704102
332,283,72396,1,8,0:0:0:0:
332,283,72504,1,0,0:0:0:0:
332,283,72612,2,0,P|266:277|204:287,1,107.999996704102
122,319,73043,5,0,0:0:0:0:
138,212,73259,2,0,L|161:84,1,107.999996704102,8|0,0:0|0:0,0:0:0:0:
255,59,73691,2,0,L|274:194,1,107.999996704102
311,201,74015,1,0,0:0:0:0:
355,231,74122,2,0,L|365:316,3,53.9999983520508,8|0|0|0,0:0|0:0|0:0|0:0,0:0:0:0:
397,324,74554,5,0,0:0:0:0:
296,363,74770,1,0,0:0:0:0:
206,302,74986,1,8,0:0:0:0:
110,353,75202,1,0,0:0:0:0:
51,261,75417,1,0,0:0:0:0:
63,153,75633,2,0,L|124:91,1,53.9999983520508
132,82,75849,6,0,P|185:126|292:128,1,180,8|4,0:0|0:0,0:0:0:0:
256,192,76389,12,4,77845,0:0:0:0:
