osu file format v14

[General]
AudioFilename: Radio-Death_Parade_OP_Opening__[HD_720P].mp3
AudioLeadIn: 1500
PreviewTime: 41748
Countdown: 0
SampleSet: Normal
StackLeniency: 0.7
Mode: 0
LetterboxInBreaks: 0
WidescreenStoryboard: 0

[Editor]
DistanceSpacing: 0.8
BeatDivisor: 4
GridSize: 4
TimelineZoom: 1

[Metadata]
Title:Flyers
TitleUnicode:Flyers
Artist:BRADIO
ArtistUnicode:BRADIO
Creator:luxoDeh
Version:Easy
Source:Death Parade
Tags:opening tv size version デス・パレード billiards Takaaki Shingyoji Soichi Ohyama Ryosuke Sakai Yuki Tanabe madhouse Akareh ryuu
BeatmapID:644753
BeatmapSetID:265617

[Difficulty]
HPDrainRate:3
CircleSize:3
OverallDifficulty:3
ApproachRate:3
SliderMultiplier:1.2
SliderTickRate:1

[Events]
//Background and Video events
0,0,"background.png",0,0
Video,932,"Death+Parade+OP.avi"
//Break Periods
//Storyboard Layer 0 (Background)
//Storyboard Layer 1 (Fail)
//Storyboard Layer 2 (Pass)
//Storyboard Layer 3 (Foreground)
//Storyboard Sound Samples

[TimingPoints]
310,431.654676258993,4,1,1,60,1,0
2252,-100,4,2,1,60,0,0
3547,-100,4,1,1,60,0,0
3979,-100,4,2,1,60,0,0
5058,-100,4,1,1,60,0,0
5489,-100,4,1,2,60,0,0
5921,-100,4,1,1,60,0,0
6353,-100,4,3,1,60,0,0
7000,-100,4,1,1,60,0,0
17792,-100,4,1,2,60,0,0
18223,-100,4,1,1,60,0,0
19518,-100,4,1,2,60,0,0
19950,-100,4,1,1,60,0,0
21245,-100,4,1,2,60,0,0
21676,-100,4,1,1,60,0,0
22971,-100,4,1,2,60,0,0
23403,-100,4,1,1,60,0,0
26425,-100,4,1,2,60,0,0
26856,-100,4,1,1,60,0,0
41748,-100,4,1,1,60,0,1
43691,-100,4,1,2,60,0,1
44986,-100,4,1,1,60,0,1
47144,-100,4,1,2,60,0,1
48439,-100,4,1,1,60,0,1
50597,-100,4,1,2,60,0,1
51892,-100,4,1,1,60,0,1
54051,-100,4,1,2,60,0,1
54482,-100,4,1,1,60,0,1
55777,-100,4,1,2,60,0,1
57072,-100,4,1,1,60,0,1
59230,-100,4,1,2,60,0,1
59662,-100,4,1,1,60,0,1
60957,-100,4,1,2,60,0,1
62252,-100,4,1,1,60,0,1
64410,-100,4,1,2,60,0,1
64842,-100,4,1,1,60,0,1
66137,-100,4,1,2,60,0,1
67432,-100,4,1,1,60,0,1
69374,-100,4,1,1,60,0,0

[Colours]
Combo1 : 128,0,0
Combo2 : 255,0,128
Combo3 : 128,128,192
Combo4 : 255,0,0

[HitObjects]
15,80,310,6,0,B|-30:168|30:263|30:263|128:168|240:217,1,420,4|4,0:0|0:0,0:0:0:0:
325,329,2468,2,0,P|378:322|457:161,1,240
379,117,3763,6,0,B|278:101|175:118|175:118|251:265,1,360,4|4,0:0|0:0,0:0:0:0:
263,300,5274,2,0,B|184:262|104:258|104:258|115:336,2,240
307,319,7216,5,4,0:0:0:0:
498,330,8079,1,0,0:0:0:0:
453,143,8943,2,0,P|411:91|234:67,1,240
159,100,10238,1,8,0:0:0:0:
106,179,10669,6,0,B|78:248|99:326|99:326|293:207,1,360,4|8,0:0|0:0,0:0:0:0:
360,167,12396,2,0,P|414:185|471:291,2,180,0|0|8,0:0|0:0|0:0,0:0:0:0:
264,179,14122,5,4,0:0:0:0:
124,310,14986,1,0,0:0:0:0:
85,121,15849,2,0,L|16:20,2,120,0|8|0,0:0|0:0|0:0,0:0:0:0:
218,259,17576,6,0,P|274:265|460:256,1,240
496,168,18871,1,8,0:0:0:0:
453,81,19302,2,0,P|397:75|201:86,1,240
51,185,21029,6,0,B|52:262|102:327|102:327|158:234|281:234,1,360,4|8,0:0|0:0,0:0:0:0:
371,239,22756,2,0,B|435:256|465:314|465:314|482:68,1,360,0|8,0:0|0:0,0:0:0:0:
389,48,24482,6,0,L|265:84,1,120,0|8,0:0|0:0,0:0:0:0:
177,78,25345,2,0,L|61:44,1,120,0|8,0:0|0:0,0:0:0:0:
10,125,26209,2,0,P|17:283|208:294,1,360,0|8,0:0|0:0,0:0:0:0:
272,261,27935,6,0,L|378:186,2,120,4|8|0,0:0|0:0|0:0,0:0:0:0:
176,249,29230,2,0,P|137:186|150:24,2,240,8|8|8,0:0|0:0|0:0,0:0:0:0:
256,301,31389,5,0,0:0:0:0:
447,315,32252,1,0,0:0:0:0:
430,123,33115,2,0,P|434:76|399:-6,1,120,0|8,0:0|0:0,0:0:0:0:
322,47,33979,2,0,P|273:35|190:41,1,120,0|8,0:0|0:0,0:0:0:0:
173,128,34842,6,0,P|147:165|141:263,2,120,4|8|0,0:0|0:0|0:0,0:0:0:0:
269,128,36137,2,0,P|303:186|298:360,2,240,8|8|8,0:0|0:0|0:0,0:0:0:0:
172,125,38295,6,0,L|48:164,1,120,0|8,0:0|0:0,0:0:0:0:
59,257,39158,2,0,L|25:380,1,120,0|8,0:0|0:0,0:0:0:0:
122,359,40022,1,0,0:0:0:0:
216,343,40453,1,8,0:0:0:0:
311,329,40885,1,8,0:0:0:0:
445,192,41748,5,4,0:0:0:0:
437,96,42180,2,0,P|351:43|201:45,1,240,8|8,0:0|0:0,0:0:0:0:
156,116,43475,2,0,B|157:172|187:228|187:228|48:219,2,240,0|0|4,0:0|0:0|0:0,0:0:0:0:
170,20,45633,5,8,0:0:0:0:
255,63,46065,2,0,L|380:126,1,120,0|8,0:0|0:0,0:0:0:0:
440,172,46928,2,0,B|468:297|468:297|403:267|353:284,2,240,0|0|4,0:0|0:0|0:0,0:0:0:0:
416,78,49086,5,8,0:0:0:0:
323,51,49518,2,0,P|242:43|180:57,1,120,0|8,0:0|0:0,0:0:0:0:
123,101,50381,2,0,P|101:148|139:335,2,240,0|0|4,0:0|0:0|0:0,0:0:0:0:
198,40,52540,5,8,0:0:0:0:
256,115,52971,2,0,L|339:220,1,120,0|8,0:0|0:0,0:0:0:0:
408,268,53835,2,0,B|364:316|296:296|296:296|245:275|174:297,1,240
92,332,55130,1,8,0:0:0:0:
104,236,55561,6,0,B|120:116|120:116|44:120|12:72,2,240,4|0|0,0:0|0:0|0:0,0:0:0:0:
92,332,57720,1,8,0:0:0:0:
183,301,58151,2,0,L|302:263,1,120,0|8,0:0|0:0,0:0:0:0:
391,245,59015,6,0,B|433:251|496:302|496:302|491:163,1,240
487,86,60310,1,8,0:0:0:0:
402,40,60741,2,0,P|269:32|154:41,2,240,0|0|4,0:0|0:0|0:0,0:0:0:0:
461,115,62899,6,0,L|485:241,2,120,8|0|8,0:0|0:0|0:0,0:0:0:0:
394,45,64194,2,0,B|334:150|334:150|263:111|196:118|196:118|171:158|98:165,1,360,0|8,0:0|0:0,0:0:0:0:
19,176,65921,6,0,B|28:241|95:261|95:261|14:366,2,240,4|0|0,0:0|0:0|0:0,0:0:0:0:
38,79,68079,2,0,P|71:36|160:21,2,120,8|0|8,0:0|0:0|0:0,0:0:0:0:
127,114,69374,6,0,P|202:125|377:110,1,240,4|0,0:0|0:0,0:0:0:0:
453,76,70669,1,8,0:0:0:0:
441,171,71101,2,0,B|421:325|421:325|351:309|321:324,1,240,4|0,0:0|0:0,0:0:0:0:
241,305,72396,1,8,0:0:0:0:
150,337,72827,6,0,P|86:318|28:150,2,240,4|0|4,0:0|0:0|0:0,0:0:0:0:
241,305,74986,1,8,0:0:0:0:
236,209,75417,2,0,P|250:147|304:102,2,120,0|8|4,0:0|0:0|0:0,0:0:0:0:
256,192,76497,12,4,77845,0:0:0:0:
