osu file format v14

[General]
AudioFilename: Radio-Death_Parade_OP_Opening__[HD_720P].mp3
AudioLeadIn: 1500
PreviewTime: 41748
Countdown: 0
SampleSet: Normal
StackLeniency: 0.7
Mode: 0
LetterboxInBreaks: 0
WidescreenStoryboard: 0

[Editor]
DistanceSpacing: 1
BeatDivisor: 4
GridSize: 4
TimelineZoom: 1.2

[Metadata]
Title:Flyers
TitleUnicode:Flyers
Artist:BRADIO
ArtistUnicode:BRADIO
Creator:luxoDeh
Version:Dance
Source:Death Parade
Tags:opening tv size version デス・パレード billiards Takaaki Shingyoji Soichi Ohyama Ryosuke Sakai Yuki Tanabe madhouse Akareh ryuu
BeatmapID:628139
BeatmapSetID:265617

[Difficulty]
HPDrainRate:7
CircleSize:4.3
OverallDifficulty:8
ApproachRate:9
SliderMultiplier:2
SliderTickRate:1

[Events]
//Background and Video events
0,0,"background.png",0,0
Video,932,"Death+Parade+OP.avi"
//Break Periods
//Storyboard Layer 0 (Background)
//Storyboard Layer 1 (Fail)
//Storyboard Layer 2 (Pass)
//Storyboard Layer 3 (Foreground)
//Storyboard Sound Samples

[TimingPoints]
310,431.654676258993,4,1,1,60,1,0
741,-100,4,2,1,60,0,0
1604,-100,4,1,1,60,0,0
1820,-142.857142857143,4,1,1,60,0,0
2252,-142.857142857143,4,2,1,60,0,0
3763,-142.857142857143,4,1,1,60,0,0
4194,-142.857142857143,4,2,1,60,0,0
4842,-142.857142857143,4,1,1,60,0,0
5489,-100,4,1,1,60,0,0
5597,-100,4,3,1,60,0,0
7216,-100,4,1,1,60,0,0
12396,-83.3333333333333,4,1,1,60,0,0
12504,-83.3333333333333,4,3,1,60,0,0
14122,-100,4,1,1,60,0,0
14770,-100,4,1,1,60,0,0
20166,-133.333333333333,4,1,1,60,0,0
20597,-100,4,1,1,60,0,0
27935,-125,4,1,1,60,0,0
28259,-125,4,2,1,60,0,0
28367,-125,4,1,1,60,0,0
28691,-125,4,2,1,60,0,0
28799,-125,4,1,1,60,0,0
29122,-125,4,2,1,60,0,0
29230,-100,4,1,1,60,0,0
34842,-125,4,1,1,60,0,0
35166,-125,4,2,1,60,0,0
35274,-125,4,1,1,60,0,0
35597,-125,4,2,1,60,0,0
35705,-125,4,1,1,60,0,0
36029,-125,4,2,1,60,0,0
36137,-100,4,1,1,60,0,0
40993,-100,4,3,1,60,0,0
41317,-100,4,1,1,60,0,0
41425,-100,4,3,1,60,0,0
41748,-100,4,1,1,60,0,1
54590,-100,4,3,1,60,0,1
55130,-100,4,1,1,60,0,1
55238,-100,4,3,1,60,0,1
55561,-83.3333333333333,4,1,1,60,0,1
68619,-83.3333333333333,4,3,1,60,0,1
68943,-83.3333333333333,4,1,1,60,0,1
69051,-83.3333333333333,4,3,1,60,0,1
69374,-83.3333333333333,4,1,1,60,0,0
76820,-83.3333333333333,4,2,1,60,0,0
77576,-83.3333333333333,4,1,1,60,0,0
77792,-71.4285714285714,4,1,1,60,0,0
78223,-71.4285714285714,4,1,1,20,0,0

[Colours]
Combo1 : 128,0,0
Combo2 : 255,0,128
Combo3 : 128,128,192
Combo4 : 255,0,0

[HitObjects]
440,116,310,5,4,0:0:0:0:
440,116,741,2,0,B|452:176|504:216|504:216|448:232|440:292|440:292|372:320,1,300
256,300,1604,1,4,0:0:0:0:
76,48,1820,6,0,B|92:100|64:168|64:168|104:152|104:152|160:168,1,209.999993591309,4|0,0:0|0:0,0:0:0:0:
229,175,2684,2,0,B|278:180|278:180|263:109|263:109|332:112|353:67,1,209.999993591309
482,292,3763,6,0,B|456:324|417:333|417:333|387:296|343:288|343:288|319:333,1,209.999993591309,4|0,0:0|0:0,0:0:0:0:
244,356,4626,1,0,0:0:0:0:
120,76,5058,1,0,0:0:0:0:
124,159,5274,1,0,0:0:0:0:
305,167,5489,6,0,L|327:101,1,50,4|0,0:0|0:0,0:0:0:0:
348,97,5705,1,8,0:0:0:0:
399,220,5813,2,0,L|467:208,2,50
275,297,6137,6,0,L|258:229,1,50,8|0,0:0|0:0,0:0:0:0:
213,137,6353,2,0,L|199:197,1,50
177,211,6568,1,8,0:0:0:0:
26,193,6784,5,8,0:0:0:0:
71,332,7000,1,8,0:0:0:0:
138,101,7216,6,0,B|174:48|237:57|237:57|275:97|282:94|330:78,1,200,4|8,0:0|0:0,0:0:0:0:
422,41,7863,1,0,0:0:0:0:
482,232,8079,2,0,B|472:287|427:322|427:322|407:268|407:268|338:251,1,200,0|8,0:0|0:0,0:0:0:0:
253,255,8727,1,0,0:0:0:0:
52,350,8943,6,0,B|97:289|91:265|91:265|52:218|52:218|81:180,1,200,0|8,0:0|0:0,0:0:0:0:
162,97,9590,1,0,0:0:0:0:
344,179,9806,2,0,B|395:216|482:157|482:157|430:118,1,200,0|8,0:0|0:0,0:0:0:0:
349,48,10453,1,0,0:0:0:0:
455,272,10669,6,0,B|471:357|471:357|417:341|417:341|387:350|323:337,1,200,4|8,0:0|0:0,0:0:0:0:
256,282,11317,1,0,0:0:0:0:
173,51,11533,2,0,B|161:118|161:118|100:79|61:82|61:82|37:115,1,200,0|8,0:0|0:0,0:0:0:0:
16,217,12180,1,0,0:0:0:0:
131,303,12396,6,0,L|196:292,1,59.9999981689454,4|0,0:0|0:0,0:0:0:0:
220,298,12612,1,8,0:0:0:0:
254,189,12720,1,0,0:0:0:0:
289,176,12827,2,0,L|349:223,1,59.9999981689454,4|0,0:0|0:0,0:0:0:0:
440,272,13043,6,0,L|431:338,2,59.9999981689454,8|0|0,0:0|0:0|0:0,0:0:0:0:
496,122,13367,5,0,0:0:0:0:
464,136,13475,1,8,0:0:0:0:
425,136,13583,1,0,0:0:0:0:
390,124,13691,1,8,0:0:0:0:
363,100,13799,1,0,0:0:0:0:
351,65,13907,1,8,0:0:0:0:
350,28,14015,1,0,0:0:0:0:
250,69,14122,6,0,B|139:101|139:101|165:40,1,150,4|0,0:0|0:0,0:0:0:0:
161,30,14554,2,0,L|61:59,1,100,8|0,0:0|0:0,0:0:0:0:
81,280,14986,2,0,B|192:312|192:312|166:251,1,150
170,241,15417,2,0,L|270:270,1,100,8|0,0:0|0:0,0:0:0:0:
343,289,15849,1,0,0:0:0:0:
469,200,16065,1,0,0:0:0:0:
397,49,16281,1,8,0:0:0:0:
283,164,16497,2,0,B|260:100|260:100|224:140|166:132|166:132|170:79,1,200
168,74,17036,1,0,0:0:0:0:
168,47,17144,2,0,L|56:56,1,100,8|0,0:0|0:0,0:0:0:0:
40,160,17576,6,0,P|89:178|134:225,1,100,4|0,0:0|0:0,0:0:0:0:
179,380,18007,2,0,B|162:326|181:259|181:259|192:281|233:301,1,150,8|0,0:0|0:0,0:0:0:0:
235,294,18439,2,0,P|295:302|353:281,1,100
406,260,18871,1,8,0:0:0:0:
474,71,19086,1,0,0:0:0:0:
492,274,19302,5,0,0:0:0:0:
395,77,19518,1,0,0:0:0:0:
451,248,19734,1,8,0:0:0:0:
357,95,19950,1,0,0:0:0:0:
254,195,20166,6,0,B|239:212|239:212|211:108,1,112.500004291535
204,86,20597,6,0,B|174:115|125:121|125:121|76:106,1,100,8|0,0:0|0:0,0:0:0:0:
36,249,21029,6,0,P|52:307|105:350,1,100,4|0,0:0|0:0,0:0:0:0:
344,296,21461,2,0,B|344:272|328:232|328:232|344:176|304:128|304:128|348:136,1,200,8|0,0:0|0:0,0:0:0:0:
404,144,22108,1,0,0:0:0:0:
481,247,22324,2,0,B|492:302|494:334|494:334|481:359,1,100,8|0,0:0|0:0,0:0:0:0:
404,144,22756,6,0,L|431:82,1,50
444,63,22971,2,0,B|363:66|363:66|339:79,1,100,0|8,0:0|0:0,0:0:0:0:
295,137,23403,1,0,0:0:0:0:
202,301,23619,1,0,0:0:0:0:
369,218,23835,1,0,0:0:0:0:
369,218,23943,1,0,0:0:0:0:
369,218,24051,2,0,P|426:221|470:195,1,100,8|0,0:0|0:0,0:0:0:0:
283,56,24482,6,0,B|224:74|213:131|213:131|170:93,1,150
56,93,24914,2,0,B|128:156|128:156|88:170|74:205,1,150,8|0,0:0|0:0,0:0:0:0:
46,304,25345,2,0,P|89:312|147:223,1,150
237,169,25777,2,0,B|290:162|349:169|349:169|393:149,1,150,8|0,0:0|0:0,0:0:0:0:
461,103,26209,6,0,B|457:188|457:188|477:225,1,100
459,346,26640,2,0,B|401:357|361:352|361:352|359:331|341:298,1,150,8|0,0:0|0:0,0:0:0:0:
254,262,27072,2,0,P|252:321|256:366,1,100
303,182,27504,2,0,B|264:163|221:169|191:194|191:194|159:169,1,150
138,155,27935,6,0,L|151:305,1,120,4|0,0:0|0:0,0:0:0:0:
27,347,28367,2,0,L|42:204,1,120,8|0,0:0|0:0,0:0:0:0:
86,65,28799,2,0,B|118:69|118:69|147:61|147:61|186:69|226:61,1,120
300,55,29230,6,0,P|323:110|330:171,1,100,8|0,0:0|0:0,0:0:0:0:
285,305,29662,2,0,B|309:326|309:326|363:299|425:322,1,150
461,334,30094,1,8,0:0:0:0:
458,136,30310,1,0,0:0:0:0:
458,136,30417,1,0,0:0:0:0:
458,136,30525,2,0,B|420:186|343:190|343:190|358:108,1,200,0|8,0:0|0:0,0:0:0:0:
425,38,31173,1,0,0:0:0:0:
344,191,31389,6,0,B|266:209|180:190|180:190|226:145,1,200,4|8,0:0|0:0,0:0:0:0:
276,41,32036,1,0,0:0:0:0:
276,41,32144,1,0,0:0:0:0:
276,41,32252,2,0,B|196:27|112:47|112:47|135:81,1,200,0|8,0:0|0:0,0:0:0:0:
182,220,32899,2,0,L|202:277,1,50
213,304,33115,6,0,B|98:287|98:287|56:314,1,150
40,333,33547,1,8,0:0:0:0:
264,365,33763,1,0,0:0:0:0:
264,365,33871,1,0,0:0:0:0:
264,365,33979,2,0,B|308:303|267:252|267:252|315:261,1,150
332,266,34410,2,0,B|403:290|403:290|439:282,1,100,8|0,0:0|0:0,0:0:0:0:
493,138,34842,6,0,P|464:78|385:44,1,120,4|0,0:0|0:0,0:0:0:0:
351,135,35274,2,0,P|282:137|204:130,1,120,8|0,0:0|0:0,0:0:0:0:
123,154,35705,2,0,P|152:214|231:248,1,120
233,254,36137,6,0,B|172:305|172:305|154:346,1,100,8|0,0:0|0:0,0:0:0:0:
349,336,36568,2,0,B|442:257|442:257|453:207,1,150
450,189,37000,1,8,0:0:0:0:
322,44,37216,1,0,0:0:0:0:
322,44,37324,1,0,0:0:0:0:
322,44,37432,2,0,P|314:98|338:153,1,100
349,336,37863,2,0,P|418:331|483:238,1,150,8|0,0:0|0:0,0:0:0:0:
483,237,38295,5,4,0:0:0:0:
455,97,38511,1,0,0:0:0:0:
337,204,38727,2,0,P|262:214|170:193,1,150,8|0,0:0|0:0,0:0:0:0:
156,176,39158,2,0,B|172:261|172:261|128:259,1,100
64,97,39590,1,8,0:0:0:0:
220,48,39806,1,0,0:0:0:0:
355,125,40022,6,0,P|399:158|416:215,1,100,4|0,0:0|0:0,0:0:0:0:
307,356,40453,2,0,B|267:317|249:242|249:242|288:248,1,150,8|0,0:0|0:0,0:0:0:0:
308,253,40885,5,8,0:0:0:0:
292,216,40993,1,0,0:0:0:0:
276,178,41101,1,0,0:0:0:0:
259,141,41209,1,0,0:0:0:0:
262,101,41317,5,8,0:0:0:0:
233,93,41425,1,0,0:0:0:0:
204,83,41533,1,0,0:0:0:0:
175,73,41640,1,0,0:0:0:0:
137,59,41748,6,0,B|169:164|169:164|120:148,1,150,4|0,0:0|0:0,0:0:0:0:
95,132,42180,2,0,L|127:240,1,100,8|0,0:0|0:0,0:0:0:0:
99,304,42612,1,0,0:0:0:0:
256,363,42827,1,0,0:0:0:0:
424,158,43043,2,0,B|397:225|397:225|421:267|412:331,1,150,8|0,0:0|0:0,0:0:0:0:
411,339,43475,5,0,0:0:0:0:
351,211,43691,2,0,B|380:138|380:138|380:100,1,100,0|8,0:0|0:0,0:0:0:0:
179,37,44122,1,0,0:0:0:0:
179,37,44230,1,0,0:0:0:0:
179,37,44338,2,0,P|155:90|156:139,1,100
255,266,44770,1,8,0:0:0:0:
256,125,44986,2,0,B|275:80|341:50|341:50|353:113,1,150
357,122,45417,6,0,P|419:97|469:98,1,100,0|8,0:0|0:0,0:0:0:0:
485,303,45849,1,0,0:0:0:0:
485,303,45957,1,0,0:0:0:0:
485,303,46065,2,0,P|428:330|375:326,1,100
300,173,46497,1,8,0:0:0:0:
290,289,46712,6,0,B|248:296|248:296|260:243|260:243|222:229|159:246,1,200
330,286,47360,2,0,B|300:368|300:368|274:385,1,100,8|0,0:0|0:0,0:0:0:0:
75,244,47792,2,0,B|79:203|105:171|147:164|147:164|103:127|103:127|102:127,1,150
93,112,48223,1,8,0:0:0:0:
256,138,48439,1,0,0:0:0:0:
425,56,48655,6,0,B|458:106|468:164|468:164|413:153,1,150,4|0,0:0|0:0,0:0:0:0:
395,150,49086,2,0,L|419:220,1,50,8|0,0:0|0:0,0:0:0:0:
451,331,49302,2,0,L|469:266,1,50
359,279,49518,2,0,P|302:269|237:278,1,100
221,285,49842,1,0,0:0:0:0:
185,302,49950,2,0,B|196:225|187:187|187:187|144:226,1,150,8|0,0:0|0:0,0:0:0:0:
126,230,50381,5,0,0:0:0:0:
197,35,50597,1,0,0:0:0:0:
83,158,50813,1,8,0:0:0:0:
273,54,51029,1,0,0:0:0:0:
400,173,51245,2,0,P|417:240|401:348,1,150
394,357,51676,2,0,L|501:322,1,100,8|0,0:0|0:0,0:0:0:0:
467,87,52108,5,0,0:0:0:0:
498,234,52324,1,0,0:0:0:0:
379,97,52540,2,0,P|322:93|272:98,1,100,8|0,0:0|0:0,0:0:0:0:
92,190,52971,2,0,B|103:234|99:283|99:283|144:262|177:268|177:268,1,150
192,266,53403,2,0,L|248:296,1,50,8|0,0:0|0:0,0:0:0:0:
345,316,53619,2,0,L|373:258,1,50
311,195,53835,5,0,0:0:0:0:
455,187,54051,2,0,B|460:164|458:134|458:134|433:119|417:86,1,100,0|8,0:0|0:0,0:0:0:0:
255,43,54482,2,0,L|218:99,1,50
140,62,54698,2,0,L|142:112,1,50,8|0,0:0|0:0,0:0:0:0:
69,164,54914,2,0,L|107:222,1,50
78,347,55130,5,8,0:0:0:0:
65,319,55238,1,0,0:0:0:0:
52,291,55345,1,0,0:0:0:0:
39,263,55453,1,0,0:0:0:0:
24,229,55561,6,0,B|159:244|159:244|131:188,1,179.999994506836,4|0,0:0|0:0,0:0:0:0:
123,159,55993,2,0,L|188:169,1,59.9999981689454,8|0,0:0|0:0,0:0:0:0:
280,63,56209,2,0,L|263:141,1,59.9999981689454
301,208,56425,2,0,B|359:175|425:179|425:179|404:236,1,179.999994506836
398,274,56856,2,0,L|469:257,1,59.9999981689454,8|0,0:0|0:0,0:0:0:0:
410,367,57072,2,0,L|338:361,1,59.9999981689454
256,326,57288,5,0,0:0:0:0:
99,181,57504,2,0,B|86:244|104:323|104:323|135:288,1,179.999994506836
162,260,57935,1,0,0:0:0:0:
280,112,58151,2,0,B|341:102|367:102|367:102|356:147,1,119.999996337891
348,180,58475,1,0,0:0:0:0:
334,226,58583,2,0,L|416:210,1,59.9999981689454,8|0,0:0|0:0,0:0:0:0:
488,268,58799,2,0,L|460:330,1,59.9999981689454
366,331,59015,6,0,P|293:339|163:329,1,179.999994506836,4|0,0:0|0:0,0:0:0:0:
146,305,59446,2,0,L|190:237,1,59.9999981689454,8|0,0:0|0:0,0:0:0:0:
97,119,59662,2,0,L|107:189,1,59.9999981689454
211,112,59878,2,0,B|271:65|340:41|340:41|322:97,1,179.999994506836
318,118,60310,1,8,0:0:0:0:
380,288,60525,1,0,0:0:0:0:
470,152,60741,6,0,B|482:108|451:67|451:67|401:84|351:49,1,179.999994506836
322,34,61173,2,0,L|254:47,1,59.9999981689454,8|0,0:0|0:0,0:0:0:0:
215,202,61389,2,0,L|250:142,1,59.9999981689454
172,87,61604,2,0,B|108:97|56:142|56:142|127:163,1,179.999994506836
149,169,62036,1,8,0:0:0:0:
85,325,62252,1,0,0:0:0:0:
246,275,62468,6,0,B|309:242|288:167|288:167|334:197,1,179.999994506836,4|0,0:0|0:0,0:0:0:0:
371,224,62899,2,0,L|387:135,1,59.9999981689454,8|0,0:0|0:0,0:0:0:0:
469,69,63115,2,0,L|477:135,1,59.9999981689454
493,277,63331,2,0,B|503:362|503:362|460:333,1,119.999996337891
428,326,63655,1,0,0:0:0:0:
380,320,63763,2,0,P|318:314|219:329,1,119.999996337891,8|0,0:0|0:0,0:0:0:0:
170,354,64194,5,0,0:0:0:0:
231,106,64410,1,0,0:0:0:0:
261,319,64626,1,8,0:0:0:0:
141,141,64842,1,0,0:0:0:0:
308,237,65058,2,0,B|358:219|410:237|410:237|419:204|443:189|443:189|429:148,1,179.999994506836
417,129,65489,1,8,0:0:0:0:
484,254,65705,1,0,0:0:0:0:
336,339,65921,6,0,P|261:344|198:336,1,119.999996337891,4|0,0:0|0:0,0:0:0:0:
64,165,66353,2,0,P|139:160|202:168,1,119.999996337891,8|0,0:0|0:0,0:0:0:0:
231,172,66676,1,0,0:0:0:0:
278,181,66784,2,0,L|245:110,1,59.9999981689454
369,42,67000,2,0,L|360:115,1,59.9999981689454
388,204,67216,2,0,B|417:177|459:179|459:179|486:194|508:226,1,119.999996337891,8|0,0:0|0:0,0:0:0:0:
504,325,67648,5,0,0:0:0:0:
336,355,67863,1,0,0:0:0:0:
161,314,68079,2,0,B|131:250|145:156|145:156|190:225,1,239.999992675781,8|8,0:0|0:0,0:0:0:0:
214,262,68619,5,0,0:0:0:0:
226,215,68727,1,0,0:0:0:0:
238,168,68835,1,0,0:0:0:0:
247,133,68943,5,8,0:0:0:0:
280,120,69051,1,0,0:0:0:0:
312,104,69158,1,0,0:0:0:0:
345,89,69266,1,0,0:0:0:0:
379,79,69374,6,0,P|388:145|504:143,1,179.999994506836,4|0,0:0|0:0,0:0:0:0:
506,131,69806,1,8,0:0:0:0:
466,335,70022,1,0,0:0:0:0:
288,277,70238,2,0,P|217:290|168:275,1,119.999996337891
144,253,70561,1,0,0:0:0:0:
115,231,70669,2,0,L|127:314,1,59.9999981689454,8|0,0:0|0:0,0:0:0:0:
37,168,70885,2,0,L|82:93,1,59.9999981689454
208,48,71101,6,0,B|247:61|279:128|279:128|304:84|347:83,1,179.999994506836,4|0,0:0|0:0,0:0:0:0:
367,80,71533,1,8,0:0:0:0:
480,247,71748,1,0,0:0:0:0:
317,225,71964,2,0,P|287:290|302:355,1,119.999996337891
314,365,72288,1,0,0:0:0:0:
278,358,72396,2,0,L|194:342,1,59.9999981689454,8|0,0:0|0:0,0:0:0:0:
187,199,72612,2,0,L|217:269,1,59.9999981689454
92,292,72827,5,0,0:0:0:0:
135,93,73043,1,0,0:0:0:0:
331,151,73259,1,8,0:0:0:0:
365,160,73367,1,0,0:0:0:0:
400,162,73475,1,0,0:0:0:0:
435,158,73583,1,0,0:0:0:0:
468,144,73691,6,0,L|454:224,1,59.9999981689454
499,351,73907,2,0,L|486:272,1,59.9999981689454
388,263,74122,5,8,0:0:0:0:
354,254,74230,1,0,0:0:0:0:
319,252,74338,1,0,0:0:0:0:
284,256,74446,1,0,0:0:0:0:
249,266,74554,5,4,0:0:0:0:
206,83,74770,1,0,0:0:0:0:
182,313,74986,1,8,0:0:0:0:
144,132,75202,1,0,0:0:0:0:
144,132,75310,1,0,0:0:0:0:
144,132,75417,6,0,B|177:165|232:168|266:130|266:130|291:145|328:144,1,179.999994506836
342,140,75849,1,8,0:0:0:0:
376,129,75957,1,0,0:0:0:0:
401,103,76065,1,0,0:0:0:0:
409,67,76173,1,0,0:0:0:0:
403,31,76281,6,0,B|461:166|461:166|429:207|435:259|435:259|370:248|328:314,1,359.999989013672,4|0,0:0|0:0,0:0:0:0:
276,372,77144,1,0,0:0:0:0:
201,190,77360,1,0,0:0:0:0:
74,344,77576,6,0,L|47:277,1,59.9999981689454,8|0,0:0|0:0,0:0:0:0:
35,250,77845,6,0,B|146:222|80:48|80:48|0:184,1,384.999988250733,4|0,0:0|0:0,0:0:0:0:
