osu file format v14

[General]
AudioFilename: Death Parade OP.mp3
AudioLeadIn: 0
PreviewTime: 41007
Countdown: 0
SampleSet: Normal
StackLeniency: 0.7
Mode: 3
LetterboxInBreaks: 0
SpecialStyle: 0
WidescreenStoryboard: 1

[Editor]
DistanceSpacing: 0.8
BeatDivisor: 4
GridSize: 4
TimelineZoom: 3.400004

[Metadata]
Title:Flyers (TV Size)
TitleUnicode:Flyers (TV Size)
Artist:BRADIO
ArtistUnicode:BRADIO
Creator:Kominaru
Version:5K Hard
Source:デス・パレード
Tags:death parade opening queendecim
BeatmapID:594545
BeatmapSetID:259269

[Difficulty]
HPDrainRate:8
CircleSize:5
OverallDifficulty:8
ApproachRate:5
SliderMultiplier:1.4
SliderTickRate:1

[Events]
//Background and Video events
0,0,"Death-Parade-12-Episodes.jpg",0,0
Video,0,"Death Parade OP.avi"
//Break Periods
//Storyboard Layer 0 (Background)
//Storyboard Layer 1 (Fail)
//Storyboard Layer 2 (Pass)
//Storyboard Layer 3 (Foreground)
//Storyboard Sound Samples

[TimingPoints]
1329.00575581983,431.654676258993,4,1,0,25,1,0
41041,-100,4,1,0,10,0,1
54638,-100,4,1,0,10,0,0
54854,-100,4,1,0,10,0,1
68667,-100,4,1,0,10,0,0

[HitObjects]
51,192,34,128,0,897:0:0:0:0:
460,192,897,1,0,0:0:0:0:
153,192,897,1,0,0:0:0:0:
256,192,1113,128,0,2623:0:0:0:0:
192,192,1760,1,0,0:0:0:0:
64,192,2192,1,0,0:0:0:0:
448,192,2623,1,0,0:0:0:0:
358,192,2623,1,0,0:0:0:0:
153,192,2839,1,0,0:0:0:0:
64,192,3055,128,0,4350:0:0:0:0:
192,192,3487,1,0,0:0:0:0:
448,192,3918,1,0,0:0:0:0:
320,192,4350,1,0,0:0:0:0:
448,192,4566,128,0,5861:0:0:0:0:
256,192,4782,1,0,0:0:0:0:
153,192,4890,1,0,0:0:0:0:
51,192,5105,1,0,0:0:0:0:
153,192,5213,1,0,0:0:0:0:
358,192,5429,1,0,0:0:0:0:
256,192,5537,1,0,0:0:0:0:
51,192,5753,1,0,0:0:0:0:
153,192,5861,1,0,0:0:0:0:
256,192,6077,1,0,0:0:0:0:
358,192,6293,1,0,0:0:0:0:
51,192,6293,1,0,0:0:0:0:
448,192,6508,128,0,8235:0:0:0:0:
64,192,6940,1,0,0:0:0:0:
256,192,7156,1,0,0:0:0:0:
320,192,7372,1,0,0:0:0:0:
192,192,7803,1,0,0:0:0:0:
64,192,8235,1,0,0:0:0:0:
153,192,8559,1,0,0:0:0:0:
256,192,8667,1,0,0:0:0:0:
51,192,8882,1,0,0:0:0:0:
448,192,9098,1,0,0:0:0:0:
358,192,9098,1,0,0:0:0:0:
320,192,9530,1,0,0:0:0:0:
460,192,9530,1,0,0:0:0:0:
192,192,9746,1,0,0:0:0:0:
256,192,9746,1,0,0:0:0:0:
448,192,9962,128,0,11688:0:0:0:0:
358,192,9962,1,0,0:0:0:0:
256,192,10393,1,0,0:0:0:0:
51,192,10609,1,0,0:0:0:0:
153,192,10825,1,0,0:0:0:0:
460,192,11149,1,0,0:0:0:0:
320,192,11257,1,0,0:0:0:0:
358,192,11688,1,0,0:0:0:0:
153,192,11796,1,0,0:0:0:0:
256,192,12012,1,0,0:0:0:0:
153,192,12120,1,0,0:0:0:0:
358,192,12408,1,0,0:0:0:0:
256,192,12480,1,0,0:0:0:0:
153,192,12695,1,0,0:0:0:0:
51,192,12767,1,0,0:0:0:0:
153,192,12983,1,0,0:0:0:0:
256,192,13199,1,0,0:0:0:0:
358,192,13415,128,0,13846:0:0:0:0:
153,192,13415,1,0,0:0:0:0:
460,192,13415,1,0,0:0:0:0:
51,192,13631,1,0,0:0:0:0:
256,192,13846,1,0,0:0:0:0:
153,192,13846,1,0,0:0:0:0:
358,192,14062,1,0,0:0:0:0:
153,192,14278,1,0,0:0:0:0:
51,192,14278,1,0,0:0:0:0:
256,192,14494,1,0,0:0:0:0:
153,192,14710,1,0,0:0:0:0:
460,192,14710,1,0,0:0:0:0:
51,192,14926,1,0,0:0:0:0:
358,192,15141,1,0,0:0:0:0:
256,192,15141,1,0,0:0:0:0:
153,192,15465,1,0,0:0:0:0:
358,192,15465,1,0,0:0:0:0:
64,192,15573,1,0,0:0:0:0:
460,192,15573,1,0,0:0:0:0:
153,192,15789,1,0,0:0:0:0:
358,192,15897,1,0,0:0:0:0:
256,192,16005,1,0,0:0:0:0:
153,192,16005,1,0,0:0:0:0:
51,192,16221,1,0,0:0:0:0:
256,192,16436,1,0,0:0:0:0:
358,192,16436,1,0,0:0:0:0:
64,192,16652,1,0,0:0:0:0:
460,192,16652,1,0,0:0:0:0:
448,192,16868,1,0,0:0:0:0:
320,192,16868,1,0,0:0:0:0:
51,192,17084,1,0,0:0:0:0:
256,192,17300,1,0,0:0:0:0:
153,192,17516,1,0,0:0:0:0:
320,192,17731,1,0,0:0:0:0:
460,192,17731,1,0,0:0:0:0:
64,192,17947,1,0,0:0:0:0:
256,192,18163,1,0,0:0:0:0:
153,192,18379,1,0,0:0:0:0:
320,192,18595,1,0,0:0:0:0:
256,192,18595,1,0,0:0:0:0:
64,192,18811,1,0,0:0:0:0:
153,192,19026,1,0,0:0:0:0:
256,192,19026,1,0,0:0:0:0:
448,192,19242,1,0,0:0:0:0:
256,192,19458,1,0,0:0:0:0:
192,192,19458,1,0,0:0:0:0:
64,192,19890,1,0,0:0:0:0:
448,192,19890,1,0,0:0:0:0:
256,192,20105,1,0,0:0:0:0:
320,192,20321,1,0,0:0:0:0:
192,192,20321,1,0,0:0:0:0:
51,192,20537,1,0,0:0:0:0:
460,192,20753,1,0,0:0:0:0:
51,192,20969,1,0,0:0:0:0:
460,192,21185,1,0,0:0:0:0:
256,192,21185,1,0,0:0:0:0:
51,192,21400,1,0,0:0:0:0:
358,192,21616,1,0,0:0:0:0:
51,192,21832,1,0,0:0:0:0:
320,192,22048,1,0,0:0:0:0:
256,192,22048,1,0,0:0:0:0:
64,192,22264,1,0,0:0:0:0:
448,192,22480,1,0,0:0:0:0:
320,192,22803,1,0,0:0:0:0:
256,192,22803,1,0,0:0:0:0:
460,192,22911,1,0,0:0:0:0:
64,192,23127,1,0,0:0:0:0:
448,192,23343,1,0,0:0:0:0:
256,192,23343,1,0,0:0:0:0:
64,192,23559,1,0,0:0:0:0:
192,192,23775,1,0,0:0:0:0:
320,192,23775,1,0,0:0:0:0:
256,192,23990,1,0,0:0:0:0:
358,192,24206,1,0,0:0:0:0:
153,192,24206,1,0,0:0:0:0:
51,192,24422,1,0,0:0:0:0:
358,192,24638,1,0,0:0:0:0:
256,192,24638,1,0,0:0:0:0:
64,192,24854,1,0,0:0:0:0:
256,192,25070,1,0,0:0:0:0:
358,192,25070,1,0,0:0:0:0:
460,192,25070,1,0,0:0:0:0:
153,192,25285,1,0,0:0:0:0:
256,192,25393,1,0,0:0:0:0:
460,192,25501,1,0,0:0:0:0:
51,192,25501,1,0,0:0:0:0:
64,192,25717,1,0,0:0:0:0:
320,192,25933,1,0,0:0:0:0:
460,192,25933,1,0,0:0:0:0:
64,192,26149,1,0,0:0:0:0:
153,192,26364,1,0,0:0:0:0:
358,192,26364,1,0,0:0:0:0:
51,192,26580,1,0,0:0:0:0:
460,192,26580,1,0,0:0:0:0:
153,192,26796,1,0,0:0:0:0:
358,192,26796,1,0,0:0:0:0:
256,192,27012,1,0,0:0:0:0:
448,192,27228,1,0,0:0:0:0:
320,192,27228,1,0,0:0:0:0:
51,192,27444,1,0,0:0:0:0:
256,192,27659,1,0,0:0:0:0:
358,192,27767,1,0,0:0:0:0:
153,192,27875,1,0,0:0:0:0:
460,192,28091,1,0,0:0:0:0:
153,192,28307,1,0,0:0:0:0:
256,192,28415,1,0,0:0:0:0:
51,192,28523,1,0,0:0:0:0:
460,192,28739,1,0,0:0:0:0:
51,192,28954,1,0,0:0:0:0:
153,192,28954,1,0,0:0:0:0:
460,192,29170,1,0,0:0:0:0:
256,192,29386,1,0,0:0:0:0:
153,192,29494,1,0,0:0:0:0:
358,192,29602,1,0,0:0:0:0:
460,192,29818,1,0,0:0:0:0:
358,192,30034,1,0,0:0:0:0:
256,192,30141,1,0,0:0:0:0:
153,192,30249,1,0,0:0:0:0:
64,192,30465,1,0,0:0:0:0:
153,192,30681,1,0,0:0:0:0:
256,192,30681,1,0,0:0:0:0:
358,192,30897,1,0,0:0:0:0:
153,192,31113,1,0,0:0:0:0:
51,192,31221,1,0,0:0:0:0:
256,192,31329,1,0,0:0:0:0:
358,192,31544,1,0,0:0:0:0:
153,192,31760,1,0,0:0:0:0:
358,192,31868,1,0,0:0:0:0:
51,192,31976,1,0,0:0:0:0:
256,192,32084,1,0,0:0:0:0:
153,192,32192,1,0,0:0:0:0:
358,192,32300,1,0,0:0:0:0:
460,192,32408,1,0,0:0:0:0:
51,192,32516,1,0,0:0:0:0:
153,192,32623,1,0,0:0:0:0:
358,192,32731,1,0,0:0:0:0:
256,192,32839,1,0,0:0:0:0:
51,192,33055,1,0,0:0:0:0:
153,192,33163,1,0,0:0:0:0:
256,192,33271,1,0,0:0:0:0:
153,192,33487,1,0,0:0:0:0:
460,192,33703,1,0,0:0:0:0:
256,192,33918,1,0,0:0:0:0:
448,192,34134,1,0,0:0:0:0:
51,192,34134,1,0,0:0:0:0:
256,192,34350,1,0,0:0:0:0:
358,192,34566,1,0,0:0:0:0:
51,192,34674,1,0,0:0:0:0:
192,192,34782,1,0,0:0:0:0:
460,192,34998,1,0,0:0:0:0:
358,192,35213,1,0,0:0:0:0:
51,192,35321,1,0,0:0:0:0:
256,192,35429,1,0,0:0:0:0:
153,192,35537,1,0,0:0:0:0:
358,192,35645,1,0,0:0:0:0:
153,192,35753,1,0,0:0:0:0:
51,192,35861,1,0,0:0:0:0:
460,192,35861,1,0,0:0:0:0:
153,192,36077,1,0,0:0:0:0:
358,192,36293,1,0,0:0:0:0:
256,192,36400,1,0,0:0:0:0:
460,192,36508,1,0,0:0:0:0:
320,192,36724,1,0,0:0:0:0:
256,192,36940,1,0,0:0:0:0:
153,192,37048,1,0,0:0:0:0:
358,192,37156,1,0,0:0:0:0:
51,192,37264,1,0,0:0:0:0:
460,192,37372,1,0,0:0:0:0:
256,192,37480,1,0,0:0:0:0:
51,192,37587,1,0,0:0:0:0:
192,192,37587,1,0,0:0:0:0:
256,192,37803,1,0,0:0:0:0:
358,192,38019,1,0,0:0:0:0:
51,192,38127,1,0,0:0:0:0:
256,192,38235,1,0,0:0:0:0:
460,192,38451,1,0,0:0:0:0:
358,192,38667,1,0,0:0:0:0:
51,192,38775,1,0,0:0:0:0:
256,192,38882,1,0,0:0:0:0:
153,192,39098,1,0,0:0:0:0:
51,192,39314,1,0,0:0:0:0:
358,192,39422,1,0,0:0:0:0:
153,192,39530,1,0,0:0:0:0:
256,192,39638,1,0,0:0:0:0:
51,192,39746,1,0,0:0:0:0:
460,192,39854,1,0,0:0:0:0:
256,192,39962,1,0,0:0:0:0:
358,192,40070,1,0,0:0:0:0:
153,192,40177,1,0,0:0:0:0:
256,192,40177,1,0,0:0:0:0:
51,192,40393,1,0,0:0:0:0:
358,192,40609,1,0,0:0:0:0:
153,192,40825,1,0,0:0:0:0:
51,192,41041,1,0,0:0:0:0:
460,192,41041,1,0,0:0:0:0:
256,192,41257,1,0,0:0:0:0:
153,192,41472,1,0,0:0:0:0:
358,192,41472,1,0,0:0:0:0:
256,192,41688,1,0,0:0:0:0:
153,192,41904,1,0,0:0:0:0:
358,192,41904,1,0,0:0:0:0:
51,192,42120,1,0,0:0:0:0:
256,192,42228,1,0,0:0:0:0:
460,192,42336,1,0,0:0:0:0:
256,192,42444,1,0,0:0:0:0:
358,192,42552,1,0,0:0:0:0:
460,192,42659,1,0,0:0:0:0:
153,192,42767,1,0,0:0:0:0:
358,192,42767,1,0,0:0:0:0:
256,192,42983,1,0,0:0:0:0:
51,192,43199,1,0,0:0:0:0:
460,192,43199,1,0,0:0:0:0:
256,192,43415,1,0,0:0:0:0:
51,192,43631,1,0,0:0:0:0:
460,192,43631,1,0,0:0:0:0:
358,192,43846,1,0,0:0:0:0:
51,192,43954,1,0,0:0:0:0:
192,192,44062,1,0,0:0:0:0:
320,192,44278,1,0,0:0:0:0:
256,192,44278,1,0,0:0:0:0:
64,192,44494,1,0,0:0:0:0:
448,192,44494,1,0,0:0:0:0:
153,192,44710,1,0,0:0:0:0:
256,192,44926,1,0,0:0:0:0:
358,192,44926,1,0,0:0:0:0:
153,192,45141,1,0,0:0:0:0:
320,192,45357,1,0,0:0:0:0:
256,192,45357,1,0,0:0:0:0:
153,192,45573,1,0,0:0:0:0:
51,192,45681,1,0,0:0:0:0:
460,192,45789,1,0,0:0:0:0:
153,192,45897,1,0,0:0:0:0:
358,192,46005,1,0,0:0:0:0:
256,192,46113,1,0,0:0:0:0:
153,192,46221,1,0,0:0:0:0:
358,192,46221,1,0,0:0:0:0:
256,192,46436,1,0,0:0:0:0:
51,192,46652,1,0,0:0:0:0:
358,192,46652,1,0,0:0:0:0:
256,192,46868,1,0,0:0:0:0:
448,192,47084,1,0,0:0:0:0:
153,192,47084,1,0,0:0:0:0:
256,192,47300,1,0,0:0:0:0:
64,192,47516,1,0,0:0:0:0:
448,192,47516,1,0,0:0:0:0:
153,192,47731,1,0,0:0:0:0:
358,192,47731,1,0,0:0:0:0:
51,192,47947,1,0,0:0:0:0:
460,192,47947,1,0,0:0:0:0:
256,192,48163,1,0,0:0:0:0:
51,192,48379,1,0,0:0:0:0:
153,192,48379,1,0,0:0:0:0:
256,192,48595,1,0,0:0:0:0:
358,192,48811,1,0,0:0:0:0:
460,192,48811,1,0,0:0:0:0:
256,192,48918,1,0,0:0:0:0:
51,192,49026,1,0,0:0:0:0:
460,192,49134,1,0,0:0:0:0:
64,192,49242,1,0,0:0:0:0:
256,192,49458,1,0,0:0:0:0:
153,192,49674,1,0,0:0:0:0:
358,192,49674,1,0,0:0:0:0:
256,192,49890,1,0,0:0:0:0:
51,192,50105,1,0,0:0:0:0:
460,192,50105,1,0,0:0:0:0:
256,192,50321,1,0,0:0:0:0:
51,192,50537,1,0,0:0:0:0:
460,192,50537,1,0,0:0:0:0:
460,192,50753,1,0,0:0:0:0:
256,192,50861,1,0,0:0:0:0:
51,192,50861,1,0,0:0:0:0:
358,192,50969,1,0,0:0:0:0:
192,192,51185,1,0,0:0:0:0:
64,192,51400,1,0,0:0:0:0:
448,192,51400,1,0,0:0:0:0:
256,192,51616,1,0,0:0:0:0:
153,192,51832,1,0,0:0:0:0:
358,192,51832,1,0,0:0:0:0:
256,192,52048,1,0,0:0:0:0:
192,192,52264,1,0,0:0:0:0:
358,192,52264,1,0,0:0:0:0:
256,192,52480,1,0,0:0:0:0:
51,192,52587,1,0,0:0:0:0:
358,192,52695,1,0,0:0:0:0:
51,192,52803,1,0,0:0:0:0:
256,192,52911,1,0,0:0:0:0:
460,192,53019,1,0,0:0:0:0:
358,192,53127,1,0,0:0:0:0:
153,192,53127,1,0,0:0:0:0:
256,192,53343,1,0,0:0:0:0:
51,192,53559,1,0,0:0:0:0:
460,192,53559,1,0,0:0:0:0:
256,192,53775,1,0,0:0:0:0:
64,192,53990,1,0,0:0:0:0:
448,192,53990,1,0,0:0:0:0:
256,192,54206,1,0,0:0:0:0:
51,192,54314,1,0,0:0:0:0:
448,192,54422,1,0,0:0:0:0:
51,192,54530,1,0,0:0:0:0:
256,192,54638,1,0,0:0:0:0:
460,192,54746,1,0,0:0:0:0:
256,192,54854,1,0,0:0:0:0:
153,192,54854,1,0,0:0:0:0:
51,192,55070,1,0,0:0:0:0:
358,192,55285,1,0,0:0:0:0:
460,192,55285,1,0,0:0:0:0:
51,192,55501,1,0,0:0:0:0:
448,192,55717,1,0,0:0:0:0:
358,192,55717,1,0,0:0:0:0:
153,192,55933,1,0,0:0:0:0:
256,192,56041,1,0,0:0:0:0:
460,192,56149,1,0,0:0:0:0:
256,192,56257,1,0,0:0:0:0:
153,192,56364,1,0,0:0:0:0:
460,192,56472,1,0,0:0:0:0:
358,192,56580,1,0,0:0:0:0:
256,192,56580,1,0,0:0:0:0:
460,192,56796,1,0,0:0:0:0:
51,192,57012,1,0,0:0:0:0:
153,192,57012,1,0,0:0:0:0:
460,192,57228,1,0,0:0:0:0:
64,192,57444,1,0,0:0:0:0:
153,192,57444,1,0,0:0:0:0:
358,192,57659,1,0,0:0:0:0:
153,192,57767,1,0,0:0:0:0:
460,192,57875,1,0,0:0:0:0:
51,192,57983,1,0,0:0:0:0:
153,192,58091,1,0,0:0:0:0:
460,192,58199,1,0,0:0:0:0:
64,192,58307,1,0,0:0:0:0:
153,192,58307,1,0,0:0:0:0:
320,192,58523,1,0,0:0:0:0:
153,192,58739,1,0,0:0:0:0:
256,192,58739,1,0,0:0:0:0:
460,192,58954,1,0,0:0:0:0:
256,192,59170,1,0,0:0:0:0:
358,192,59170,1,0,0:0:0:0:
153,192,59386,1,0,0:0:0:0:
51,192,59494,1,0,0:0:0:0:
460,192,59602,1,0,0:0:0:0:
153,192,59710,1,0,0:0:0:0:
358,192,59818,1,0,0:0:0:0:
51,192,59926,1,0,0:0:0:0:
320,192,60034,1,0,0:0:0:0:
460,192,60034,1,0,0:0:0:0:
153,192,60249,1,0,0:0:0:0:
256,192,60465,1,0,0:0:0:0:
358,192,60465,1,0,0:0:0:0:
51,192,60681,1,0,0:0:0:0:
153,192,60897,1,0,0:0:0:0:
256,192,60897,1,0,0:0:0:0:
51,192,61005,1,0,0:0:0:0:
358,192,61113,1,0,0:0:0:0:
256,192,61221,1,0,0:0:0:0:
460,192,61329,1,0,0:0:0:0:
51,192,61436,1,0,0:0:0:0:
256,192,61544,1,0,0:0:0:0:
460,192,61652,1,0,0:0:0:0:
192,192,61760,1,0,0:0:0:0:
64,192,61760,1,0,0:0:0:0:
256,192,61976,1,0,0:0:0:0:
358,192,62192,1,0,0:0:0:0:
256,192,62408,1,0,0:0:0:0:
153,192,62516,1,0,0:0:0:0:
460,192,62623,1,0,0:0:0:0:
358,192,62623,1,0,0:0:0:0:
153,192,62839,1,0,0:0:0:0:
51,192,62947,1,0,0:0:0:0:
358,192,63055,1,0,0:0:0:0:
256,192,63271,1,0,0:0:0:0:
358,192,63487,1,0,0:0:0:0:
460,192,63487,1,0,0:0:0:0:
153,192,63703,1,0,0:0:0:0:
460,192,63918,1,0,0:0:0:0:
256,192,64134,1,0,0:0:0:0:
358,192,64242,1,0,0:0:0:0:
51,192,64350,1,0,0:0:0:0:
153,192,64350,1,0,0:0:0:0:
358,192,64566,1,0,0:0:0:0:
256,192,64674,1,0,0:0:0:0:
460,192,64782,1,0,0:0:0:0:
51,192,64998,1,0,0:0:0:0:
192,192,65213,1,0,0:0:0:0:
320,192,65213,1,0,0:0:0:0:
448,192,65429,1,0,0:0:0:0:
256,192,65537,1,0,0:0:0:0:
320,192,65645,1,0,0:0:0:0:
153,192,65861,1,0,0:0:0:0:
51,192,65969,1,0,0:0:0:0:
320,192,66077,1,0,0:0:0:0:
448,192,66077,1,0,0:0:0:0:
256,192,66293,1,0,0:0:0:0:
51,192,66400,1,0,0:0:0:0:
460,192,66508,1,0,0:0:0:0:
256,192,66724,1,0,0:0:0:0:
460,192,66832,1,0,0:0:0:0:
64,192,66940,1,0,0:0:0:0:
153,192,66940,1,0,0:0:0:0:
358,192,67156,1,0,0:0:0:0:
153,192,67264,1,0,0:0:0:0:
358,192,67372,1,0,0:0:0:0:
460,192,67372,1,0,0:0:0:0:
256,192,67587,1,0,0:0:0:0:
153,192,67695,1,0,0:0:0:0:
448,192,67803,1,0,0:0:0:0:
358,192,67803,1,0,0:0:0:0:
51,192,68019,1,0,0:0:0:0:
256,192,68019,1,0,0:0:0:0:
192,192,68235,1,0,0:0:0:0:
320,192,68235,1,0,0:0:0:0:
256,192,68451,1,0,0:0:0:0:
460,192,68451,1,0,0:0:0:0:
64,192,68667,128,0,69530:0:0:0:0:
358,192,68882,1,0,0:0:0:0:
256,192,68990,1,0,0:0:0:0:
358,192,69098,1,0,0:0:0:0:
320,192,69314,1,0,0:0:0:0:
448,192,69530,1,0,0:0:0:0:
358,192,69746,1,0,0:0:0:0:
256,192,69962,1,0,0:0:0:0:
153,192,70177,1,0,0:0:0:0:
64,192,70393,128,0,71257:0:0:0:0:
358,192,70609,1,0,0:0:0:0:
256,192,70717,1,0,0:0:0:0:
448,192,70825,1,0,0:0:0:0:
320,192,71041,1,0,0:0:0:0:
448,192,71257,1,0,0:0:0:0:
256,192,71472,1,0,0:0:0:0:
460,192,71688,1,0,0:0:0:0:
358,192,71796,1,0,0:0:0:0:
256,192,71904,1,0,0:0:0:0:
51,192,72012,1,0,0:0:0:0:
448,192,72120,128,0,73846:0:0:0:0:
256,192,72336,1,0,0:0:0:0:
51,192,72444,1,0,0:0:0:0:
153,192,72552,1,0,0:0:0:0:
256,192,72767,1,0,0:0:0:0:
51,192,72875,1,0,0:0:0:0:
153,192,72983,1,0,0:0:0:0:
256,192,73199,1,0,0:0:0:0:
51,192,73307,1,0,0:0:0:0:
153,192,73415,1,0,0:0:0:0:
256,192,73631,1,0,0:0:0:0:
51,192,73739,1,0,0:0:0:0:
192,192,73846,1,0,0:0:0:0:
256,192,74062,1,0,0:0:0:0:
320,192,74278,1,0,0:0:0:0:
51,192,74494,1,0,0:0:0:0:
153,192,74710,1,0,0:0:0:0:
256,192,74710,1,0,0:0:0:0:
448,192,74926,128,0,75573:0:0:0:0:
256,192,75034,1,0,0:0:0:0:
51,192,75141,1,0,0:0:0:0:
153,192,75249,1,0,0:0:0:0:
51,192,75357,1,0,0:0:0:0:
256,192,75465,1,0,0:0:0:0:
192,192,75573,128,0,77156:0:0:0:0:
460,192,76005,1,0,0:0:0:0:
358,192,76508,1,0,0:0:0:0:
64,192,76940,1,0,0:0:0:0:
448,192,77156,1,0,0:0:0:0:
320,192,77156,1,0,0:0:0:0:
