osu file format v14

[General]
AudioFilename: Kokoro no Chizu.mp3
AudioLeadIn: 1000
PreviewTime: 69608
Countdown: 0
SampleSet: Soft
StackLeniency: 0.7
Mode: 0
LetterboxInBreaks: 0
WidescreenStoryboard: 0

[Editor]
DistanceSpacing: 1
BeatDivisor: 4
GridSize: 4
TimelineZoom: 1

[Metadata]
Title:Kokoro no Chizu
TitleUnicode:ココロのちず
Artist:BOYSTYLE
ArtistUnicode:BOYSTYLE
Creator:Umi
Version:Normal
Source:ONE PIECE
Tags:ワンピース opening alacat Lanturn guy
BeatmapID:751143
BeatmapSetID:338738

[Difficulty]
HPDrainRate:3
CircleSize:3
OverallDifficulty:3
ApproachRate:4
SliderMultiplier:1.1
SliderTickRate:1

[Events]
//Background and Video events
0,0,"OP.png",0,0
Video,0,"One piece OP 5.avi"
//Break Periods
//Storyboard Layer 0 (Background)
//Storyboard Layer 1 (Fail)
//Storyboard Layer 2 (Pass)
//Storyboard Layer 3 (Foreground)
//Storyboard Sound Samples

[TimingPoints]
-505,454.545454545455,4,2,1,30,1,0
1767,-100,4,2,1,40,0,0
2222,-100,4,2,1,50,0,0
2676,-100,4,2,1,60,0,0
70404,-100,4,2,1,80,0,1
84040,-100,4,2,1,60,0,1
84949,-100,4,2,1,80,0,1
98585,-100,4,2,1,60,0,1
99495,-100,4,2,1,80,0,1
102222,-100,4,2,1,80,0,0

[Colours]
Combo1 : 255,74,74
Combo2 : 239,234,173
Combo3 : 255,164,28

[HitObjects]
256,192,745,12,0,4267,0:0:0:0:
206,117,4949,6,0,L|260:112,1,55,4|0,0:0|0:0,0:0:0:0:
309,87,5404,1,0,0:0:0:0:
395,154,5858,2,0,P|398:204|397:270,1,110
388,318,6540,1,0,0:0:0:0:
388,318,6767,2,0,L|296:317,1,82.5,4|0,0:0|0:0,0:0:0:0:
233,276,7449,2,0,P|222:210|131:159,1,165
164,50,8585,6,0,P|218:42|272:50,1,110,4|0,0:0|0:0,0:0:0:0:
274,160,9495,2,0,P|219:168|165:160,1,110
112,146,10176,1,0,0:0:0:0:
112,146,10404,2,0,L|128:248,1,82.5,4|0,0:0|0:0,0:0:0:0:
170,295,11085,2,0,P|243:262|316:296,1,165
418,255,12222,6,0,L|426:199,1,55,4|0,0:0|0:0,0:0:0:0:
414,146,12676,2,0,P|366:133|296:148,1,110
254,159,13358,1,0,0:0:0:0:
254,159,13585,1,0,0:0:0:0:
186,245,14040,2,0,P|103:247|46:178,2,165,4|4|0,0:0|0:0|0:0,0:0:0:0:
231,213,15631,1,0,0:0:0:0:
231,213,15858,6,0,P|275:214|350:234,1,110,4|0,0:0|0:0,0:0:0:0:
433,173,16767,2,0,P|386:144|338:101,1,110,4|0,0:0|0:0,0:0:0:0:
312,63,17449,2,0,P|255:53|188:63,1,110,4|0,0:0|0:0,0:0:0:0:
149,68,18131,1,0,0:0:0:0:
149,287,19040,2,0,P|174:282|212:283,1,55,4|0,0:0|0:0,0:0:0:0:
256,297,19495,6,0,L|284:189,1,110,4|8,0:0|0:0,0:0:0:0:
309,141,20176,1,0,0:0:0:0:
289,89,20404,2,0,P|235:78|181:86,1,110,0|8,0:0|0:0,0:0:0:0:
75,118,21313,2,0,L|63:51,2,55,0|0|8,0:0|0:0|0:0,0:0:0:0:
60,171,21995,2,0,P|111:170|167:201,1,110
203,233,22676,1,8,0:0:0:0:
304,273,23131,6,0,P|313:219|291:169,1,110,4|8,0:0|0:0,0:0:0:0:
236,168,23813,1,0,0:0:0:0:
182,155,24040,2,0,P|173:101|195:51,1,110,0|8,0:0|0:0,0:0:0:0:
244,27,24722,1,0,0:0:0:0:
244,27,24949,2,0,L|370:33,1,110,4|8,0:0|0:0,0:0:0:0:
444,94,25858,2,0,P|448:130|443:154,1,55,8|8,0:0|0:0,0:0:0:0:
423,199,26313,2,0,L|346:187,1,55,8|8,0:0|0:0,0:0:0:0:
324,157,26767,6,0,P|302:195|238:228,1,110,4|8,0:0|0:0,0:0:0:0:
136,231,27676,2,0,P|157:291|212:332,1,110,0|8,0:0|0:0,0:0:0:0:
243,335,28358,1,0,0:0:0:0:
293,312,28585,2,0,P|328:306|402:313,2,110,0|8|0,0:0|0:0|0:0,0:0:0:0:
187,343,29949,1,8,0:0:0:0:
111,262,30404,6,0,L|112:188,1,55
162,185,30858,2,0,L|172:118,1,55,8|0,0:0|0:0,0:0:0:0:
189,78,31313,2,0,P|235:65|313:73,1,110
376,143,32222,2,0,P|376:192|412:254,2,110,0|8|0,0:0|0:0|0:0,0:0:0:0:
425,44,33585,2,0,L|362:34,1,55,8|0,0:0|0:0,0:0:0:0:
315,35,34040,6,0,L|200:41,1,110,0|8,0:0|0:0,0:0:0:0:
140,129,34949,2,0,L|255:135,1,110,0|8,0:0|0:0,0:0:0:0:
303,123,35631,1,0,0:0:0:0:
303,123,35858,2,0,P|294:203|318:242,1,110,0|8,0:0|0:0,0:0:0:0:
339,270,36540,2,0,P|304:259|176:273,1,165,0|8,0:0|0:0,0:0:0:0:
68,261,37676,6,0,L|43:152,1,110,0|8,0:0|0:0,0:0:0:0:
131,87,38585,2,0,L|155:194,1,110,0|8,0:0|0:0,0:0:0:0:
248,253,39495,2,0,P|290:236|321:235,1,55
354,237,39949,2,0,P|373:213|386:165,1,55,8|0,0:0|0:0,0:0:0:0:
393,136,40404,1,0,0:0:0:0:
297,82,40858,1,8,0:0:0:0:
221,162,41313,6,0,P|174:174|101:158,1,110,0|8,0:0|0:0,0:0:0:0:
68,132,41995,1,0,0:0:0:0:
21,161,42222,2,0,P|18:220|22:277,1,110,0|8,0:0|0:0,0:0:0:0:
123,311,43131,2,0,P|185:273|236:264,1,110,0|8,0:0|0:0,0:0:0:0:
275,272,43813,2,0,P|263:206|319:114,1,165,0|8,0:0|0:0,0:0:0:0:
233,41,44949,6,0,L|159:37,1,55
126,17,45404,1,8,0:0:0:0:
68,105,45858,2,0,P|74:152|72:220,1,110,0|8,0:0|0:0,0:0:0:0:
52,265,46540,1,0,0:0:0:0:
52,265,46767,2,0,L|171:263,1,110,0|8,0:0|0:0,0:0:0:0:
259,314,47676,1,0,0:0:0:0:
364,283,48131,2,0,L|384:226,1,55,8|0,0:0|0:0,0:0:0:0:
404,180,48585,6,0,P|388:138|333:96,1,110,0|8,0:0|0:0,0:0:0:0:
283,100,49267,2,0,P|224:106|150:108,1,110
120,91,49949,1,8,0:0:0:0:
103,199,50404,2,0,L|137:309,1,110,0|8,0:0|0:0,0:0:0:0:
184,328,51085,2,0,P|234:304|344:341,1,165,0|8,0:0|0:0,0:0:0:0:
444,344,52222,6,0,L|454:289,1,55
464,235,52676,1,8,0:0:0:0:
431,190,52904,2,0,P|347:198|257:187,1,165,4|8,0:0|0:0,0:0:0:0:
217,164,53813,1,4,0:0:0:0:
118,114,54267,1,0,0:0:0:0:
118,114,54495,2,0,P|97:186|97:227,1,110,8|0,0:0|0:0,0:0:0:0:
99,275,55176,1,8,0:0:0:0:
99,275,55404,1,8,0:0:0:0:
198,322,55858,6,0,P|275:321|321:317,1,110,4|8,0:0|0:0,0:0:0:0:
354,289,56540,1,0,0:0:0:0:
397,255,56767,2,0,L|392:129,1,110,0|8,0:0|0:0,0:0:0:0:
287,177,57676,2,0,P|220:170|166:89,2,165,2|2|8,0:0|0:0|0:0,0:0:0:0:
388,133,59495,6,0,P|415:140|471:198,1,110,2|8,0:0|0:0,0:0:0:0:
468,252,60176,1,0,0:0:0:0:
468,252,60404,2,0,P|410:284|382:319,1,110,0|8,0:0|0:0,0:0:0:0:
273,332,61313,2,0,P|250:289|246:269,2,55,2|2|8,0:0|0:0|0:0,0:0:0:0:
429,177,62676,2,0,P|442:143|445:105,1,55,8|0,0:0|0:0,0:0:0:0:
441,69,63131,6,0,L|332:73,1,110,4|8,0:0|0:0,0:0:0:0:
282,46,63813,1,4,0:0:0:0:
150,145,64495,1,8,0:0:0:0:
150,145,64722,2,0,P|146:239|156:275,1,110,4|0,0:0|0:0,0:0:0:0:
161,307,65404,1,8,0:0:0:0:
161,307,65631,2,0,P|231:297|289:311,1,110,4|0,0:0|0:0,0:0:0:0:
322,316,66313,1,8,0:0:0:0:
386,227,66767,6,0,P|381:185|376:154,1,55,6|0,0:0|0:0,0:0:0:0:
363,119,67222,1,8,0:0:0:0:
271,58,67676,2,0,P|251:104|246:130,1,55,2|0,0:0|0:0,0:0:0:0:
243,163,68131,1,12,0:0:0:0:
265,270,68585,2,0,L|97:257,1,165,4|8,0:0|0:0,0:0:0:0:
363,337,70404,6,0,L|477:293,1,110,4|8,0:0|0:0,0:0:0:0:
461,187,71313,2,0,P|451:143|402:101,1,110,0|8,0:0|0:0,0:0:0:0:
350,86,71995,1,0,0:0:0:0:
350,86,72222,2,0,L|214:91,1,110,0|8,0:0|0:0,0:0:0:0:
186,103,72904,2,0,P|215:168|166:246,1,165,0|8,0:0|0:0,0:0:0:0:
254,314,74040,6,0,P|305:277|348:252,1,110,0|8,0:0|0:0,0:0:0:0:
440,197,74949,2,0,P|395:166|343:138,1,110,0|8,0:0|0:0,0:0:0:0:
296,119,75631,1,0,0:0:0:0:
247,144,75858,2,0,P|204:153|127:136,1,110,0|8,0:0|0:0,0:0:0:0:
93,111,76540,2,0,L|99:232,1,110
89,275,77222,1,8,0:0:0:0:
189,319,77676,6,0,P|241:315|317:310,1,110,4|8,0:0|0:0,0:0:0:0:
353,319,78358,1,0,0:0:0:0:
353,319,78585,1,0,0:0:0:0:
442,255,79040,1,8,0:0:0:0:
404,151,79495,2,0,P|331:170|292:160,1,110,0|8,0:0|0:0,0:0:0:0:
249,138,80176,2,0,P|194:131|143:149,1,110
112,195,80858,1,8,0:0:0:0:
169,289,81313,6,0,L|289:283,1,110,0|8,0:0|0:0,0:0:0:0:
326,311,81995,1,0,0:0:0:0:
406,235,82449,2,0,L|470:239,2,55,0|8|0,0:0|0:0|0:0,0:0:0:0:
360,204,83131,2,0,P|348:163|353:96,1,110,4|8,0:0|0:0,0:0:0:0:
383,50,83813,2,0,P|311:83|226:68,1,165,8|8,0:0|0:0,0:0:0:0:
124,105,84949,6,0,L|121:163,1,55,4|0,0:0|0:0,0:0:0:0:
169,185,85404,2,0,L|166:243,1,55,8|0,0:0|0:0,0:0:0:0:
139,288,85858,2,0,P|194:282|249:288,1,110,0|8,0:0|0:0,0:0:0:0:
349,334,86767,2,0,P|403:339|458:334,1,110,0|8,0:0|0:0,0:0:0:0:
509,313,87449,2,0,L|496:203,1,110
502,149,88131,1,8,0:0:0:0:
404,200,88585,6,0,P|353:204|343:202,1,55
295,194,89040,1,8,0:0:0:0:
199,139,89495,1,0,0:0:0:0:
106,198,89949,2,0,L|104:258,1,55,8|0,0:0|0:0,0:0:0:0:
134,299,90404,2,0,P|189:288|251:279,1,110,0|8,0:0|0:0,0:0:0:0:
297,278,91085,1,0,0:0:0:0:
363,190,91540,2,0,L|399:246,2,55,0|8|0,0:0|0:0|0:0,0:0:0:0:
328,147,92222,6,0,P|268:147|216:175,1,110,4|8,0:0|0:0,0:0:0:0:
209,277,93131,2,0,P|157:257|125:209,1,110,0|8,0:0|0:0,0:0:0:0:
120,159,93813,1,0,0:0:0:0:
120,159,94040,2,0,P|151:114|202:95,1,110,0|8,0:0|0:0,0:0:0:0:
257,97,94722,1,0,0:0:0:0:
414,147,95404,2,0,L|400:209,1,55,8|0,0:0|0:0,0:0:0:0:
406,255,95858,6,0,P|352:245|298:254,1,110,4|8,0:0|0:0,0:0:0:0:
247,274,96540,1,0,0:0:0:0:
247,274,96767,2,0,L|234:149,1,110,4|8,0:0|0:0,0:0:0:0:
189,133,97449,2,0,P|109:127|78:101,1,110,4|0,0:0|0:0,0:0:0:0:
59,63,98131,1,8,0:0:0:0:
162,26,98585,1,8,0:0:0:0:
189,133,99040,2,0,L|262:128,1,55,8|8,0:0|0:0,0:0:0:0:
283,90,99495,6,0,P|314:156|316:208,1,110,4|8,0:0|0:0,0:0:0:0:
295,242,100176,1,0,0:0:0:0:
320,291,100404,2,0,P|349:292|431:288,1,110,4|8,0:0|0:0,0:0:0:0:
480,268,101085,1,4,0:0:0:0:
373,144,101767,2,0,L|382:26,1,110,8|8,0:0|0:0,0:0:0:0:
280,77,102676,2,0,L|288:186,1,110,8|0,0:0|0:0,0:0:0:0:
250,226,103358,6,0,L|179:228,1,55,8|8,0:0|0:0,0:0:0:0:
122,144,104040,2,0,L|185:135,1,55,8|8,0:0|0:0,0:0:0:0:
264,70,104722,2,0,P|285:104|288:129,1,55,8|8,0:0|0:0,0:0:0:0:
353,206,105404,2,0,P|376:170|391:159,1,55,8|12,0:0|0:0,0:0:0:0:
