osu file format v14

[General]
AudioFilename: Kokoro no Chizu.mp3
AudioLeadIn: 1000
PreviewTime: 69608
Countdown: 0
SampleSet: Soft
StackLeniency: 0.7
Mode: 0
LetterboxInBreaks: 0
WidescreenStoryboard: 0

[Editor]
DistanceSpacing: 0.7
BeatDivisor: 4
GridSize: 4
TimelineZoom: 1

[Metadata]
Title:Kokoro no Chizu
TitleUnicode:ココロのちず
Artist:BOYSTYLE
ArtistUnicode:BOYSTYLE
Creator:Umi
Version:Insane
Source:ONE PIECE
Tags:ワンピース opening alacat Lanturn guy
BeatmapID:749388
BeatmapSetID:338738

[Difficulty]
HPDrainRate:7
CircleSize:4
OverallDifficulty:6
ApproachRate:8
SliderMultiplier:1.8
SliderTickRate:1

[Events]
//Background and Video events
0,0,"OP.png",0,0
Video,0,"One piece OP 5.avi"
//Break Periods
//Storyboard Layer 0 (Background)
//Storyboard Layer 1 (Fail)
//Storyboard Layer 2 (Pass)
//Storyboard Layer 3 (Foreground)
//Storyboard Sound Samples

[TimingPoints]
-505,454.545454545455,4,2,1,30,1,0
1767,-100,4,2,1,40,0,0
2222,-100,4,2,1,50,0,0
2676,-100,4,2,1,60,0,0
4949,-133.333333333333,4,2,1,60,0,0
19495,-100,4,2,1,60,0,0
55858,-125,4,2,1,60,0,0
69722,-125,4,2,2,40,0,0
70404,-100,4,2,1,80,0,1
84040,-100,4,2,1,60,0,1
84949,-100,4,2,1,80,0,1
98585,-100,4,2,1,60,0,1
99495,-100,4,2,1,80,0,1
102222,-133.333333333333,4,2,1,80,0,0

[Colours]
Combo1 : 255,74,74
Combo2 : 239,234,173
Combo3 : 255,164,28

[HitObjects]
256,192,745,12,0,4267,0:0:0:0:
296,104,4722,5,0,0:0:0:0:
296,104,4949,2,0,P|339:101|390:103,1,67.5000025749208,4|0,0:0|0:0,0:0:0:0:
503,256,5404,2,0,P|469:255|435:253,1,67.5000025749208
258,169,5858,2,0,P|284:230|246:318,1,135.000005149842
152,342,6540,1,0,0:0:0:0:
87,242,6767,6,0,L|188:239,2,101.250003862381,4|0|0,0:0|0:0|0:0,0:0:0:0:
176,108,7676,1,0,0:0:0:0:
296,184,7904,1,0,0:0:0:0:
303,206,8017,1,0,0:0:0:0:
306,229,8131,1,0,0:0:0:0:
306,252,8245,1,0,0:0:0:0:
305,275,8358,1,0,0:0:0:0:
297,297,8472,1,0,0:0:0:0:
284,316,8585,6,0,L|209:325,1,67.5000025749208,4|0,0:0|0:0,0:0:0:0:
52,260,9040,2,0,P|75:290|83:338,1,67.5000025749208
168,128,9495,2,0,P|202:106|241:101,1,67.5000025749208
240,204,9949,1,0,0:0:0:0:
100,100,10176,1,0,0:0:0:0:
52,260,10404,6,0,P|101:270|150:260,2,101.250003862381,4|0|0,0:0|0:0|0:0,0:0:0:0:
212,136,11313,1,0,0:0:0:0:
345,225,11540,1,0,0:0:0:0:
345,225,11654,1,0,0:0:0:0:
345,225,11767,2,0,P|346:258|344:292,1,67.5000025749208
212,136,12222,5,4,0:0:0:0:
345,225,12449,1,0,0:0:0:0:
256,328,12676,1,0,0:0:0:0:
200,88,12904,1,0,0:0:0:0:
112,280,13131,1,0,0:0:0:0:
256,156,13358,1,0,0:0:0:0:
340,312,13585,2,0,L|265:306,1,67.5000025749208
47,197,14040,6,0,P|100:208|151:186,1,101.250003862381,4|0,0:0|0:0,0:0:0:0:
380,63,14722,2,0,B|366:119|406:155|406:155|384:202,1,135.000005149842,4|0,0:0|0:0,0:0:0:0:
258,252,15404,1,0,0:0:0:0:
310,146,15631,1,0,0:0:0:0:
437,288,15858,6,0,P|376:294|349:295,1,67.5000025749208,4|0,0:0|0:0,0:0:0:0:
212,175,16313,1,0,0:0:0:0:
369,294,16540,1,0,0:0:0:0:
212,175,16767,2,0,P|134:168|57:179,1,135.000005149842,4|0,0:0|0:0,0:0:0:0:
234,293,17449,2,0,P|301:300|369:294,1,135.000005149842,4|0,0:0|0:0,0:0:0:0:
457,143,18131,1,0,0:0:0:0:
256,192,18245,12,4,19040,0:0:0:0:
154,147,19495,6,0,P|199:136|254:141,1,90,4|0,0:0|0:0,0:0:0:0:
421,163,19949,1,8,0:0:0:0:
332,70,20176,1,0,0:0:0:0:
254,264,20404,2,0,P|209:275|154:270,1,90
332,154,20858,2,0,P|377:152|421:163,1,90
444,190,21199,1,0,0:0:0:0:
444,190,21313,6,0,L|473:85,1,90
332,154,21767,1,8,0:0:0:0:
403,304,21995,2,0,P|296:312|218:307,1,180
128,211,22676,1,8,0:0:0:0:
219,111,22904,1,0,0:0:0:0:
219,111,23017,1,0,0:0:0:0:
219,111,23131,6,0,P|257:127|283:180,1,90
347,310,23585,2,0,P|379:260|434:246,1,90,8|0,0:0|0:0,0:0:0:0:
438,341,24040,1,0,0:0:0:0:
257,267,24267,1,0,0:0:0:0:
366,123,24495,1,8,0:0:0:0:
396,270,24722,1,0,0:0:0:0:
373,292,24835,1,0,0:0:0:0:
347,310,24949,6,0,L|247:300,1,90
110,170,25404,2,0,L|199:161,1,90,8|0,0:0|0:0,0:0:0:0:
292,50,25858,2,0,L|321:47,3,30,8|8|8|8,0:0|0:0|0:0|0:0,0:0:0:0:
357,44,26199,1,8,0:0:0:0:
391,55,26313,1,8,0:0:0:0:
416,82,26426,1,8,0:0:0:0:
423,117,26540,1,8,0:0:0:0:
423,153,26654,1,0,0:0:0:0:
406,184,26767,6,0,P|344:212|277:209,1,135,4|0,0:0|0:0,0:0:0:0:
233,199,27222,1,8,0:0:0:0:
294,88,27449,1,0,0:0:0:0:
350,252,27676,2,0,P|341:294|294:331,1,90
80,232,28131,1,8,0:0:0:0:
152,336,28358,1,0,0:0:0:0:
236,128,28585,6,0,P|256:152|264:260,1,135
267,251,29040,1,8,0:0:0:0:
423,358,29267,1,0,0:0:0:0:
423,358,29381,1,0,0:0:0:0:
423,358,29495,2,0,P|414:312|422:268,1,90
483,105,29949,1,8,0:0:0:0:
452,110,30063,1,0,0:0:0:0:
421,115,30176,1,0,0:0:0:0:
390,120,30290,1,0,0:0:0:0:
359,126,30404,6,0,L|208:109,1,135
225,111,30858,2,0,P|201:148|197:193,1,90,8|0,0:0|0:0,0:0:0:0:
203,223,31199,1,0,0:0:0:0:
216,251,31313,2,0,L|326:248,1,90
459,329,31767,2,0,L|370:332,1,90,8|0,0:0|0:0,0:0:0:0:
489,117,32222,6,0,P|431:144|342:119,1,135
362,132,32676,2,0,P|338:166|334:225,1,90,8|0,0:0|0:0,0:0:0:0:
353,334,33131,1,0,0:0:0:0:
445,236,33358,1,0,0:0:0:0:
353,334,33585,1,8,0:0:0:0:
321,334,33699,1,0,0:0:0:0:
289,334,33813,1,0,0:0:0:0:
261,218,34040,6,0,L|373:212,1,90
208,318,34495,2,0,L|96:312,1,90,8|0,0:0|0:0,0:0:0:0:
82,311,34835,1,0,0:0:0:0:
82,311,34949,1,0,0:0:0:0:
261,218,35176,1,0,0:0:0:0:
181,139,35404,2,0,P|150:133|67:134,1,90,8|0,0:0|0:0,0:0:0:0:
261,218,35858,6,0,P|286:183|283:89,1,135
285,94,36313,1,8,0:0:0:0:
407,32,36540,1,0,0:0:0:0:
506,197,36767,2,0,P|445:205|415:196,1,90,0|0,0:0|0:0,0:0:0:0:
285,94,37222,1,8,0:0:0:0:
191,248,37449,1,0,0:0:0:0:
191,248,37563,1,0,0:0:0:0:
191,248,37676,6,0,P|207:289|242:316,1,90
236,150,38131,2,0,P|187:140|132:158,1,90,8|0,0:0|0:0,0:0:0:0:
100,173,38472,1,0,0:0:0:0:
100,173,38585,2,0,L|103:83,1,90
331,46,39040,2,0,L|334:135,1,90,8|0,0:0|0:0,0:0:0:0:
407,256,39495,5,0,0:0:0:0:
478,65,39722,1,0,0:0:0:0:
334,136,39949,1,8,0:0:0:0:
512,211,40176,1,0,0:0:0:0:
334,136,40404,2,0,P|281:135|234:137,1,90
90,225,40858,1,8,0:0:0:0:
90,225,40972,1,8,0:0:0:0:
90,225,41085,1,2,0:0:0:0:
89,224,41313,6,0,P|70:184|71:140,1,90,4|0,0:0|0:0,0:0:0:0:
274,63,41767,1,8,0:0:0:0:
194,159,41995,1,0,0:0:0:0:
398,114,42222,2,0,P|407:163|399:210,1,90
323,313,42676,1,8,0:0:0:0:
131,262,42904,1,0,0:0:0:0:
131,262,43017,1,0,0:0:0:0:
131,262,43131,6,0,P|138:216|80:124,1,135
101,138,43585,2,0,P|166:141|199:129,1,90,8|0,0:0|0:0,0:0:0:0:
358,72,44040,1,0,0:0:0:0:
331,254,44267,1,0,0:0:0:0:
295,249,44381,1,0,0:0:0:0:
265,228,44495,2,0,P|264:182|277:129,1,90,8|0,0:0|0:0,0:0:0:0:
468,327,44949,6,0,P|469:282|460:239,1,90
319,142,45404,1,8,0:0:0:0:
460,239,45631,1,0,0:0:0:0:
480,108,45858,1,0,0:0:0:0:
355,286,46085,1,0,0:0:0:0:
259,183,46313,2,0,P|250:140|260:86,1,90,8|0,0:0|0:0,0:0:0:0:
291,53,46654,1,0,0:0:0:0:
291,53,46767,6,0,L|141:51,1,135
156,51,47222,1,8,0:0:0:0:
222,192,47449,1,0,0:0:0:0:
405,61,47676,2,0,P|414:105|416:153,1,90
280,276,48131,1,8,0:0:0:0:
280,276,48245,1,0,0:0:0:0:
280,276,48358,1,0,0:0:0:0:
140,173,48585,6,0,P|184:166|239:168,1,90
37,234,49040,1,8,0:0:0:0:
85,83,49267,2,0,P|130:70|179:68,1,90
334,98,49722,1,0,0:0:0:0:
191,191,49949,1,8,0:0:0:0:
302,305,50176,1,0,0:0:0:0:
302,305,50290,1,0,0:0:0:0:
301,305,50404,6,0,P|348:263|366:184,1,135
366,195,50858,1,0,0:0:0:0:
419,298,51085,2,0,L|519:293,1,90
344,115,51540,1,0,0:0:0:0:
312,112,51654,1,0,0:0:0:0:
282,121,51767,2,0,P|252:149|235:195,1,90,8|0,0:0|0:0,0:0:0:0:
266,359,52222,5,0,0:0:0:0:
236,195,52449,1,0,0:0:0:0:
121,255,52676,1,8,0:0:0:0:
332,281,52904,2,0,P|391:239|398:135,1,180,4|0,0:0|0:0,0:0:0:0:
317,67,53585,1,8,0:0:0:0:
160,185,53813,6,0,B|228:205|300:185|300:185|270:151,1,180,4|0,0:0|0:0,0:0:0:0:
183,272,54495,2,0,P|181:312|188:362,1,90,8|0,0:0|0:0,0:0:0:0:
40,222,54949,2,0,P|43:174|56:125,1,90,0|8,0:0|0:0,0:0:0:0:
190,48,55404,1,8,0:0:0:0:
190,48,55517,1,8,0:0:0:0:
190,48,55631,1,0,0:0:0:0:
296,180,55858,5,4,0:0:0:0:
402,162,56085,1,0,0:0:0:0:
332,79,56313,2,0,L|245:84,1,72,8|0,0:0|0:0,0:0:0:0:
106,218,56767,2,0,P|116:271|106:313,2,72,0|0|8,0:0|0:0|0:0,0:0:0:0:
56,121,57449,1,0,0:0:0:0:
199,243,57676,6,0,L|281:241,1,72,2|0,0:0|0:0,0:0:0:0:
401,124,58131,1,8,0:0:0:0:
470,206,58358,2,0,P|472:248|458:297,1,72,2|0,0:0|0:0,0:0:0:0:
302,153,58813,1,0,0:0:0:0:
326,48,59040,1,8,0:0:0:0:
401,124,59267,1,0,0:0:0:0:
224,88,59495,6,0,P|188:89|152:92,1,72,2|2,0:0|0:0,0:0:0:0:
76,232,59949,1,8,0:0:0:0:
152,92,60176,1,0,0:0:0:0:
176,292,60404,2,0,P|211:290|247:287,1,72
328,187,60858,1,8,0:0:0:0:
456,250,61085,2,0,L|447:307,1,36
407,188,61313,6,0,L|399:108,1,72,2|2,0:0|0:0,0:0:0:0:
240,260,61767,2,0,P|184:262|108:182,1,144,8|0,0:0|0:0,0:0:0:0:
148,98,62449,2,0,L|160:55,2,36,2|2|12,0:0|0:0|0:0,0:0:0:0:
117,209,62904,1,0,0:0:0:0:
157,313,63131,6,0,L|255:306,1,72,4|0,0:0|0:0,0:0:0:0:
368,368,63585,1,8,0:0:0:0:
440,232,63813,2,0,P|440:169|405:96,1,144,4|0,0:0|0:0,0:0:0:0:
296,48,64495,1,8,0:0:0:0:
100,164,64722,6,0,P|136:208|232:184,1,144,4|0,0:0|0:0,0:0:0:0:
396,88,65404,1,8,0:0:0:0:
396,88,65631,2,0,L|404:248,1,144,4|0,0:0|0:0,0:0:0:0:
319,330,66313,1,8,0:0:0:0:
319,330,66767,5,0,0:0:0:0:
200,236,66995,1,0,0:0:0:0:
324,80,67222,1,8,0:0:0:0:
456,304,67449,1,0,0:0:0:0:
232,200,67676,1,0,0:0:0:0:
348,364,67904,1,0,0:0:0:0:
436,132,68131,1,0,0:0:0:0:
512,316,68358,1,0,0:0:0:0:
356,172,68585,6,0,L|192:176,1,144,4|0,0:0|0:0,0:0:0:0:
52,228,69267,5,8,0:0:0:0:
60,184,69722,1,2,0:0:0:0:
68,140,70176,1,2,0:0:0:0:
217,82,70404,6,0,P|232:123|237:174,1,90,4|0,0:0|0:0,0:0:0:0:
210,283,70858,2,0,L|313:277,1,90,8|0,0:0|0:0,0:0:0:0:
454,147,71313,2,0,P|465:190|462:241,1,90
340,207,71767,1,8,0:0:0:0:
403,57,71995,1,0,0:0:0:0:
403,57,72108,1,0,0:0:0:0:
403,57,72222,6,0,P|358:51|251:59,1,135
217,72,72676,1,8,0:0:0:0:
265,192,72904,1,0,0:0:0:0:
217,72,73131,1,0,0:0:0:0:
160,214,73358,1,0,0:0:0:0:
168,244,73472,1,0,0:0:0:0:
186,269,73585,1,8,0:0:0:0:
210,289,73699,1,0,0:0:0:0:
240,298,73813,1,0,0:0:0:0:
271,298,73926,1,0,0:0:0:0:
301,291,74040,6,0,P|349:263|368:234,1,90
193,130,74495,2,0,P|131:126|90:128,1,90,8|0,0:0|0:0,0:0:0:0:
34,294,74949,2,0,P|78:294|123:290,1,90
336,168,75404,1,8,0:0:0:0:
373,268,75631,1,0,0:0:0:0:
220,211,75858,6,0,P|217:142|225:66,1,135
224,76,76313,2,0,P|179:82|131:72,1,90,8|0,0:0|0:0,0:0:0:0:
46,30,76767,1,0,0:0:0:0:
0,184,76995,2,0,P|30:186|53:184,1,45
141,153,77222,2,0,L|120:280,1,90,8|0,0:0|0:0,0:0:0:0:
224,76,77676,5,4,0:0:0:0:
353,201,77904,1,0,0:0:0:0:
190,209,78131,1,8,0:0:0:0:
299,105,78358,1,0,0:0:0:0:
316,288,78585,1,0,0:0:0:0:
422,184,78813,1,0,0:0:0:0:
234,143,79040,1,8,0:0:0:0:
316,288,79267,1,0,0:0:0:0:
316,288,79381,1,0,0:0:0:0:
315,288,79495,6,0,P|360:290|405:287,1,90
508,200,79949,1,8,0:0:0:0:
443,81,80176,2,0,P|398:78|353:81,1,90
220,108,80631,1,0,0:0:0:0:
220,108,80745,1,0,0:0:0:0:
220,108,80858,1,8,0:0:0:0:
138,221,81085,1,0,0:0:0:0:
220,108,81313,6,0,P|219:46|203:4,1,90
92,120,81767,1,8,0:0:0:0:
252,225,81995,2,0,L|373:219,1,90
469,142,82449,1,0,0:0:0:0:
419,237,82676,1,8,0:0:0:0:
281,171,82904,1,0,0:0:0:0:
357,39,83131,6,0,P|406:37|450:40,2,90,4|0|8,0:0|0:0|0:0,0:0:0:0:
224,64,83813,1,0,0:0:0:0:
192,193,84040,2,0,P|207:215|228:233,3,30,8|8|8|8,0:0|0:0|0:0|0:0,0:0:0:0:
235,242,84381,1,8,0:0:0:0:
269,251,84495,1,8,0:0:0:0:
304,253,84608,1,8,0:0:0:0:
339,249,84722,1,8,0:0:0:0:
372,235,84835,1,8,0:0:0:0:
402,214,84949,6,0,P|427:256|439:313,1,90,4|0,0:0|0:0,0:0:0:0:
254,135,85404,2,0,P|266:91|289:53,1,90,8|0,0:0|0:0,0:0:0:0:
240,296,85858,2,0,P|196:283|158:260,2,90,0|0|8,0:0|0:0|0:0,0:0:0:0:
440,284,86540,1,0,0:0:0:0:
345,206,86767,6,0,P|344:129|357:70,1,135
439,42,87222,2,0,P|401:65|356:72,1,90,8|0,0:0|0:0,0:0:0:0:
222,21,87676,1,0,0:0:0:0:
128,128,87904,1,0,0:0:0:0:
131,150,88017,1,0,0:0:0:0:
135,172,88131,1,8,0:0:0:0:
138,194,88245,1,0,0:0:0:0:
140,216,88358,1,0,0:0:0:0:
144,238,88472,1,0,0:0:0:0:
148,260,88585,6,0,L|246:253,1,90
303,167,89040,1,8,0:0:0:0:
387,289,89267,1,0,0:0:0:0:
503,144,89495,2,0,P|448:125|398:127,1,90
322,242,89949,1,8,0:0:0:0:
406,142,90176,1,0,0:0:0:0:
182,177,90404,6,0,L|178:38,1,135
104,70,90858,2,0,L|107:164,1,90,8|0,0:0|0:0,0:0:0:0:
203,301,91313,1,0,0:0:0:0:
91,275,91540,1,0,0:0:0:0:
287,208,91767,1,8,0:0:0:0:
179,108,91995,1,0,0:0:0:0:
179,108,92108,1,0,0:0:0:0:
179,108,92222,6,0,P|168:152|166:196,1,90,4|0,0:0|0:0,0:0:0:0:
360,161,92676,2,0,P|406:157|465:160,1,90,8|0,0:0|0:0,0:0:0:0:
304,283,93131,1,0,0:0:0:0:
360,161,93358,1,0,0:0:0:0:
410,256,93585,1,8,0:0:0:0:
316,92,93813,1,0,0:0:0:0:
163,198,94040,6,0,P|151:256|156:333,1,135
155,331,94495,1,8,0:0:0:0:
34,229,94722,1,0,0:0:0:0:
131,105,94949,2,0,L|240:102,1,90
399,157,95404,1,8,0:0:0:0:
419,66,95631,1,0,0:0:0:0:
371,248,95858,6,0,P|307:253|263:252,1,90,4|0,0:0|0:0,0:0:0:0:
100,197,96313,1,8,0:0:0:0:
158,287,96540,1,0,0:0:0:0:
265,172,96767,2,0,P|261:117|251:63,1,90,4|0,0:0|0:0,0:0:0:0:
377,15,97222,1,8,0:0:0:0:
451,165,97449,6,0,P|448:218|442:266,1,90,8|0,0:0|0:0,0:0:0:0:
394,351,97904,1,0,0:0:0:0:
284,263,98131,2,0,P|219:262|180:266,1,90,8|0,0:0|0:0,0:0:0:0:
61,290,98585,2,0,L|52:253,3,30,8|8|8|8,0:0|0:0|0:0|0:0,0:0:0:0:
46,230,98926,1,8,0:0:0:0:
49,198,99040,2,0,L|86:151,3,45,8|8|8|8,0:0|0:0|0:0|0:0,0:0:0:0:
116,124,99495,6,0,L|211:126,1,90,4|0,0:0|0:0,0:0:0:0:
376,56,99949,1,8,0:0:0:0:
376,56,100176,1,0,0:0:0:0:
448,215,100404,2,0,L|348:216,1,90,4|0,0:0|0:0,0:0:0:0:
205,125,100858,1,8,0:0:0:0:
70,243,101085,6,0,P|144:300|224:280,1,180,4|0,0:0|0:0,0:0:0:0:
408,144,101767,1,8,0:0:0:0:
181,141,102222,5,8,0:0:0:0:
284,80,102449,1,2,0:0:0:0:
181,141,102676,2,0,P|177:175|180:209,1,67.5000025749208,8|0,0:0|0:0,0:0:0:0:
217,332,103131,5,0,0:0:0:0:
90,283,103358,1,8,0:0:0:0:
281,231,103585,1,8,0:0:0:0:
281,231,104040,5,8,0:0:0:0:
52,180,104267,1,8,0:0:0:0:
52,180,104722,5,8,0:0:0:0:
306,110,104949,1,8,0:0:0:0:
306,110,105404,5,8,0:0:0:0:
18,47,105631,1,12,0:0:0:0:
