osu file format v5

[General]
AudioFilename: BOYSTYLE - Kokoro no Chizu.mp3
AudioLeadIn: 1000
PreviewTime: -1
Countdown: 0
SampleSet: Normal
EditorBookmarks: 3725,7321,10958,14327,18645,32963,36600,40463,47509,51145,54668,57963,61600,65236,68872,72963,75918,80236,83645,87054,91145,94781,98190,101600,105236,123872,127509,130918,134327,137963,141600,145236,149327,152281,156600,160009,163418,167509,171145,174554,177963,181600,185918,206827,211145,214554,217963,222054,225690,229100,232509,236145

[Metadata]
Title:Kokoro no Chizu
Artist:BOYSTYLE
Creator:Hitoshirenu Shourai
Version:Normal

[Difficulty]
HPDrainRate:4
CircleSize:3
OverallDifficulty:4
SliderMultiplier:1
SliderTickRate:0.5

[Events]
//Background and Video events
0,0,"05e. Compact Disc.jpg"
//Break Periods
2,18410,32160
2,108865,122680
2,184092,205634
//Storyboard Layer 0 (Background)
//Storyboard Layer 1 (Failing)
//Storyboard Layer 2 (Passing)
//Storyboard Layer 3 (Foreground)
//Storyboard Sound Samples
//Background Colour Transformations
3,100,163,162,255

[TimingPoints]
4120,454.545454545455,4,1,0,100

[Colours]
Combo1 : 0,0,255
Combo2 : 240,240,255
Combo3 : 204,204,255
Combo4 : 155,155,255

[HitObjects]
258,171,3438,1,0
256,256,3892,2,0,B|256:328,1,50
336,344,4574,1,2
408,288,5029,1,0
408,200,5483,1,2
376,112,5938,1,4
288,80,6279,2,6,B|257:111|234:53|208:96,1,75
64,120,7756,5,0
120,192,8210,1,2
128,280,8665,1,0
200,328,9120,1,2
288,328,9574,2,6,B|344:336|368:288,2,75
336,152,11165,6,2,B|336:88,2,50
288,152,11847,2,2,B|288:88,2,50
216,96,12756,1,0
216,184,13210,1,0
128,144,13665,2,6,B|80:112|40:168,1,100
72,248,14574,6,2,B|72:312|120:344,1,100
216,248,15710,1,4
440,232,16620,1,4
384,112,17301,1,4
312,64,17756,2,6,B|344:32,4,25
128,64,33210,6,0,B|64:104|80:168,1,100
96,232,34120,1,2
144,304,34574,1,0
224,264,35029,2,6,B|248:216|291:257|360:208,1,150
440,48,36847,5,0
392,48,37074,1,0
344,48,37301,1,2
256,48,37756,2,6,B|256:112|304:112,2,75
256,192,38892,12,4,40029
104,296,40710,1,0
144,304,40938,1,2
184,320,41165,1,0
224,320,41392,2,6,B|264:280|296:344|336:328,1,100
392,288,42301,2,2,B|352:264|312:304|288:264,1,100
256,248,42983,2,2,B|328:280|336:216|360:248,1,100
392,160,43892,5,0
416,120,44120,1,4
448,40,44574,2,4,B|416:88|360:48|320:112,1,150
256,192,45710,12,4,46847
48,40,47756,1,0
72,72,47983,1,2
96,104,48210,1,4
160,40,48665,1,0
192,72,48892,1,2
224,104,49120,1,4
192,184,49574,2,6,B|160:152|120:192,2,75
200,320,50938,6,6,B|232:320,3,25
224,320,51392,1,0
272,320,51620,1,0
304,288,51847,1,2
344,312,52074,2,6,B|376:304|360:224|408:224,1,100
392,184,52756,1,2
392,136,52983,1,4
256,192,53438,12,4,54574
48,344,55029,2,2,B|96:304|32:248|152:176,1,200
128,136,56165,1,0
80,136,56392,1,4
48,104,56620,2,2,B|40:72|96:56|136:24|192:56,1,150
169,46,57529,1,4
304,72,58210,6,0,B|264:80|240:128|264:160,1,100
344,136,59120,2,0,B|343:187,1,50
336,272,59801,1,4
304,232,60029,1,4
272,192,60256,1,4
48,40,61847,5,0
48,80,62074,1,0
48,120,62301,2,2,B|80:160|16:200|56:224,1,100
64,256,62983,2,6,B|104:240|112:304|168:280,1,100
192,264,63665,1,0
232,280,63892,2,6,B|272:232|272:320|328:296,1,100
480,144,65483,5,0
408,88,65938,1,6
336,144,66392,1,0
264,88,66847,1,6
192,144,67301,2,2,B|152:96,1,50
80,144,67983,2,6,B|128:88,1,50
112,288,69120,6,0,B|128:336|192:336|184:288,1,100
272,272,70029,2,6,B|240:312,1,50
272,224,70710,1,4
352,192,71165,2,6,B|352:232|400:248|443:224|448:160,1,150
408,136,72074,2,6,B|385:93|328:80,1,100
192,88,73210,5,2
144,88,73438,1,4
144,176,73892,1,2
192,176,74120,1,4
192,264,74574,1,2
144,264,74801,2,6,B|104:280|128:352|184:376|241:362|256:304,1,200
256,232,76165,5,6
256,192,76620,12,6,80029
56,56,80483,1,0
144,56,80938,1,4
232,56,81392,1,2
320,56,81847,1,4
280,136,82301,2,6,B|232:176|192:160,2,75
152,264,83892,5,2
176,304,84120,1,4
256,264,84574,1,2
280,304,84801,1,4
360,264,85256,2,6,B|392:304,2,50
336,224,85938,2,2,B|368:208|368:152|336:120,1,100
347,134,86620,1,4
224,72,87301,5,0
136,72,87756,1,0
96,152,88210,1,6
184,152,88665,1,0
152,232,89120,1,0
64,232,89574,1,6
80,320,90029,2,6,B|152:320,1,50
352,320,91392,6,2,B|432:288|456:248|448:208|400:136|456:184,1,200
376,104,92756,2,6,B|352:56,1,50
264,88,93438,2,2,B|192:56|200:176|120:88,1,150
132,101,94347,1,4
164,5,94574,1,4
128,192,95029,5,0
216,192,95483,1,6
304,192,95938,1,0
392,192,96392,1,6
344,272,96847,2,6,B|288:352|208:264,1,150
256,192,98665,12,4,100029
320,192,100483,2,6,B|168:192,1,150
120,64,101847,1,2
208,64,102301,1,4
344,64,102983,1,4
344,240,103892,2,6,B|304:328|216:280,1,150
144,120,105483,5,0
128,160,105710,1,2
128,208,105938,1,4
176,280,106392,1,2
216,304,106620,1,4
256,224,107074,1,6
256,192,107301,12,6,108665
368,136,124120,1,0
296,80,124574,1,2
208,80,125029,1,0
144,144,125483,1,2
200,216,125938,2,6,B|248:232|256:272,2,75
400,320,127756,5,0
352,320,127983,1,4
320,232,128438,1,0
360,232,128665,1,4
328,144,129120,1,2
280,144,129347,1,6
256,192,130029,12,2,130938
96,56,131392,2,6,B|400:56,1,300
392,176,133210,2,6,B|80:176,1,300
80,264,135029,1,2
232,264,135710,1,0
384,264,136392,1,6
456,192,136847,1,6
256,56,138210,5,0
256,56,138438,1,0
256,56,138665,2,6,B|280:128|256:168,1,100
262,154,139347,1,4
128,160,140029,1,0
128,248,140483,2,6,B|174:269|194:186|216:232,1,100
213,226,141165,1,4
256,96,141847,5,0
256,192,142301,12,6,142983
256,320,143665,5,4
256,192,144120,12,6,144801
48,48,145483,1,0
136,48,145938,1,4
224,48,146392,1,2
312,48,146847,1,4
352,128,147301,1,2
264,128,147756,1,4
176,128,148210,1,2
88,128,148665,1,4
40,208,149120,1,2
104,272,149574,5,4
104,272,149801,1,6
192,272,150256,1,4
192,272,150483,1,2
280,272,150938,1,4
280,272,151165,1,2
320,264,151392,2,6,B|277:204|381:188|336:128,1,150
112,80,153210,6,6,B|72:144|136:216|64:280,1,200
208,312,155029,1,2
248,312,155256,1,4
280,224,155711,1,2
232,224,155938,1,4
256,192,156392,12,6,156847
408,64,157529,1,0
360,64,157756,1,2
312,64,157983,1,4
312,152,158438,1,0
264,152,158665,1,2
216,152,158892,1,4
216,240,159347,2,6,B|208:328|256:280|312:336,1,150
400,328,160483,1,4
408,192,161165,5,0
272,192,161847,1,2
224,192,162074,1,2
176,192,162301,2,6,B|24:192,1,150
64,64,163665,5,4
152,64,164120,1,6
328,64,164801,1,4
416,168,165484,5,2
352,232,165938,1,2
248,320,166620,1,6
256,192,167756,12,6,168665
256,192,169574,12,6,170483
88,80,171392,1,2
136,80,171620,1,4
88,208,172301,1,2
136,208,172529,1,4
88,336,173210,2,6,B|131:372|198:267|232:360,1,150
456,328,175029,6,6,B|400:288|488:248|432:184,1,150
312,56,176847,2,6,B|371:102|221:109|336:192,1,150
96,192,178665,5,0
184,296,179347,1,2
272,192,180029,2,6,B|336:224|328:328,1,150
328,321,180938,1,4
256,168,181847,5,0
256,192,182301,12,6,182756
256,192,182983,12,6,183665
256,168,183892,1,6
56,192,207756,5,0
144,192,208211,1,2
232,192,208665,1,0
320,192,209120,1,2
408,192,209574,1,6
368,112,210029,2,6,B|312:112,1,50
256,192,210710,12,4,211392
128,296,211847,5,2
216,296,212301,1,4
304,296,212756,1,2
384,264,213210,2,6,B|320:208|344:192,2,75
344,88,214801,5,0
296,88,215029,1,6
208,88,215483,1,0
160,88,215710,1,6
72,88,216165,1,4
64,176,216620,1,6
64,176,216847,2,6,B|94:144|108:217|144:160,2,75
128,296,218210,5,0
176,296,218438,1,0
216,296,218665,2,6,B|320:296,1,100
344,264,219347,2,6,B|400:232|400:184,1,100
376,144,220029,1,0
280,48,220483,2,6,B|168:56,3,100
112,112,222301,6,0,B|112:216,1,100
152,232,222983,1,6
192,208,223210,2,0,B|192:96,1,100
232,88,223892,1,6
272,112,224120,2,6,B|272:200,2,75
384,304,225938,5,0
248,304,226620,1,2
200,304,226847,1,4
96,216,227529,1,4
96,168,227756,2,6,B|128:136|72:96|112:80,2,75
256,192,229574,12,6,230029
256,192,230256,12,6,230710
256,192,230938,1,6
256,192,231165,1,6
256,192,231392,12,6,231847
256,192,232074,12,6,232529
256,192,232756,1,4
344,192,233210,2,6,B|344:248|288:288,1,100
256,280,233892,2,6,B|226:276|184:262|168:216,1,100
176,184,234574,1,2
176,136,234801,2,6,B|200:80|264:80,1,100
296,96,235483,1,6
448,192,236392,5,0
448,240,236620,1,0
424,280,236847,1,6
384,296,237074,1,0
336,296,237301,1,0
288,304,237529,2,6,B|256:256|216:320|184:288,1,100
152,280,238210,1,6
112,256,238438,2,6,B|102:139|286:274|240:24,1,300
241,32,240029,1,4
241,32,240256,1,4
241,32,240483,1,6
