osu file format v5

[General]
AudioFilename: BOYSTYLE - Kokoro no Chizu.mp3
AudioLeadIn: 1000
PreviewTime: -1
Countdown: 0
SampleSet: Normal
EditorBookmarks: 3725,7321,10958,18665,32983,50938,65256,75938,87074,98210,123892,141847,185483,206847

[Metadata]
Title:Kokoro no Chizu
Artist:BOYSTYLE
Creator:Hitoshirenu Shourai
Version:Easy

[Difficulty]
HPDrainRate:2
CircleSize:0
OverallDifficulty:2
SliderMultiplier:1
SliderTickRate:0.5

[Events]
//Background and Video events
0,0,"05e. Compact Disc.jpg"
//Break Periods
2,17501,31650
2,109320,122560
2,184092,205741
//Storyboard Layer 0 (Background)
//Storyboard Layer 1 (Failing)
//Storyboard Layer 2 (Passing)
//Storyboard Layer 3 (Foreground)
//Storyboard Sound Samples
//Background Colour Transformations
3,100,163,162,255

[TimingPoints]
4120,454.545454545455,4,1,0,100

[Colours]
Combo1 : 0,0,255
Combo2 : 240,240,255
Combo3 : 204,204,255
Combo4 : 155,155,255

[HitObjects]
256,56,4120,1,0
176,192,5029,1,0
336,192,5938,1,2
256,280,6620,1,4
104,192,7756,5,0
224,80,8665,1,0
336,192,9574,1,2
456,192,10256,1,4
352,304,11392,5,0
200,248,12301,1,0
312,136,13210,2,6,B|224:88,2,75
392,136,14574,5,0
312,136,15029,1,2
208,192,15710,1,0
184,336,16620,2,6,B|256:304|336:336,1,150
456,192,33210,5,0
320,312,34120,1,0
136,312,35029,1,2
64,192,35710,1,4
256,80,36847,5,0
112,192,37756,1,2
248,192,38438,1,4
472,192,39574,1,6
352,56,40483,5,0
168,56,41392,1,0
160,232,42301,1,6
336,232,43210,1,6
200,112,44120,5,0
56,224,45029,1,6
192,336,45938,1,0
320,208,46847,1,6
48,192,47756,5,0
256,336,48665,1,0
464,192,49574,1,6
360,104,50256,1,6
136,80,51392,5,0
160,256,52301,1,0
280,312,52983,1,6
456,192,54120,1,6
312,48,55029,5,0
176,56,55710,1,0
88,160,56392,1,6
112,272,56847,5,2
256,336,57756,1,0
424,264,58665,1,6
408,128,59347,5,6
288,64,60029,1,6
257,169,60483,1,6
256,192,62301,12,0,64574
200,72,65938,6,2,B|328:47|368:160,1,200
320,256,67756,2,2,B|202:306|152:184,1,200
104,72,69574,5,0
256,72,70483,1,6
432,72,71392,1,0
440,296,72301,1,6
256,304,73210,5,0
256,216,73665,1,2
256,128,74120,1,4
256,40,74574,1,2
184,96,75029,6,6,B|123:172|224:135|184:232,1,150
328,56,76847,5,0
328,232,77756,1,6
144,232,78665,1,0
144,96,79347,1,6
256,288,80483,6,6,B|336:224|344:112,1,200
176,56,82301,2,2,B|72:96|80:224,1,200
256,192,84120,12,0,86847
256,248,87756,1,0
64,192,88665,1,0
256,136,89574,1,6
456,192,90483,1,6
328,320,91392,6,2,B|216:320,1,100
136,320,92301,1,4
80,248,92756,1,0
152,192,93210,6,2,B|264:192,1,100
344,192,94120,1,4
88,72,95029,5,0
256,192,95938,1,6
408,312,96847,1,4
256,320,97529,1,6
160,152,98665,6,6,B|278:86|352:168,1,200
352,232,100483,2,6,B|234:298|160:216,1,200
72,72,102301,5,0
184,144,102983,1,6
296,224,103665,1,6
368,272,104120,2,6,B|311:313|256:320,1,100
184,312,105029,1,4
48,192,105938,6,6,B|64:96|200:72,1,200
256,192,107301,12,4,109120
424,192,124120,5,0
256,320,125029,1,0
48,192,125938,1,6
144,96,126620,1,6
368,96,127756,5,0
336,272,128665,1,6
200,280,129347,1,6
256,192,130029,12,0,130938
72,192,132301,1,0
248,192,133210,1,6
424,192,134120,1,6
256,264,135029,5,0
256,128,135710,1,6
136,192,136392,1,6
376,72,137756,5,0
456,232,138665,1,0
312,336,139574,1,6
128,320,140483,1,6
80,144,141392,1,0
200,56,142301,5,0
304,184,143210,1,6
208,280,144120,1,0
400,280,145029,1,6
400,96,145938,6,2,B|296:96,1,100
208,96,146847,1,4
72,216,147756,2,2,B|192:216,1,100
264,216,148665,1,4
256,192,149574,12,4,152074
72,64,153210,5,0
256,64,154120,1,0
256,240,155029,1,6
376,320,155710,1,6
80,320,156847,5,0
80,136,157756,1,0
240,144,158665,1,6
368,144,159347,1,6
256,328,160483,6,6,B|265:277|176:192|112:240,1,200
256,72,162301,2,6,B|256:168|328:192|408:176,1,200
80,192,164120,5,0
256,192,165029,1,6
424,192,165938,1,0
256,192,166847,1,6
80,72,167756,6,2,B|80:184,1,100
80,264,168665,1,4
256,272,169574,2,2,B|256:160,1,100
256,80,170483,1,4
432,80,171392,6,2,B|432:192,1,100
432,272,172301,2,2,B|328:272,1,100
328,184,173210,2,2,B|328:80,1,100
240,88,174120,1,4
56,96,175029,5,0
56,272,175938,1,4
232,280,176847,2,6,B|304:312,2,75
408,136,178665,5,0
296,64,179347,1,6
184,136,180029,2,0,B|240:232|320:232,1,150
295,229,180938,1,4
256,168,182301,5,2
120,168,182983,1,2
184,288,183665,2,6,B|248:312,1,50
256,192,207301,12,4,210937
168,104,211847,6,2,B|211:47|324:51|352:128,1,200
368,192,213210,1,4
280,192,213665,1,4
192,192,214120,1,4
64,64,215029,6,2,B|64:168,1,100
64,256,215938,1,4
240,256,216847,2,2,B|328:312,1,100
400,256,217756,1,4
400,72,218665,5,0
312,72,219120,1,6
256,144,219574,1,0
168,144,220029,1,6
80,144,220483,2,2,B|24:200|72:272|112:272,1,150
312,192,222301,6,2,B|152:192,1,150
120,192,223210,1,4
72,192,223438,1,4
72,56,224120,2,2,B|224:56,1,150
264,56,225029,1,4
304,56,225256,1,4
384,160,225938,5,0
256,288,226847,1,6
80,264,227756,2,2,B|72:152,1,100
72,120,228438,1,4
288,56,229574,5,0
336,136,230029,1,6
288,216,230483,1,0
304,304,230938,1,6
216,320,231392,2,6,B|176:288|136:296,2,75
176,192,232756,5,0
256,152,233210,1,6
376,280,234120,1,6
448,120,235029,2,6,B|416:48|368:48,1,100
256,192,236847,12,4,240483
