osu file format v14

[General]
AudioFilename: KIZNAIVER OPENING (NANOBII EDIT).mp3
AudioLeadIn: 0
PreviewTime: 47046
Countdown: 0
SampleSet: Soft
StackLeniency: 0.4
Mode: 0
LetterboxInBreaks: 0
WidescreenStoryboard: 1

[Editor]
Bookmarks: 13164,24458,47046,58340,69634
DistanceSpacing: 0.6
BeatDivisor: 2
GridSize: 16
TimelineZoom: 2.250002

[Metadata]
Title:LAY YOUR HANDS ON ME (NANOBII EDIT)
TitleUnicode:LAY YOUR HANDS ON ME (NANOBII EDIT)
Artist:BOOM BOOM SATELLITES
ArtistUnicode:BOOM BOOM SATELLITES
Creator:Crowie
Version:-/KIZNA/-
Source:キズナイーバー
Tags:kiznaiver opening anime Logic Agent Logic_Agent _Meep_ [_L_u_k_a_s_]
BeatmapID:1201083
BeatmapSetID:522553

[Difficulty]
HPDrainRate:7
CircleSize:4.6
OverallDifficulty:8.6
ApproachRate:9.4
SliderMultiplier:2.8
SliderTickRate:1

[Events]
//Background and Video events
0,0,"mtu7XY.png",0,0
//Break Periods
//Storyboard Layer 0 (Background)
//Storyboard Layer 1 (Fail)
//Storyboard Layer 2 (Pass)
//Storyboard Layer 3 (Foreground)
//Storyboard Sound Samples

[TimingPoints]
1870,352.941176470588,4,2,1,40,1,0
4340,-166.666666666667,4,2,1,40,0,0
12281,-125,4,2,1,40,0,0
13164,-125,4,2,1,60,0,0
18811,-125,4,2,1,30,0,0
20222,-125,4,2,1,40,0,0
21634,-125,4,2,1,50,0,0
23046,-125,4,2,1,60,0,0
24458,-100,4,2,1,80,0,1
32575,-95.2380952380952,4,2,1,80,0,1
32928,-100,4,2,1,80,0,1
45634,-100,4,2,1,40,0,0
45987,-100,4,2,1,50,0,0
46340,-100,4,2,1,60,0,0
46693,-100,4,2,1,70,0,0
47046,-100,4,2,1,80,0,1
50399,-83.3333333333333,4,2,1,80,0,1
50664,-100,4,2,1,80,0,1
56928,-100,4,2,1,40,0,1
57281,-100,4,2,1,50,0,1
57634,-100,4,2,1,60,0,1
57987,-100,4,2,1,70,0,1
58340,-166.666666666667,4,2,1,60,0,0
58428,-166.666666666667,4,2,1,40,0,0
69634,-200,4,2,1,60,0,0
70340,-200,4,2,1,40,0,0
71046,-200,4,2,1,25,0,0
71752,-200,4,2,1,10,0,0
72458,-200,4,2,1,5,0,0

[Colours]
Combo1 : 128,191,255
Combo2 : 191,128,255
Combo3 : 255,128,159
Combo4 : 255,191,128
Combo5 : 223,255,128
Combo6 : 128,255,191

[HitObjects]
256,192,105,12,0,1693,0:0:0:0:
14,153,1870,5,12,0:0:0:0:
186,233,2046,1,0,0:1:0:0:
205,242,2135,1,2,0:1:0:0:
41,246,2311,1,0,0:1:0:0:
24,258,2400,1,2,0:1:0:0:
178,150,2576,1,0,0:1:0:0:
196,138,2665,1,2,0:1:0:0:
117,282,2840,1,0,0:1:0:0:
119,302,2929,1,2,0:1:0:0:
101,93,3105,5,2,0:1:0:0:
196,138,3282,1,0,0:1:0:0:
200,119,3369,1,2,0:1:0:0:
300,129,3547,1,0,0:1:0:0:
293,111,3634,1,2,0:1:0:0:
385,69,3812,1,0,0:1:0:0:
370,57,3899,1,2,0:1:0:0:
394,172,4075,1,0,0:1:0:0:
375,179,4164,1,2,0:1:0:0:
487,215,4341,1,0,0:1:0:0:
484,235,4428,2,0,P|484:263|496:291,2,41.9999987182618,2|0|0,0:1|0:1|0:1,0:0:0:0:
401,312,4693,5,2,0:1:0:0:
314,252,4869,1,0,0:1:0:0:
314,252,4957,1,2,0:1:0:0:
219,297,5133,1,0,0:1:0:0:
219,297,5221,1,2,0:1:0:0:
132,237,5399,1,0,0:1:0:0:
132,237,5487,1,2,0:1:0:0:
37,282,5663,1,0,0:1:0:0:
37,282,5751,1,2,0:1:0:0:
124,342,5928,5,2,0:1:0:0:
138,152,6105,1,0,0:1:0:0:
140,132,6193,1,2,0:1:0:0:
55,273,6369,1,0,0:1:0:0:
37,282,6457,1,2,0:1:0:0:
208,199,6634,1,0,0:1:0:0:
226,190,6722,1,2,0:1:0:0:
63,190,6899,1,0,0:1:0:0:
46,178,6987,1,2,0:1:0:0:
202,285,7164,1,0,0:1:0:0:
219,297,7252,1,2,0:1:0:0:
235,309,7340,1,0,0:1:0:0:
251,321,7428,1,0,0:1:0:0:
268,333,7517,5,2,0:1:0:0:
344,251,7693,1,0,0:1:0:0:
352,269,7782,1,2,0:1:0:0:
458,235,7958,1,0,0:1:0:0:
456,255,8047,1,2,0:1:0:0:
411,164,8222,1,0,0:1:0:0:
392,172,8311,1,2,0:1:0:0:
398,71,8486,1,0,0:1:0:0:
378,68,8575,1,2,0:1:0:0:
398,147,8752,5,2,0:1:0:0:
275,88,8929,1,0,0:1:0:0:
283,69,9017,1,2,0:1:0:0:
365,51,9193,1,0,0:1:0:0:
378,68,9281,1,2,0:1:0:0:
310,170,9458,1,0,0:1:0:0:
318,151,9546,1,2,0:1:0:0:
398,147,9722,1,0,0:1:0:0:
411,164,9810,1,2,0:1:0:0:
345,254,9987,1,0,0:1:0:0:
353,233,10075,2,0,P|371:246|417:251,2,41.9999987182618,2|0|0,0:1|0:0|0:0,0:0:0:0:
257,239,10340,5,2,0:1:0:0:
159,295,10517,1,0,0:1:0:0:
141,308,10605,1,2,0:1:0:0:
180,164,10781,1,0,0:1:0:0:
197,154,10869,1,2,0:1:0:0:
82,220,11046,1,0,0:1:0:0:
65,228,11134,1,2,0:1:0:0:
103,89,11311,1,0,0:1:0:0:
120,79,11399,1,2,0:1:0:0:
5,144,11576,5,2,0:1:0:0:
4,33,11752,1,0,0:1:0:0:
3,13,11840,1,2,0:1:0:0:
103,89,12017,1,0,0:1:0:0:
120,79,12105,1,2,0:1:0:0:
5,144,12281,1,0,0:1:0:0:
5,144,12369,2,0,B|-8:182|32:200|32:200|42:227|42:227|100:179|178:231|177:316|107:363|45:324|45:324|91:301|81:255,1,448,6|0,0:1|0:1,0:0:0:0:
243,227,13164,5,8,0:0:0:0:
257,226,13252,1,0,0:0:0:0:
270,225,13340,2,0,L|326:219,1,56,0|0,0:0|0:0,0:0:0:0:
409,50,13517,2,0,P|397:26|378:5,1,56,8|0,0:0|0:0,0:0:0:0:
417,236,13693,2,0,P|409:262|394:286,1,56,2|0,0:1|0:0,0:0:0:0:
412,143,13869,5,8,0:0:0:0:
412,143,13957,2,0,L|515:133,2,56,2|0|0,0:1|0:0|0:0,0:0:0:0:
311,84,14222,1,8,0:0:0:0:
197,113,14399,1,2,0:1:0:0:
194,91,14487,1,0,0:0:0:0:
192,69,14575,6,0,L|187:13,1,56,8|2,0:0|0:1,0:0:0:0:
78,98,14752,2,0,L|83:28,1,56,0|0,0:0|0:0,0:0:0:0:
160,198,14928,2,0,L|165:267,1,56,8|0,0:0|0:0,0:0:0:0:
274,169,15105,2,0,L|268:238,1,56,0|2,0:0|0:1,0:0:0:0:
76,117,15281,6,0,B|47:112|47:112|15:123,1,56,8|0,0:0|0:0,0:0:0:0:
155,273,15458,2,0,B|184:278|184:278|216:267,1,56,2|0,0:1|0:0,0:0:0:0:
54,226,15634,1,8,0:0:0:0:
54,226,15722,2,0,L|46:295,1,56,2|0,0:1|0:0,0:0:0:0:
372,286,15987,6,0,L|359:140,1,112,8|0,0:0|0:0,0:0:0:0:
498,221,16252,1,2,0:1:0:0:
498,221,16340,2,0,P|470:225|431:207,1,56,8|0,0:0|0:0,0:0:0:0:
482,61,16517,6,0,B|472:144|472:144|445:100,1,112,2|8,0:1|0:0,0:0:0:0:
278,87,16781,2,0,B|310:98|331:80|352:63|385:75,1,112,2|0,0:1|0:0,0:0:0:0:
270,225,17046,2,0,L|276:152,1,56,8|0,0:0|0:0,0:0:0:0:
187,60,17222,1,2,0:1:0:0:
187,60,17399,6,0,L|193:132,1,56,8|2,0:0|0:1,0:0:0:0:
148,229,17575,2,0,P|124:238|86:236,1,56
69,103,17752,2,0,P|88:119|106:153,1,56,8|0,0:0|0:0,0:0:0:0:
7,255,17928,5,0,0:0:0:0:
4,245,18016,1,2,0:1:0:0:
0,234,18105,2,0,P|4:206|19:182,1,56,8|0,0:0|0:0,0:0:0:0:
165,312,18281,1,2,0:1:0:0:
165,312,18369,1,0,0:0:0:0:
165,312,18458,2,0,B|171:331|171:331|167:348|167:348|172:366,1,56,8|0,0:0|0:0,0:0:0:0:
189,350,18811,5,8,0:0:0:0:
210,343,18899,1,0,0:0:0:0:
232,342,18987,1,0,0:0:0:0:
254,347,19075,1,2,0:1:0:0:
273,358,19163,1,8,0:0:0:0:
289,374,19252,1,0,0:0:0:0:
310,380,19340,1,2,0:1:0:0:
332,381,19428,1,0,0:0:0:0:
354,376,19517,5,8,0:0:0:0:
373,365,19604,1,2,0:1:0:0:
389,349,19693,1,0,0:0:0:0:
394,327,19781,1,0,0:0:0:0:
405,307,19869,1,8,0:0:0:0:
420,291,19957,1,0,0:0:0:0:
439,279,20045,1,2,0:1:0:0:
460,272,20134,1,0,0:0:0:0:
482,271,20222,5,8,0:0:0:0:
460,253,20310,1,2,0:1:0:0:
447,228,20398,1,0,0:0:0:0:
444,201,20486,1,0,0:0:0:0:
451,174,20575,1,2,0:1:0:0:
463,149,20663,1,0,0:0:0:0:
467,121,20751,1,0,0:0:0:0:
461,94,20839,1,2,0:1:0:0:
447,70,20928,5,0,0:0:0:0:
425,52,21016,1,0,0:0:0:0:
399,42,21104,1,2,0:1:0:0:
371,41,21192,1,0,0:0:0:0:
345,50,21280,1,0,0:0:0:0:
319,62,21370,1,2,0:1:0:0:
292,64,21458,1,0,0:0:0:0:
265,57,21546,1,0,0:0:0:0:
242,41,21634,5,0,0:0:0:0:
251,73,21722,1,0,0:0:0:0:
249,106,21810,1,0,0:0:0:0:
236,137,21898,1,2,0:1:0:0:
213,161,21986,1,0,0:0:0:0:
177,177,22075,1,0,0:0:0:0:
139,176,22163,1,2,0:1:0:0:
104,159,22251,1,0,0:0:0:0:
78,129,22340,5,0,0:0:0:0:
38,147,22428,1,2,0:1:0:0:
10,182,22516,1,0,0:0:0:0:
3,225,22604,1,0,0:0:0:0:
16,268,22693,1,0,0:0:0:0:
49,304,22781,1,0,0:0:0:0:
96,320,22869,1,0,0:0:0:0:
145,309,22957,1,0,0:0:0:0:
188,278,23046,5,0,0:0:0:0:
240,266,23134,1,0,0:0:0:0:
299,280,23222,1,0,0:0:0:0:
351,322,23311,1,0,0:0:0:0:
423,323,23399,5,0,0:0:0:0:
467,258,23487,1,2,0:0:0:0:
424,185,23575,1,2,0:0:0:0:
334,194,23664,1,2,0:0:0:0:
334,194,24458,6,0,B|346:88|346:88|311:141,1,140,12|0,0:0|0:0,0:0:0:0:
322,286,24722,1,0,0:0:0:0:
322,286,24811,2,0,L|201:275,1,70,10|0,0:0|0:0,0:0:0:0:
148,171,24987,2,0,L|268:160,1,70,2|0,0:1|0:0,0:0:0:0:
161,316,25164,1,8,0:0:0:0:
161,316,25252,1,2,0:1:0:0:
161,316,25340,2,0,P|153:274|110:244,1,70,0|0,0:0|0:0,0:0:0:0:
343,288,25517,1,10,0:0:0:0:
79,313,25693,1,2,0:1:0:0:
189,71,25869,6,0,B|235:83|265:120|257:171|222:187|222:187|229:153|212:128,1,210,8|0,0:0|0:0,0:0:0:0:
334,194,26222,1,10,0:0:0:0:
361,196,26310,1,0,0:0:0:0:
389,198,26398,1,0,0:1:0:0:
417,201,26487,1,2,0:1:0:0:
445,203,26574,1,8,0:0:0:0:
406,55,26752,6,0,P|382:67|357:123,1,70,2|0,0:1|0:0,0:0:0:0:
343,288,26928,2,0,L|463:277,1,70,10|0,0:0|0:0,0:0:0:0:
497,145,27105,2,0,P|474:130|413:136,1,70,2|0,0:1|0:0,0:0:0:0:
360,305,27281,6,0,B|405:294|405:294|447:312|447:312|493:301,1,140,8|0,0:0|0:0,0:0:0:0:
277,246,27546,1,2,0:1:0:0:
271,257,27634,2,0,P|261:284|279:342,1,70,10|0,0:0|0:0,0:0:0:0:
169,242,27811,2,0,L|50:230,1,70,2|0,0:1|0:0,0:0:0:0:
226,84,27987,1,8,0:0:0:0:
231,88,28075,1,2,0:1:0:0:
236,93,28164,2,0,P|242:127|231:160,1,70,0|0,0:0|0:0,0:0:0:0:
0,229,28340,1,10,0:0:0:0:
166,124,28517,1,2,0:1:0:0:
132,371,28693,6,0,B|72:373|45:314|84:258|84:258|95:299|143:316,1,210,8|0,0:0|0:0,0:0:0:0:
262,338,29046,1,10,0:0:0:0:
289,335,29134,1,0,0:0:0:0:
317,333,29222,1,2,0:1:0:0:
345,330,29310,1,0,0:0:0:0:
373,328,29399,1,8,0:0:0:0:
349,294,29487,1,0,0:0:0:0:
348,253,29575,1,2,0:1:0:0:
371,218,29663,1,0,0:0:0:0:
409,202,29752,2,0,L|507:211,1,70,10|0,0:0|0:0,0:0:0:0:
222,184,29928,2,0,L|320:193,1,70,2|0,0:1|0:0,0:0:0:0:
69,230,30105,6,0,B|112:175|112:175|81:73,1,140,8|0,0:0|0:0,0:0:0:0:
133,17,30369,1,0,0:0:0:0:
133,17,30458,2,0,L|34:26,1,70,10|0,0:0|0:0,0:0:0:0:
191,98,30634,2,0,P|224:65|227:12,1,70,2|0,0:1|0:0,0:0:0:0:
91,107,30811,1,8,0:0:0:0:
91,107,30899,1,2,0:1:0:0:
91,107,30987,2,0,P|103:152|147:181,1,70,0|0,0:0|0:0,0:0:0:0:
409,202,31164,1,10,0:0:0:0:
191,98,31340,1,2,0:1:0:0:
237,256,31517,5,8,0:0:0:0:
237,256,31605,2,0,B|247:155|247:155|210:197,1,140,0|0,0:0|0:0,0:0:0:0:
228,382,31869,2,0,P|243:343|320:328,2,70,10|0|0,0:0|0:0|0:0,0:0:0:0:
338,330,32134,5,2,0:1:0:0:
353,332,32222,2,0,L|422:337,1,70,8|0,0:0|0:0,0:0:0:0:
124,312,32399,2,0,L|54:306,1,70,2|0,0:1|0:0,0:0:0:0:
353,332,32575,6,0,B|389:345|389:345|422:337,1,73.4999977569581,10|0,0:0|0:0,0:0:0:0:
124,312,32752,2,0,B|88:299|88:299|54:306,1,73.4999977569581,2|0,0:1|0:0,0:0:0:0:
327,243,32928,6,0,B|392:266|392:266|461:252,1,140,8|0,0:0|0:0,0:0:0:0:
475,92,33193,1,2,0:1:0:0:
475,92,33281,2,0,L|467:188,1,70,10|0,0:0|0:0,0:0:0:0:
357,80,33458,2,0,P|381:136|314:103,1,140,2|8,0:1|0:0,0:0:0:0:
322,6,33722,1,2,0:1:0:0:
335,1,33811,2,0,P|369:1|403:11,1,70,0|0,0:0|0:0,0:0:0:0:
237,197,33987,2,0,L|244:99,1,70,10|0,0:0|0:0,0:0:0:0:
58,80,34164,2,0,L|65:149,1,70,2|0,0:1|0:0,0:0:0:0:
230,286,34340,6,0,B|199:287|170:258|170:258|121:208|52:224|26:277,1,210,8|0,0:0|0:0,0:0:0:0:
100,335,34693,1,10,0:0:0:0:
102,329,34781,1,0,0:0:0:0:
103,322,34869,1,2,0:1:0:0:
103,315,34957,1,0,0:0:0:0:
103,308,35046,1,8,0:0:0:0:
120,54,35222,6,0,P|81:62|46:96,1,70,2|0,0:1|0:0,0:0:0:0:
237,197,35399,2,0,P|276:189|311:155,1,70,10|0,0:0|0:0,0:0:0:0:
247,48,35575,2,0,P|234:85|246:133,1,70,2|0,0:1|0:0,0:0:0:0:
449,81,35752,6,0,B|403:74|403:74|362:96|362:96|317:89,1,140,8|0,0:0|0:0,0:0:0:0:
434,242,36017,1,0,0:0:0:0:
434,242,36105,2,0,L|440:173,1,70,10|0,0:0|0:0,0:0:0:0:
427,336,36281,2,0,B|461:341|461:341|492:324,1,70,2|0,0:1|0:0,0:0:0:0:
282,247,36458,1,8,0:0:0:0:
280,267,36546,1,2,0:1:0:0:
279,287,36634,2,0,L|348:281,1,70,0|0,0:0|0:0,0:0:0:0:
138,355,36811,1,10,0:0:0:0:
179,136,36987,1,2,0:1:0:0:
215,356,37164,5,8,0:0:0:0:
215,356,37252,2,0,P|154:276|101:287,1,140,0|0,0:0|0:0,0:0:0:0:
63,326,37517,2,0,L|-37:315,2,70,10|0|0,0:0|0:0|0:0,0:0:0:0:
1,229,37781,1,2,0:1:0:0:
3,239,37869,2,0,B|39:235|39:235|65:214,1,70,8|0,0:0|0:0,0:0:0:0:
315,180,38046,2,0,B|213:170,1,70,2|0,0:1|0:0,0:0:0:0:
79,72,38222,6,0,L|74:122,1,35,10|0,0:0|0:0,0:0:0:0:
67,68,38311,2,0,L|66:118,1,35
55,64,38399,2,0,L|61:135,1,70,2|0,0:1|0:0,0:0:0:0:
138,355,38575,6,0,B|146:252|146:252|171:307,1,140,8|0,0:0|0:0,0:0:0:0:
284,383,38840,1,2,0:1:0:0:
284,383,38928,2,0,P|257:378|219:334,1,70,10|0,0:0|0:0,0:0:0:0:
348,247,39105,2,0,P|342:308|302:247,1,140,2|8,0:1|0:0,0:0:0:0:
241,215,39369,1,2,0:1:0:0:
239,201,39457,1,0,0:0:0:0:
238,187,39545,1,0,0:0:0:0:
236,173,39634,2,0,L|228:82,1,70,10|0,0:0|0:0,0:0:0:0:
410,26,39811,2,0,L|403:95,1,70,2|0,0:1|0:0,0:0:0:0:
160,67,39987,6,0,B|180:29|180:29|303:19|303:19|330:53,1,210,8|0,0:0|0:0,0:0:0:0:
124,142,40340,1,10,0:0:0:0:
103,140,40428,1,0,0:0:0:0:
82,138,40516,1,2,0:1:0:0:
61,136,40604,1,0,0:0:0:0:
39,134,40693,1,8,0:0:0:0:
11,174,40781,1,0,0:0:0:0:
16,222,40869,1,2,0:1:0:0:
56,252,40957,1,0,0:0:0:0:
105,254,41046,2,0,L|210:244,1,70,10|0,0:0|0:0,0:0:0:0:
317,231,41222,2,0,L|422:221,1,70,2|0,0:1|0:0,0:0:0:0:
229,348,41399,6,0,B|223:302|223:302|247:262|247:262|242:216,1,140,8|0,0:0|0:0,0:0:0:0:
349,122,41664,1,0,0:0:0:0:
349,122,41752,2,0,B|326:148|326:148|291:158,1,70,10|0,0:0|0:0,0:0:0:0:
97,361,41928,2,0,B|120:335|120:335|154:325,1,70,2|0,0:1|0:0,0:0:0:0:
301,320,42105,1,8,0:0:0:0:
301,320,42193,1,2,0:1:0:0:
301,320,42281,2,0,B|335:326|335:326|360:351,1,70,0|0,0:0|0:0,0:0:0:0:
124,142,42458,1,10,0:0:0:0:
386,224,42634,1,2,0:1:0:0:
105,254,42811,5,8,0:0:0:0:
105,254,42899,2,0,B|5:266|5:266|77:188,1,140,0|0,0:0|0:0,0:0:0:0:
124,142,43164,2,0,L|115:43,2,70,10|0|0,0:0|0:0|0:0,0:0:0:0:
272,243,43428,1,2,0:1:0:0:
272,243,43517,2,0,P|226:228|196:187,1,70,8|0,0:0|0:0,0:0:0:0:
221,20,43693,2,0,P|251:3|286:1,1,70,2|0,0:1|0:0,0:0:0:0:
488,125,43869,6,0,L|507:175,1,35,10|0,0:0|0:0,0:0:0:0:
474,125,43958,2,0,L|503:176,1,35
461,128,44046,2,0,B|445:133|445:133|410:123|410:123|395:129,1,70,2|0,0:1|0:0,0:0:0:0:
231,135,44222,6,0,B|255:146|269:168|269:168|258:112|283:55,1,140,8|0,0:0|0:0,0:0:0:0:
274,308,44487,1,2,0:1:0:0:
274,308,44575,2,0,P|283:274|264:233,1,70,10|0,0:0|0:0,0:0:0:0:
118,277,44752,2,0,P|171:312|176:248,1,140,2|8,0:1|0:0,0:0:0:0:
15,347,45017,1,2,0:1:0:0:
18,360,45105,2,0,B|53:356|53:356|93:379,1,70,0|0,0:0|0:0,0:0:0:0:
47,204,45281,2,0,P|21:243|22:291,1,70,10|0,0:0|0:0,0:0:0:0:
145,179,45458,2,0,P|124:136|82:113,1,70,2|0,0:1|0:0,0:0:0:0:
118,277,45634,5,8,0:0:0:0:
138,280,45722,1,0,0:0:0:0:
158,283,45811,1,2,0:1:0:0:
178,286,45898,1,0,0:0:0:0:
217,270,45987,5,10,0:0:0:0:
237,273,46074,1,0,0:0:0:0:
254,311,46164,1,0,0:0:0:0:
274,308,46251,1,0,0:0:0:0:
310,286,46340,5,8,0:0:0:0:
351,293,46428,1,0,0:0:0:0:
398,283,46516,1,0,0:0:0:0:
444,251,46604,1,0,0:0:0:0:
474,196,46692,5,10,0:0:0:0:
470,125,46781,1,2,0:0:0:0:
424,63,46869,1,2,0:0:0:0:
343,38,46957,1,2,0:0:0:0:
260,75,47046,6,0,L|269:173,1,70,12|0,0:0|0:0,0:0:0:0:
169,65,47222,1,2,0:1:0:0:
170,58,47311,1,2,0:1:0:0:
172,51,47399,1,10,0:0:0:0:
132,59,47488,1,0,0:0:0:0:
111,94,47575,1,2,0:1:0:0:
123,133,47664,1,0,0:0:0:0:
160,151,47752,5,8,0:0:0:0:
160,151,47840,2,0,B|151:251,2,70,0|0|0,0:0|0:0|0:0,0:0:0:0:
8,347,48105,2,0,P|44:323|97:331,1,70,10|0,0:0|0:0,0:0:0:0:
208,342,48281,2,0,P|246:361|266:411,1,70,0|0,0:0|0:0,0:0:0:0:
59,228,48458,5,8,0:0:0:0:
59,228,48546,1,0,0:0:0:0:
59,228,48634,2,0,B|25:212|25:212|-3:169,1,70,0|0,0:0|0:0,0:0:0:0:
255,164,48811,1,10,0:0:0:0:
262,164,48899,1,0,0:0:0:0:
269,163,48987,2,0,L|339:157,1,70,0|0,0:0|0:0,0:0:0:0:
471,213,49164,6,0,B|495:240|495:240|527:251,1,70,8|0,0:0|0:0,0:0:0:0:
371,76,49340,2,0,B|347:49|347:49|315:38,1,70
358,287,49517,2,0,L|387:224,1,70,10|0,0:0|0:0,0:0:0:0:
485,3,49693,1,0,0:0:0:0:
485,3,49781,1,0,0:0:0:0:
485,3,49869,6,0,B|455:68|455:68|460:97|460:97|434:155,1,140,8|0,0:0|0:0,0:0:0:0:
185,40,50134,1,2,0:1:0:0:
185,40,50222,2,0,P|222:33|260:47,1,70,10|0,0:0|0:0,0:0:0:0:
191,191,50399,2,0,P|211:119|238:192,1,167.999994873047,2|8,0:1|0:0,0:0:0:0:
97,55,50664,1,2,0:1:0:0:
97,55,50752,2,0,B|102:89|102:89|81:154,1,70,0|0,0:0|0:0,0:0:0:0:
223,274,50928,2,0,L|126:265,1,70,10|0,0:0|0:0,0:0:0:0:
0,236,51105,1,2,0:1:0:0:
4,213,51193,1,0,0:0:0:0:
22,199,51281,6,0,B|43:228|43:228|39:295|39:295|60:324,1,140,8|0,0:0|0:0,0:0:0:0:
141,267,51546,1,0,0:0:0:0:
153,267,51634,2,0,L|223:274,1,70,10|0,0:0|0:0,0:0:0:0:
478,287,51811,1,0,0:0:0:0:
469,286,51899,1,0,0:0:0:0:
460,285,51987,2,0,B|439:314|439:314|432:376,1,70,8|0,0:0|0:0,0:0:0:0:
405,190,52164,2,0,B|440:193|440:193|497:168,1,70,0|0,0:0|0:0,0:0:0:0:
224,275,52340,5,10,0:0:0:0:
264,333,52428,5,2,0:0:0:0:
334,326,52516,5,2,0:0:0:0:
363,263,52604,5,2,0:0:0:0:
323,205,52693,6,0,L|316:125,1,70,8|0,0:0|0:0,0:0:0:0:
306,36,52869,1,2,0:1:0:0:
305,28,52958,1,2,0:1:0:0:
304,21,53046,2,0,P|344:15|373:0,1,70,10|0,0:0|0:0,0:0:0:0:
82,0,53222,2,0,P|113:16|148:22,1,70,2|0,0:1|0:0,0:0:0:0:
219,165,53399,5,8,0:0:0:0:
220,151,53487,1,2,0:1:0:0:
193,118,53575,1,0,0:0:0:0:
191,104,53663,1,2,0:1:0:0:
214,68,53752,2,0,B|225:34|225:34|223:0,1,70,10|0,0:0|0:0,0:0:0:0:
66,173,53928,2,0,L|135:178,1,70,2|0,0:1|0:0,0:0:0:0:
293,269,54105,5,8,0:0:0:0:
293,269,54193,1,0,0:0:0:0:
293,269,54281,2,0,L|198:277,1,70
439,333,54458,1,10,0:0:0:0:
424,290,54546,1,0,0:0:0:0:
437,249,54634,1,2,0:1:0:0:
472,226,54722,1,2,0:1:0:0:
512,230,54811,5,8,0:0:0:0:
511,223,54899,1,0,0:0:0:0:
510,216,54987,2,0,L|516:173,2,35
356,201,55164,2,0,P|330:177|321:143,1,70,10|0,0:0|0:0,0:0:0:0:
443,67,55340,2,0,P|434:100|411:125,1,70,0|0,0:0|0:0,0:0:0:0:
296,53,55517,5,8,0:0:0:0:
310,49,55605,1,0,0:0:0:0:
324,49,55693,1,0,0:0:0:0:
337,52,55781,1,0,0:0:0:0:
350,57,55869,1,10,0:0:0:0:
327,22,55958,1,0,0:0:0:0:
290,3,56046,1,2,0:1:0:0:
248,6,56134,1,0,0:0:0:0:
207,1,56222,5,8,0:0:0:0:
210,21,56311,1,0,0:0:0:0:
181,64,56399,1,2,0:1:0:0:
178,85,56488,1,0,0:0:0:0:
203,130,56575,2,0,L|212:244,1,70,10|0,0:0|0:0,0:0:0:0:
128,332,56752,2,0,L|137:217,1,70,0|0,0:0|0:0,0:0:0:0:
438,324,56928,5,8,0:0:0:0:
413,336,57016,1,0,0:0:0:0:
386,345,57104,1,0,0:0:0:0:
357,348,57192,1,0,0:0:0:0:
331,342,57280,1,10,0:0:0:0:
299,328,57369,1,0,0:0:0:0:
274,305,57457,1,0,0:0:0:0:
256,275,57545,1,0,0:0:0:0:
249,240,57633,5,8,0:0:0:0:
246,192,57722,1,0,0:0:0:0:
221,143,57810,1,0,0:0:0:0:
172,105,57898,1,0,0:0:0:0:
102,92,57987,5,10,0:0:0:0:
37,130,58075,1,2,0:0:0:0:
5,209,58163,1,2,0:0:0:0:
38,294,58251,1,2,0:0:0:0:
127,332,58340,6,0,L|201:325,2,41.9999987182618,12|0|0,0:0|0:0|0:0,0:0:0:0:
207,236,58605,2,0,L|280:242,2,41.9999987182618,2|0|0,0:1|0:1|0:1,0:0:0:0:
286,332,58869,2,0,L|359:325,2,41.9999987182618,2|0|0,0:1|0:1|0:1,0:0:0:0:
365,236,59134,2,0,L|438:242,2,41.9999987182618,2|0|0,0:1|0:1|0:1,0:0:0:0:
444,332,59399,5,2,0:1:0:0:
456,330,59487,1,0,0:1:0:0:
468,329,59575,2,0,L|474:253,2,41.9999987182618,2|0|0,0:1|0:1|0:1,0:0:0:0:
478,188,59840,2,0,L|484:112,2,41.9999987182618,2|0|0,0:1|0:1|0:1,0:0:0:0:
351,53,60105,6,0,L|357:128,2,41.9999987182618,2|0|0,0:1|0:1|0:1,0:0:0:0:
361,194,60370,2,0,L|367:269,2,41.9999987182618,2|0|0,0:1|0:1|0:1,0:0:0:0:
234,329,60634,6,0,L|237:287,2,41.9999987182618,2|0|0,0:1|0:1|0:1,0:0:0:0:
244,188,60899,1,2,0:1:0:0:
245,167,60987,1,0,0:1:0:0:
247,146,61075,1,0,0:1:0:0:
249,125,61164,6,0,L|256:49,2,41.9999987182618,2|0|0,0:1|0:1|0:1,0:0:0:0:
170,241,61428,2,0,L|132:259,2,41.9999987182618,2|0|0,0:1|0:1|0:1,0:0:0:0:
175,160,61693,2,0,L|141:136,2,41.9999987182618,2|0|2,0:1|0:1|0:1,0:0:0:0:
237,287,61958,2,0,L|234:329,2,41.9999987182618,2|0|0,0:1|0:1|0:1,0:0:0:0:
317,171,62222,5,2,0:1:0:0:
328,165,62310,1,0,0:1:0:0:
339,160,62399,2,0,L|429:116,1,83.9999974365235,2|0,0:1|0:1,0:0:0:0:
477,259,62664,2,0,L|394:202,1,83.9999974365235,2|0,0:1|0:1,0:0:0:0:
493,71,62928,2,0,L|485:170,1,83.9999974365235,2|0,0:1|0:1,0:0:0:0:
347,78,63193,6,0,L|437:34,1,83.9999974365235,2|0,0:1|0:1,0:0:0:0:
339,160,63458,2,0,L|256:103,1,83.9999974365235,2|0,0:1|0:1,0:0:0:0:
199,62,63722,1,2,0:1:0:0:
197,82,63810,1,0,0:1:0:0:
195,103,63898,1,0,0:1:0:0:
194,124,63987,6,0,L|186:200,2,41.9999987182618,2|0|2,0:1|0:1|0:1,0:0:0:0:
76,84,64252,2,0,L|83:160,2,41.9999987182618,2|0|2,0:1|0:1|0:1,0:0:0:0:
153,239,64517,2,0,L|145:315,2,41.9999987182618,2|0|2,0:1|0:1|0:1,0:0:0:0:
35,199,64782,2,0,L|42:275,2,41.9999987182618,2|0|2,0:1|0:1|0:1,0:0:0:0:
112,354,65046,2,0,L|51:358,1,41.9999987182618,2|0,0:1|0:1,0:0:0:0:
232,332,65222,6,0,L|292:338,2,41.9999987182618,2|0|0,0:1|0:1|0:1,0:0:0:0:
393,358,65487,2,0,L|453:351,2,41.9999987182618,2|0|0,0:1|0:1|0:1,0:0:0:0:
241,248,65752,6,0,L|301:254,2,41.9999987182618,2|0|0,0:1|0:1|0:1,0:0:0:0:
402,274,66017,2,0,L|462:267,2,41.9999987182618,2|0|0,0:1|0:1|0:1,0:0:0:0:
250,164,66281,6,0,L|310:170,1,41.9999987182618,2|0,0:1|0:1,0:0:0:0:
411,190,66458,2,0,L|471:183,1,41.9999987182618,2|0,0:1|0:1,0:0:0:0:
259,80,66634,5,0,0:1:0:0:
271,81,66722,1,0,0:1:0:0:
284,82,66811,2,0,L|277:6,2,41.9999987182618,2|0|0,0:1|0:1|0:1,0:0:0:0:
157,76,67075,2,0,L|150:151,2,41.9999987182618,2|0|0,0:1|0:1|0:1,0:0:0:0:
30,82,67340,5,2,0:1:0:0:
28,69,67428,1,2,0:1:0:0:
27,56,67516,1,0,0:1:0:0:
65,69,67605,1,2,0:1:0:0:
84,106,67693,1,2,0:1:0:0:
74,145,67781,1,0,0:1:0:0:
40,168,67869,2,0,L|43:209,1,41.9999987182618,2|0,0:1|0:1,0:0:0:0:
146,228,68046,6,0,L|139:303,2,41.9999987182618,2|2|0,0:1|0:1|0:1,0:0:0:0:
250,164,68311,2,0,L|254:206,2,41.9999987182618,2|2|0,0:1|0:1|0:1,0:0:0:0:
365,205,68575,2,0,L|361:247,2,41.9999987182618,2|2|0,0:1|0:1|0:1,0:0:0:0:
255,142,68840,2,0,L|248:226,1,83.9999974365235,2|0,0:1|0:1,0:0:0:0:
263,318,69105,5,2,0:1:0:0:
260,335,69193,1,2,0:1:0:0:
247,324,69281,1,0,0:1:0:0:
276,327,69369,5,2,0:1:0:0:
245,341,69458,1,2,0:1:0:0:
249,307,69546,1,0,0:1:0:0:
256,325,69634,22,0,B|229:252|135:265|108:198|108:198|54:198|-32:181|54:131|108:131|108:131|108:64|229:38|256:145|256:145|282:38|403:64|403:131|403:131|457:131|544:149|457:198|403:198|403:198|376:265|296:252|282:279,1,1120,4|2,0:3|0:1,0:0:0:0:
