osu file format v12

[General]
AudioFilename: 1004_b_no_higeki.mp3
AudioLeadIn: 0
PreviewTime: -1
Countdown: 0
SampleSet: Soft
StackLeniency: 0.7
Mode: 0
LetterboxInBreaks: 1
WidescreenStoryboard: 1

[Editor]
Bookmarks: 27119,39119,40619,64619,75119
DistanceSpacing: 1.2
BeatDivisor: 4
GridSize: 4

[Metadata]
Title:B no Higeki
TitleUnicode:Bの悲劇
Artist:BOKKEN GREEN+PURPLE
ArtistUnicode:BOKKEN GREEN+PURPLE
Creator:Saturnalize
Version:Standard
Source:BMS
Tags:BOF2010
BeatmapID:330279
BeatmapSetID:131095

[Difficulty]
HPDrainRate:2
CircleSize:4
OverallDifficulty:3
ApproachRate:5
SliderMultiplier:1.1
SliderTickRate:2

[Events]
//Background and Video events
0,0,"BGPBG.jpg",0,0
//Break Periods
//Storyboard Layer 0 (Background)
//Storyboard Layer 1 (Fail)
//Storyboard Layer 2 (Pass)
//Storyboard Layer 3 (Foreground)
//Storyboard Sound Samples
//Background Colour Transformations
3,100,163,162,255

[TimingPoints]
3119.87550593527,375,4,2,0,60,1,0
15119,-100,4,2,1,60,0,0
58619,-133.333333333333,4,2,1,60,0,0
61619,-100,4,2,1,60,0,0
64619,-133.333333333333,4,2,1,60,0,0
76619,-100,4,2,1,60,0,0
90119,-100,4,2,2,60,0,1
102119,-100,4,2,2,60,0,0
102494,-133.333333333333,4,2,2,60,0,0

[Colours]
Combo1 : 210,0,153
Combo2 : 44,147,0
Combo3 : 128,0,128
Combo4 : 102,204,0

[HitObjects]
76,268,3119,2,0,P|160:276|216:332,2,165,4|0|8,1:0|0:0|0:0,0:0:0:0:
112,164,4619,2,0,L|96:52,1,110,0|8,0:0|0:0,0:0:0:0:
147,77,5182,2,0,P|217:91|310:52,1,165,0|8,0:0|0:0,0:0:0:0:
380,136,6119,6,0,L|448:124,2,55,0|0|8,0:0|0:0|0:0,0:0:0:0:
352,184,6682,2,0,P|336:240|360:312,1,110
376,336,7244,1,8,0:0:0:0:
268,316,7619,2,0,B|160:296|160:296|96:312,1,165
132,202,8557,2,0,L|203:184,1,55,0|8,0:0|0:0,0:0:0:0:
294,203,9119,6,0,P|255:105|152:84,1,220,4|0,1:0|0:0,0:0:0:0:
48,120,10244,1,8,0:0:0:0:
88,220,10619,2,0,B|112:276|76:324|76:324|144:312|184:348,1,220,0|0,1:0|0:0,0:0:0:0:
256,264,11744,1,8,0:0:0:0:
331,344,12119,2,0,B|368:312|436:324|436:324|400:276|424:220,1,220,4|4,1:0|0:0,0:0:0:0:
256,80,13619,6,0,P|176:80|136:56,1,110,4|4,1:0|0:0,0:0:0:0:
132,176,14369,2,0,P|128:208|132:248,2,55,4|0|0,1:0|0:0|0:0,0:0:0:0:
236,212,15119,5,4,1:0:0:0:
328,272,15494,2,0,P|400:268|452:208,1,110,8|0,0:0|1:0,0:0:0:0:
468,144,16244,1,8,0:0:0:0:
364,180,16619,2,0,P|300:184|244:312,1,220,0|0,1:0|1:0,0:0:0:0:
140,348,17744,1,8,0:0:0:0:
64,268,18119,6,0,L|80:148,1,110,0|8,1:0|0:0,0:0:0:0:
140,68,18869,2,0,P|169:58|216:52,2,55,0|0|8,1:0|0:0|0:0,0:0:0:0:
36,104,19619,2,0,P|84:160|196:156,2,165,0|0|8,1:0|1:0|0:0,0:0:0:0:
36,104,21119,5,0,1:0:0:0:
140,68,21494,1,8,0:0:0:0:
248,88,21869,2,0,P|296:88|380:72,1,110,0|8,1:0|0:0,0:0:0:0:
459,38,22619,1,0,1:0:0:0:
415,139,22994,1,8,0:0:0:0:
460,239,23369,2,0,P|471:312|471:361,1,110,0|8,1:0|0:0,0:0:0:0:
364,324,24119,6,0,P|353:251|353:202,2,110,0|8|0,1:0|0:0|1:0,0:0:0:0:
256,344,25244,2,0,B|208:352|148:328|148:328|96:312|34:328,1,220,8|8,0:0|0:0,0:0:0:0:
96,232,26369,2,0,P|152:236|176:248,2,55,0|0|8,1:0|1:0|0:0,0:0:0:0:
56,128,27119,6,0,P|52:104|56:48,2,55,4|0|8,1:0|0:0|0:0,0:0:0:0:
74,180,27682,2,0,P|97:251|78:320,1,110
71,335,28244,1,8,0:0:0:0:
173,295,28619,2,0,L|296:302,1,110,0|8,1:0|0:0,0:0:0:0:
332,326,29182,2,0,P|400:332|465:287,1,110
474,275,29744,2,0,P|491:221|485:153,1,110,8|0,0:0|1:0,0:0:0:0:
473,59,30494,5,8,0:0:0:0:
374,108,30869,1,0,1:0:0:0:
374,108,31244,1,8,0:0:0:0:
277,55,31619,2,0,L|161:60,1,110,0|8,1:0|0:0,0:0:0:0:
57,67,32369,1,0,1:0:0:0:
57,67,32744,2,0,L|49:131,1,55,8|0,0:0|1:0,0:0:0:0:
43,176,33119,6,0,P|40:245|46:300,1,110,0|8,1:0|0:0,0:0:0:0:
54,340,33682,1,0,0:0:0:0:
159,309,34057,2,0,P|206:307|239:314,2,55,0|8|0,0:0|0:0|0:0,0:0:0:0:
159,309,34619,1,0,1:0:0:0:
214,214,34994,1,8,0:0:0:0:
214,214,35182,1,0,0:0:0:0:
299,283,35557,2,0,P|367:287|434:242,1,110,0|0,0:0|0:0,0:0:0:0:
440,229,36119,6,0,L|425:107,1,110,0|8,1:0|0:0,0:0:0:0:
340,188,36869,2,0,L|325:66,1,110,0|8,1:0|0:0,0:0:0:0:
238,145,37619,2,0,L|253:267,1,110,0|8,1:0|0:0,0:0:0:0:
151,208,38369,2,0,L|166:330,1,110,0|8,1:0|0:0,0:0:0:0:
256,192,39119,12,4,40619,1:0:0:0:
256,108,41369,5,0,1:0:0:0:
348,48,41744,1,8,0:0:0:0:
440,108,42119,2,0,B|440:144|440:144|424:188|424:188|424:260,1,110,0|8,1:0|0:0,0:0:0:0:
388,320,42869,2,0,P|304:332|264:316,1,110,0|8,1:0|0:0,0:0:0:0:
212,240,43619,6,0,P|148:224|80:240,1,110,0|8,1:0|0:0,0:0:0:0:
52,245,44182,2,0,P|58:178|49:112,1,110,0|0,1:0|1:0,0:0:0:0:
46,81,44744,1,8,0:0:0:0:
148,40,45119,2,0,B|200:40|200:40|252:56|252:56|328:56,2,165,0|0|0,1:0|1:0|1:0,0:0:0:0:
46,82,46619,6,0,P|85:128|156:148,1,110,4|8,1:0|0:0,0:0:0:0:
240,146,47369,2,0,B|245:199|197:243|197:243|161:306|205:378,1,220,0|0,1:0|1:0,0:0:0:0:
289,299,48494,1,8,0:0:0:0:
396,324,48869,2,0,P|426:328|483:330,2,55,0|0|8,1:0|0:0|0:0,0:0:0:0:
370,217,49619,6,0,P|372:158|404:92,1,110,0|8,1:0|0:0,0:0:0:0:
430,72,50182,1,0,1:0:0:0:
323,46,50557,2,0,L|248:53,1,55,0|8,1:0|0:0,0:0:0:0:
159,69,51119,1,4,1:0:0:0:
133,289,52619,5,4,1:0:0:0:
238,320,52994,2,0,L|360:312,1,110,8|0,0:0|1:0,0:0:0:0:
448,268,53744,1,8,0:0:0:0:
410,228,53932,1,0,1:0:0:0:
428,176,54119,2,0,P|441:114|445:50,1,110,0|8,1:0|0:0,0:0:0:0:
337,92,54869,2,0,B|279:99|279:99|219:82,1,110,0|8,1:0|0:0,0:0:0:0:
128,41,55619,6,0,P|88:37|63:37,2,55,0|0|8,1:0|1:0|0:0,0:0:0:0:
153,148,56369,1,0,1:0:0:0:
90,238,56744,2,0,P|79:265|75:310,1,55,8|0,0:0|1:0,0:0:0:0:
115,328,57119,2,0,B|141:339|171:329|171:329|215:319|243:331,1,110,0|8,1:0|0:0,0:0:0:0:
332,343,57869,2,0,P|368:347|398:344,1,55,0|0,1:0|1:0,0:0:0:0:
440,332,58244,2,0,P|472:323|501:308,2,55,0|0|4,1:0|1:0|1:0,0:0:0:0:
374,243,58994,5,8,0:0:0:0:
436,166,59369,2,0,P|436:123|424:62,2,82.5000031471254,0|8|0,0:0|0:0|0:0,0:0:0:0:
374,243,60494,1,8,0:0:0:0:
296,181,60869,2,0,P|249:197|208:197,1,82.5000031471254,0|8,0:0|0:0,0:0:0:0:
239,90,61619,6,0,P|163:88|132:66,1,110,4|0,1:2|1:0,0:0:0:0:
68,156,62369,2,0,L|74:229,1,55,0|0,1:0|1:0,0:0:0:0:
97,260,62744,2,0,L|103:333,1,55,0|0,1:0|1:0,0:0:0:0:
256,192,63119,12,4,64619,0:0:0:0:
204,224,66120,6,0,P|236:248|260:124,1,247.500009441376,0|0,0:0|3:0,0:0:0:0:
215,43,67619,2,0,P|146:91|112:251,1,247.500009441376,0|0,0:0|3:0,0:0:0:0:
165,325,69119,2,0,P|246:346|402:271,1,247.500009441376
427,191,70619,6,0,P|437:137|432:105,1,82.5000031471254,0|0,0:0|3:0,0:0:0:0:
433,110,71182,1,0,0:0:0:0:
355,49,71557,1,0,0:0:0:0:
355,49,71744,2,0,L|235:43,1,82.5000031471254,0|0,3:0|0:0,0:0:0:0:
185,92,72494,1,0,3:0:0:0:
185,92,72681,2,0,B|192:149|192:149|179:179|179:179|182:228,1,123.750004720688,0|0,0:0|3:0,0:0:0:0:
199,310,73619,1,2,0:0:0:0:
256,192,75119,12,4,76619,0:0:0:0:
256,279,78119,6,0,P|308:301|424:256,1,165
453,171,79057,2,0,L|462:96,1,55,0|0,0:0|3:0,0:0:0:0:
360,70,79619,2,0,B|319:76|319:76|256:60|256:60|186:68,2,165,0|0|0,0:0|0:0|3:0,0:0:0:0:
305,165,81119,2,0,B|248:148|248:148|173:158,1,110,0|0,0:0|3:0,0:0:0:0:
145,172,81682,2,0,P|116:151|90:77,1,110
93,29,82244,1,0,3:0:0:0:
196,67,82619,5,4,0:0:0:0:
302,39,82994,1,0,3:0:0:0:
398,92,83369,2,0,P|432:91|477:82,2,55,0|0|0,0:0|0:0|3:0,0:0:0:0:
366,197,84119,2,0,B|356:258|356:258|369:324,1,110,0|0,0:0|3:0,0:0:0:0:
256,319,84869,1,0,0:0:0:0:
146,305,85244,1,0,3:0:0:0:
108,202,85619,6,0,P|173:199|224:234,1,110,0|0,0:0|3:0,0:0:0:0:
257,120,86369,2,0,P|308:175|323:239,2,110,0|0|0,0:0|3:0|0:0,0:0:0:0:
149,99,87494,2,0,L|83:93,2,55,0|0|0,3:0|0:0|0:0,0:0:0:0:
257,119,88244,2,0,L|325:111,1,55,0|0,3:0|0:0,0:0:0:0:
366,104,88619,1,4,0:0:0:0:
90,288,90119,6,0,L|213:305,1,110,4|8,1:0|0:0,0:0:0:0:
307,323,90869,1,0,1:0:0:0:
414,298,91244,1,8,0:0:0:0:
440,191,91619,2,0,B|468:155|468:112|468:112|468:28,2,165,0|0|8,1:0|1:0|0:0,0:0:0:0:
338,150,93119,6,0,B|324:120|324:96|324:96|324:40,1,110,0|8,1:0|0:0,0:0:0:0:
216,64,93869,2,0,L|147:69,2,55,0|0|8,1:0|1:0|0:0,0:0:0:0:
168,163,94619,2,0,P|80:138|61:99,1,110,0|8,1:0|0:0,0:0:0:0:
72,127,95182,2,0,P|94:214|83:301,1,165,0|8,1:0|0:0,0:0:0:0:
186,335,96119,6,0,P|239:334|301:324,1,110,0|8,1:0|0:0,0:0:0:0:
358,235,96869,2,0,P|403:245|465:271,1,110,0|8,1:0|0:0,0:0:0:0:
426,165,97619,2,0,P|366:152|306:153,1,110,0|8,1:0|0:0,0:0:0:0:
317,151,98182,2,0,L|336:40,1,110,0|0,1:0|1:0,0:0:0:0:
335,42,98744,1,8,0:0:0:0:
231,77,99119,6,0,P|170:80|92:48,1,110,0|8,1:0|0:0,0:0:0:0:
80,168,99869,1,0,1:0:0:0:
80,168,100057,2,0,L|76:224,1,55,0|8,1:0|0:0,0:0:0:0:
108,328,100619,6,0,P|152:344|260:292,1,165,0|0,1:0|1:0,0:0:0:0:
292,260,101369,2,0,P|340:256|368:264,1,55,0|0,1:0|1:0,0:0:0:0:
400,248,101744,2,0,P|432:280|440:304,2,55,0|0|4,1:0|1:0|0:0,0:0:0:0:
317,193,102494,6,0,P|312:145|384:59,1,165.000006294251,2|2,0:0|0:0,0:0:0:0:
285,82,103619,2,0,P|244:94|156:81,1,123.750004720688,0|2,0:0|0:0,0:0:0:0:
122,59,104369,2,0,P|93:46|26:42,1,82.5000031471254
70,135,105119,6,0,B|83:181|83:181|70:247|70:247|87:303,1,165.000006294251,2|0,0:0|0:0,0:0:0:0:
171,246,106244,1,2,0:0:0:0:
171,246,106619,2,0,P|199:237|257:241,1,82.5000031471254,0|2,0:0|0:0,0:0:0:0:
293,267,107182,2,0,P|333:276|414:233,1,123.750004720688,0|2,0:0|0:0,0:0:0:0:
332,177,108119,6,0,P|316:136|325:88,1,82.5000031471254,4|2,1:0|0:0,0:0:0:0:
356,64,108682,2,0,L|220:53,1,123.750004720688,2|0,0:0|0:0,0:0:0:0:
201,148,109619,2,0,L|71:161,2,123.750004720688,2|2|0,0:0|0:0|0:0,0:0:0:0:
171,242,111119,6,0,L|41:255,2,123.750004720688,0|0|2,0:0|0:0|0:0,0:0:0:0:
256,192,112619,12,4,114119,1:0:0:0:
