osu file format v12

[General]
AudioFilename: 1004_b_no_higeki.mp3
AudioLeadIn: 0
PreviewTime: -1
Countdown: 0
SampleSet: Soft
StackLeniency: 0.7
Mode: 0
LetterboxInBreaks: 1
WidescreenStoryboard: 1

[Editor]
Bookmarks: 64619
DistanceSpacing: 0.8
BeatDivisor: 4
GridSize: 4

[Metadata]
Title:B no Higeki
TitleUnicode:Bの悲劇
Artist:BOKKEN GREEN+PURPLE
ArtistUnicode:BOKKEN GREEN+PURPLE
Creator:Saturnalize
Version:Hyper
Source:BMS
Tags:BOF2010
BeatmapID:330280
BeatmapSetID:131095

[Difficulty]
HPDrainRate:5
CircleSize:4
OverallDifficulty:6
ApproachRate:8
SliderMultiplier:1.4
SliderTickRate:1

[Events]
//Background and Video events
0,0,"BGPBG.jpg",0,0
//Break Periods
2,102319,107369
//Storyboard Layer 0 (Background)
//Storyboard Layer 1 (Fail)
//Storyboard Layer 2 (Pass)
//Storyboard Layer 3 (Foreground)
//Storyboard Sound Samples
//Background Colour Transformations
3,100,163,162,255

[TimingPoints]
3119.87550593527,375,4,2,1,60,1,0
9026,-86.9565217391304,4,2,1,60,0,0
9588,-100,4,2,1,60,0,0
10526,-86.9565217391304,4,2,1,60,0,0
11088,-100,4,2,1,60,0,0
12026,-86.9565217391304,4,2,1,60,0,0
12588,-100,4,2,1,60,0,0
12776,-86.9565217391304,4,2,1,60,0,0
13338,-100,4,2,1,60,0,0
15119,-86.9565217391304,4,2,1,60,0,0
39073,-100,4,2,1,60,0,0
39823,-86.9565217391304,4,2,0,60,0,0
40619,-86.9565217391304,4,2,1,60,0,0
51682,-86.9565217391304,4,2,0,60,0,0
52619,-86.9565217391304,4,2,1,60,0,0
62932,-86.9565217391304,4,1,1,60,0,0
64619,-200,4,2,1,60,0,0
70338,-133.333333333333,4,2,1,50,0,0
70432,-133.333333333333,4,2,1,40,0,0
70526,-133.333333333333,4,2,1,30,0,0
70619,-133.333333333333,4,2,1,20,0,0
70807,-133.333333333333,4,2,1,60,0,0
73994,-133.333333333333,4,2,1,40,0,0
74182,-133.333333333333,4,2,1,60,0,0
74744,-133.333333333333,4,2,1,40,0,0
74838,-133.333333333333,4,2,1,60,0,0
75494,-133.333333333333,4,2,1,40,0,0
75682,-100,4,3,1,60,0,0
76619,-100,4,2,2,60,0,0
88619,-153.846153846154,4,2,2,60,0,0
89182,-100,4,2,2,60,0,0
90119,-86.9565217391304,4,2,2,60,0,1
102119,-100,4,2,2,60,0,0

[Colours]
Combo1 : 210,0,153
Combo2 : 44,147,0
Combo3 : 128,0,128
Combo4 : 102,204,0
SliderBorder : 177,177,177

[HitObjects]
80,144,3119,2,0,P|116:160|208:132,1,140,0|8,1:2|0:2,0:0:0:0:
336,32,3682,1,2,0:0:0:0:
336,32,4057,2,0,L|328:104,2,70,2|8|0,0:0|0:0|0:0,0:0:0:0:
432,240,4619,6,0,P|396:224|304:252,1,140,0|8,0:0|0:0,0:0:0:0:
176,352,5182,1,2,0:0:0:0:
176,352,5557,2,0,L|184:280,1,70,2|8,0:0|0:0,0:0:0:0:
120,208,5932,1,2,0:0:0:0:
24,228,6119,6,0,P|12:184|88:120,1,140,0|8,0:0|0:0,0:0:0:0:
168,140,6682,2,0,B|204:128|240:140|240:140|272:152|305:140,1,140,2|2,0:0|0:0,0:0:0:0:
284,4,7244,2,0,P|272:32|268:72,1,70,8|2,0:0|0:0,0:0:0:0:
392,244,7619,6,0,L|375:176,1,70
292,228,7994,2,0,L|236:186,1,70,8|2,0:0|0:0,0:0:0:0:
204,280,8369,2,0,L|135:284,1,70,2|0,0:0|0:0,0:0:0:0:
280,352,8744,2,0,L|330:304,1,70,8|0,0:0|0:0,0:0:0:0:
84,352,9119,6,0,P|55:332|72:216,1,161.000003070831,0|8,1:2|0:0,0:0:0:0:
140,156,9682,2,0,L|160:228,1,70,2|0,0:3|0:0,0:0:0:0:
4,144,10057,2,0,P|8:109|24:78,1,70,2|8,0:3|0:0,0:0:0:0:
120,56,10432,1,2,0:3:0:0:
212,120,10619,6,0,P|296:136|344:80,1,161.000003070831,4|8,1:2|0:0,0:0:0:0:
280,0,11182,2,0,P|264:40|268:68,1,70,2|0,0:3|0:0,0:0:0:0:
392,200,11557,2,0,L|404:132,1,70,2|8,0:3|0:0,0:0:0:0:
308,152,11932,1,2,0:3:0:0:
360,276,12119,6,0,P|420:280|476:200,1,161.000003070831,4|8,1:2|0:0,0:0:0:0:
424,124,12682,1,2,0:3:0:0:
424,124,12776,1,0,0:0:0:0:
424,124,12869,2,0,P|364:120|308:200,1,161.000003070831,4|8,1:2|0:0,0:0:0:0:
152,276,13432,1,2,0:3:0:0:
152,276,13526,1,0,0:0:0:0:
152,276,13619,6,0,P|92:280|40:232,1,105,4|0,1:2|0:1,0:0:0:0:
20,196,13994,2,0,P|12:164|32:96,1,105,4|0,1:2|0:0,0:0:0:0:
100,80,14369,2,0,L|140:68,3,35,4|0|0|0,1:2|0:0|1:0|0:0,0:0:0:0:
208,124,14744,2,0,L|244:132,3,35,10|0|0|0,1:2|0:0|1:0|0:0,0:0:0:0:
136,180,15119,6,0,P|116:124|196:36,1,161.000003070831,4|8,1:2|1:0,0:0:0:0:
344,43,15682,2,0,P|393:104|376:180,1,161.000003070831,2|2,0:0|0:0,0:0:0:0:
275,306,16244,2,0,P|264:268|276:231,1,80.5000015354157,8|2,1:0|0:0,0:0:0:0:
444,256,16619,6,0,P|451:330|380:352,1,161.000003070831,0|8,1:0|1:0,0:0:0:0:
356,268,17182,1,2,0:0:0:0:
372,112,17369,2,0,L|388:192,1,80.5000015354157,0|2,1:0|0:0,0:0:0:0:
275,306,17744,2,0,P|264:268|276:231,1,80.5000015354157,8|2,1:0|0:0,0:0:0:0:
452,128,18119,6,0,P|448:80|336:36,1,161.000003070831,0|8,1:0|1:0,0:0:0:0:
256,80,18682,1,2,0:0:0:0:
156,132,18869,2,0,P|144:92|156:56,1,80.5000015354157,0|2,1:0|0:0,0:0:0:0:
356,56,19244,2,0,P|368:94|356:132,1,80.5000015354157,8|2,1:0|0:0,0:0:0:0:
296,228,19619,6,0,P|332:208|444:228,1,161.000003070831,0|8,1:0|1:0,0:0:0:0:
372,316,20182,1,2,0:0:0:0:
260,304,20369,2,0,P|228:280|216:228,1,80.5000015354157,0|2,1:0|1:2,0:0:0:0:
232,163,20744,2,0,P|264:141|304:142,1,80.5000015354157,8|2,1:0|1:2,0:0:0:0:
384,188,21119,6,0,P|396:156|312:52,1,161.000003070831,0|8,1:0|1:0,0:0:0:0:
228,92,21682,1,2,0:0:0:0:
228,92,21776,1,0,0:0:0:0:
228,92,21869,2,0,P|184:72|172:40,1,80.5000015354157,0|2,1:0|0:0,0:0:0:0:
80,156,22244,2,0,P|124:176|136:208,1,80.5000015354157,8|2,1:0|0:0,0:0:0:0:
192,340,22619,6,0,P|176:316|240:224,1,161.000003070831,0|8,1:0|1:0,0:0:0:0:
336,284,23182,1,2,0:0:0:0:
336,284,23276,1,0,0:0:0:0:
336,284,23369,2,0,P|376:292|432:272,1,80.5000015354157,0|2,1:0|0:0,0:0:0:0:
492,160,23744,2,0,P|452:152|396:172,1,80.5000015354157,8|2,1:0|0:0,0:0:0:0:
336,284,24119,6,0,P|352:260|288:168,1,161.000003070831,0|8,1:0|1:0,0:0:0:0:
176,188,24682,1,2,0:0:0:0:
176,188,24776,1,0,0:0:0:0:
176,188,24869,2,0,P|168:148|184:112,1,80.5000015354157,0|2,1:0|0:0,0:0:0:0:
60,36,25244,2,0,P|75:72|67:111,1,80.5000015354157,8|2,1:0|0:0,0:0:0:0:
60,256,25619,6,0,B|100:272|140:256|140:256|180:240|216:256,1,161.000003070831,0|8,1:0|1:0,0:0:0:0:
252,364,26182,2,0,P|236:372|212:368,2,40.2500007677078,2|0|0,0:0|0:0|1:0,0:0:0:0:
336,284,26557,1,2,1:2:0:0:
216,256,26744,1,8,1:0:0:0:
360,172,26932,1,2,1:2:0:0:
248,144,27119,1,4,1:2:0:0:
168,184,27307,5,2,0:0:0:0:
168,184,27401,1,0,0:0:0:0:
168,184,27494,2,0,P|164:136|176:96,1,80.5000015354157,8|2,1:0|0:0,0:0:0:0:
324,104,27869,2,0,P|332:143|327:182,1,80.5000015354157,0|2,1:0|0:0,0:0:0:0:
216,256,28244,2,0,P|256:244|292:256,1,80.5000015354157,8|2,1:0|0:0,0:0:0:0:
331,348,28619,6,0,P|252:360|173:348,1,161.000003070831,0|8,0:0|1:0,0:0:0:0:
140,240,29182,1,2,0:0:0:0:
172,132,29369,2,0,L|212:120,3,40.2500007677078,0|0|2|0,1:0|0:0|0:0|0:0,0:0:0:0:
248,136,29744,2,0,L|288:140,3,40.2500007677078,8|0|2|0,1:0|0:0|0:0|0:0,0:0:0:0:
316,172,30119,6,0,P|352:176|348:88,1,120.750002303124,0|2,1:0|0:0,0:0:0:0:
352,76,30494,2,0,P|312:76|272:52,1,80.5000015354157,8|0,1:0|0:0,0:0:0:0:
60,88,30869,2,0,P|84:124|84:200,1,120.750002303124,0|2,1:0|0:0,0:0:0:0:
76,240,31244,2,0,P|104:232|156:240,1,80.5000015354157,8|0,1:0|0:0,0:0:0:0:
272,324,31619,2,0,P|329:338|387:323,1,120.750002303124,0|2,1:0|0:0,0:0:0:0:
428,328,31994,6,0,P|420:288|428:248,1,80.5000015354157,8|0,1:0|0:0,0:0:0:0:
376,140,32369,2,0,P|356:175|324:201,1,80.5000015354157,0|2,1:0|0:0,0:3:0:0:
240,320,32744,2,0,P|278:305|318:306,1,80.5000015354157,8|2,1:0|1:2,0:3:0:0:
164,360,33119,6,0,P|136:320|196:244,1,161.000003070831,0|8,1:0|1:0,0:0:0:0:
256,148,33682,1,2,0:0:0:0:
292,252,33869,2,0,P|256:264|216:252,1,80.5000015354157,0|2,1:0|0:0,0:0:0:0:
88,176,34244,2,0,P|124:164|164:176,1,80.5000015354157,8|2,1:0|0:0,0:0:0:0:
292,252,34619,6,0,P|332:260|400:176,1,161.000003070831,2|8,1:3|1:0,0:0:0:0:
340,100,35182,1,0,0:0:0:0:
240,80,35369,2,0,L|248:152,3,40.2500007677078,0|0|2|0,1:0|0:0|0:0|0:0,0:0:0:0:
216,116,35744,2,0,L|224:188,3,40.2500007677078,8|0|2|0,1:0|0:0|0:0|0:0,0:0:0:0:
192,152,36119,2,0,L|204:272,2,120.750002303124,0|2|0,1:0|0:2|0:0,0:0:0:0:
288,92,36869,2,0,L|276:212,2,120.750002303124,0|2|0,1:0|0:2|0:0,0:0:0:0:
400,116,37619,2,0,L|347:224,2,120.750002303124,0|2|0,1:0|0:2|0:0,0:0:0:0:
396,280,38369,6,0,P|360:296|320:292,1,80.5000015354157,0|0,1:0|0:0,0:0:0:0:
251,326,38744,2,0,P|215:309|176:312,1,80.5000015354157,8|0,1:2|0:0,0:0:0:0:
96,344,39119,6,2,P|88:312|212:236,1,210,4|0,1:0|0:0,0:0:0:0:
312,304,39869,2,0,P|333:309|355:306,3,40.2500007677078,0|0|0|0,1:0|0:0|3:0|0:0,1:2:0:0:
380,304,40244,2,0,P|400:294|414:278,3,40.2500007677078,0|0|0|0,1:0|0:0|3:0|0:0,1:2:0:0:
432,260,40619,6,2,P|441:239|432:184,1,80.5000015354157,4|2,1:2|0:0,0:0:0:0:
343,148,40994,2,2,P|332:186|344:224,1,80.5000015354157,8|2,1:2|0:0,0:0:0:0:
400,92,41369,2,0,L|328:56,1,80.5000015354157,0|2,1:0|0:0,0:0:0:0:
168,132,41744,2,0,L|240:96,1,80.5000015354157,8|0,1:2|0:0,0:0:0:0:
100,92,42119,6,0,P|88:140|100:172,1,80.5000015354157,0|2,1:0|0:0,0:0:0:0:
232,244,42494,2,0,P|244:196|232:164,1,80.5000015354157,8|2,1:2|0:0,0:0:0:0:
160,308,42869,2,0,P|204:332|308:308,1,161.000003070831,0|8,1:0|1:2,0:0:0:0:
328,212,43432,1,2,0:0:0:0:
264,140,43619,6,0,L|244:220,1,80.5000015354157,0|2,1:0|0:0,0:0:0:0:
352,128,43994,2,0,L|371:49,1,80.5000015354157,8|2,1:2|0:0,0:0:0:0:
216,72,44369,2,0,B|180:84|136:72|136:72|88:60|56:72,1,161.000003070831,0|8,1:0|1:2,0:0:0:0:
92,164,44932,1,2,0:0:0:0:
92,260,45119,6,0,B|140:268|164:232,1,80.5000015354157,0|2,1:0|0:0,0:0:0:0:
132,108,45494,2,0,L|52:108,1,80.5000015354157,8|2,1:2|0:0,0:0:0:0:
200,232,45869,2,0,L|280:232,1,80.5000015354157,0|2,1:0|1:2,0:0:0:0:
232,84,46244,2,0,B|184:76|161:110,1,80.5000015354157,8|2,1:2|0:0,0:0:0:0:
316,156,46619,6,0,L|320:76,1,80.5000015354157,4|2,1:2|0:0,0:0:0:0:
392,216,46994,2,0,L|423:142,1,80.5000015354157,8|2,1:2|0:0,0:0:0:0:
504,236,47369,2,0,L|384:343,1,161.000003070831,0|8,1:0|1:2,0:0:0:0:
288,308,47932,1,2,0:0:0:0:
155,350,48119,6,0,P|143:311|148:272,1,80.5000015354157,0|2,1:0|0:0,0:0:0:0:
279,156,48494,2,0,P|297:192|300:232,1,80.5000015354157,8|2,1:2|0:0,0:0:0:0:
156,200,48869,2,0,P|144:144|232:96,1,161.000003070831,0|8,1:0|1:2,0:0:0:0:
348,120,49432,1,2,0:0:0:0:
452,196,49619,6,0,P|476:156|472:120,1,80.5000015354157,0|2,1:0|0:0,0:0:0:0:
368,48,49994,2,0,P|344:88|348:124,1,80.5000015354157,8|2,1:2|0:0,0:0:0:0:
404,236,50369,2,0,P|368:216|256:236,1,161.000003070831,0|8,1:0|0:0,0:0:0:0:
44,356,51119,1,4,0:0:0:0:
44,356,51869,2,0,L|48:312,3,40.2500007677078,0|0|0|0,1:0|1:0|3:0|1:0,0:0:0:0:
32,268,52244,2,0,P|52:275|76:280,3,40.2500007677078,0|0|0|0,1:0|1:0|1:0|0:0,0:0:0:0:
112,280,52619,6,0,B|152:268|152:268|180:236,1,80.5000015354157,4|2,1:2|0:0,0:0:0:0:
296,192,52994,2,0,L|304:272,1,80.5000015354157,8|2,1:0|0:0,0:0:0:0:
424,320,53369,2,0,L|416:240,1,80.5000015354157,0|2,1:0|0:0,0:0:0:0:
448,116,53744,2,0,B|408:128|408:128|380:160,1,80.5000015354157,8|2,1:0|0:0,0:0:0:0:
324,272,54119,6,0,L|404:280,1,80.5000015354157,0|2,1:0|0:0,0:0:0:0:
252,340,54494,2,0,P|229:297|228:263,1,80.5000015354157,8|2,1:0|0:0,0:0:0:0:
328,184,54869,2,0,P|360:160|376:124,1,80.5000015354157,0|2,1:0|0:0,0:0:0:0:
212,104,55244,2,0,L|292:112,1,80.5000015354157,8|2,1:0|0:0,0:0:0:0:
472,188,55619,6,0,P|440:211|423:248,1,80.5000015354157,0|2,1:0|0:0,0:0:0:0:
320,344,55994,2,0,P|280:356|244:344,1,80.5000015354157,8|2,1:0|0:0,0:0:0:0:
116,236,56369,2,0,P|156:224|192:236,1,80.5000015354157,0|2,1:0|0:0,0:0:0:0:
96,308,56744,2,0,P|77:303|60:284,3,40.2500007677078,8|0|2|0,1:0|0:0|0:0|0:0,0:0:0:0:
44,252,57119,6,0,P|44:208|68:176,1,80.5000015354157,0|2,1:0|0:0,0:0:0:0:
136,72,57494,2,0,P|96:76|56:68,1,80.5000015354157,8|2,1:0|0:0,0:0:0:0:
216,156,57869,2,0,P|256:152|296:156,1,80.5000015354157,0|2,1:0|1:2,0:0:0:0:
296,272,58244,2,0,P|256:275|216:271,1,80.5000015354157,8|2,1:0|1:2,0:0:0:0:
364,212,58619,5,4,0:0:0:0:
256,356,58994,1,10,0:0:0:0:
148,212,59369,1,2,0:0:0:0:
256,68,59744,1,10,0:0:0:0:
340,304,60119,5,2,0:0:0:0:
176,120,60494,1,10,0:0:0:0:
336,120,60870,1,2,0:0:0:0:
172,304,61244,1,10,0:0:0:0:
172,304,61432,1,0,1:0:0:0:
172,304,61619,6,0,P|144:268|108:256,1,80.5000015354157,4|0,0:0|1:0,0:0:0:0:
36,152,61994,2,0,P|78:169|115:161,1,80.5000015354157,10|0,0:0|1:0,0:0:0:0:
224,100,62369,2,0,P|248:61|247:23,1,80.5000015354157,2|0,0:0|1:0,0:0:0:0:
120,32,62744,2,0,P|121:71|144:104,1,80.5000015354157,10|0,0:0|0:0,0:0:0:0:
160,112,63026,5,0,0:0:0:0:
176,116,63119,2,0,L|216:112,3,40.2500007677078,2|0|0|0,0:2|0:0|0:0|0:0,0:0:0:0:
228,124,63494,2,0,L|268:136,3,40.2500007677078,10|0|0|0,0:2|0:0|0:0|0:0,0:0:0:0:
268,152,63869,2,0,L|296:184,3,40.2500007677078,2|2|2|2,0:2|0:2|0:2|0:2,0:0:0:0:
284,196,64244,2,0,L|284:244,3,40.2500007677078,10|0|0|0,0:2|0:0|0:0|0:0,0:0:0:0:
264,344,64619,6,2,P|316:316|460:344,1,210,4|8,0:1|0:0,0:0:0:0:
512,192,66119,2,2,P|460:220|316:192,1,210,2|8,0:0|0:0,0:0:0:0:
136,88,67619,2,2,P|164:128|136:280,1,210,2|8,0:0|0:0,0:0:0:0:
368,312,69119,2,2,P|330:216|370:122,1,210,2|8,0:0|0:0,0:0:0:0:
388,112,70338,5,2,0:0:0:0:
408,108,70432,1,0,0:0:0:0:
428,108,70526,1,0,0:0:0:0:
448,112,70619,1,2,0:0:0:0:
468,220,70807,6,0,L|460:264,2,26.2500010013581,0|0|2,0:0|0:0|0:0,0:0:0:0:
396,348,71182,2,0,L|391:322,2,26.2500010013581,0|0|2,0:0|0:0|0:0,0:0:0:0:
340,236,71557,2,0,L|388:232,2,26.2500010013581,0|0|2,0:0|0:0|0:0,0:0:0:0:
296,324,71932,1,0,0:0:0:0:
269,327,72025,1,0,0:0:0:0:
243,330,72119,6,0,L|208:336,3,26.2500010013581,2|0|0|0,0:0|0:0|0:0|0:0,0:0:0:0:
196,288,72494,2,0,L|160:293,3,26.2500010013581,2|0|0|0,0:0|0:0|0:0|0:0,0:0:0:0:
164,240,72869,2,0,L|128:245,3,26.2500010013581,2|0|0|0,0:0|0:0|0:0|0:0,0:0:0:0:
32,176,73244,2,0,L|57:172,3,26.2500010013581,2|0|0|0,0:0|0:0|0:0|0:0,0:0:0:0:
160,152,73619,6,0,P|184:120|188:96,1,52.5000020027161,2|0,3:2|0:0,0:0:0:0:
188,88,73901,1,0,0:0:0:0:
180,68,73994,1,8,0:1:0:0:
352,32,74182,5,0,0:0:0:0:
334,51,74275,1,0,0:0:0:0:
325,75,74369,6,0,B|321:88|321:88|331:119|328:128,1,52.5000020027161,2|0,3:2|0:0,0:0:0:0:
440,232,74744,2,0,L|436:184,3,26.2500010013581,8|0|0|0,0:1|0:0|0:0|0:0,0:0:0:0:
444,260,75119,2,0,L|448:292,3,26.2500010013581,2|0|0|0,3:2|0:0|0:0|0:0,0:0:0:0:
420,332,75494,6,0,P|392:340|364:336,1,52.5000020027161,8|0,0:1|0:0,0:0:0:0:
352,324,75776,1,0,0:0:0:0:
344,304,75869,6,0,L|308:324,3,35,2|0|0|0,0:2|0:0|0:0|0:2,0:0:0:0:
288,332,76244,2,0,L|252:352,3,35,2|0|0|0,0:2|0:0|0:0|0:2,0:0:0:0:
232,360,76619,2,0,P|184:348|160:268,1,140,6|8,0:0|0:1,0:0:0:0:
72,184,77182,1,2,0:0:0:0:
72,184,77369,2,0,P|80:220|72:252,1,70,0|2,0:0|0:0,0:0:0:0:
36,336,77744,2,0,P|68:344|104:336,1,70,8|2,0:1|0:0,0:0:0:0:
308,316,78119,6,0,P|248:282|180:292,1,140,0|8,3:0|0:1,0:0:0:0:
104,336,78682,1,2,0:0:0:0:
188,264,78869,2,0,P|191:229|180:196,1,70,0|2,0:0|0:0,0:0:0:0:
12,156,79244,2,0,P|39:176|74:182,1,70,8|2,0:1|0:0,0:0:0:0:
137,123,79619,6,0,P|191:80|260:84,1,140,0|8,3:0|0:1,0:0:0:0:
328,144,80182,1,2,0:0:0:0:
416,120,80369,2,0,P|444:88|452:60,1,70,0|2,0:0|0:0,0:0:0:0:
444,204,80744,2,0,P|472:236|480:264,1,70,8|2,0:1|0:0,0:0:0:0:
420,340,81119,6,0,P|380:340|344:256,1,140,0|8,3:0|0:1,0:0:0:0:
388,172,81682,1,2,0:0:0:0:
476,200,81869,2,0,L|472:272,1,70,0|2,0:0|0:0,0:0:0:0:
296,172,82244,2,0,L|292:102,1,70,8|2,0:1|0:0,0:0:0:0:
480,108,82619,5,6,3:2:0:0:
376,264,82994,1,2,3:2:0:0:
332,80,83369,1,0,3:2:0:0:
480,108,83744,1,2,3:2:0:0:
436,352,84119,5,0,3:2:0:0:
288,324,84494,1,2,3:2:0:0:
392,168,84869,1,0,1:2:0:0:
436,352,85244,1,2,3:2:0:0:
196,248,85619,6,0,P|176:212|188:184,1,70,0|0,1:0|3:0,0:0:0:0:
326,187,85994,2,0,P|335:220|316:248,1,70,2|0,0:0|3:0,0:0:0:0:
188,108,86369,2,2,P|256:92|324:108,1,140,0|2,1:0|0:0,0:0:0:0:
292,324,87119,6,0,L|220:324,1,70,0|0,3:0|3:0,3:2:0:0:
48,244,87494,2,0,P|88:252|120:244,1,70,2|0,3:2|1:0,3:2:0:0:
136,232,87776,1,0,3:2:0:0:
148,216,87869,2,2,L|160:148,1,70,0|0,3:0|3:0,3:2:0:0:
352,60,88244,2,0,L|364:128,1,70,2|0,3:2|3:0,3:2:0:0:
452,204,88619,6,0,P|416:232|312:228,1,136.499993751526,6|0,3:2|0:0,0:0:0:0:
212,156,89369,2,0,L|208:232,1,70,0|0,3:0|3:0,0:0:0:0:
76,184,89744,2,0,L|72:114,1,70,0|0,3:0|3:0,0:0:0:0:
172,68,90119,6,0,P|212:52|280:76,1,80.5000015354157,4|2,1:2|0:0,0:0:0:0:
440,100,90494,2,0,P|400:116|332:92,1,80.5000015354157,8|2,0:0|0:0,0:0:0:0:
264,216,90869,2,0,L|280:136,1,80.5000015354157,0|2,1:0|0:0,0:0:0:0:
408,224,91244,2,0,L|392:302,1,80.5000015354157,8|2,0:0|0:0,0:0:0:0:
384,328,91526,1,0,0:0:0:0:
376,352,91619,6,0,P|332:328|320:300,1,80.5000015354157,2|2,1:2|0:0,0:0:0:0:
224,148,91994,2,0,P|264:140|304:148,1,80.5000015354157,8|2,0:0|0:0,0:0:0:0:
302,287,92369,2,0,P|262:294|223:286,1,80.5000015354157,0|2,1:0|0:0,0:0:0:0:
132,180,92744,2,0,P|138:222|132:260,1,80.5000015354157,8|2,0:0|0:0,0:0:0:0:
32,224,93119,6,2,P|16:184|92:92,1,161.000003070831,0|8,1:0|0:0,0:0:0:0:
176,64,93682,1,2,0:0:0:0:
176,64,93776,1,0,0:0:0:0:
176,64,93869,2,0,L|196:144,1,80.5000015354157,0|2,1:0|0:0,0:0:0:0:
140,232,94244,2,0,L|120:153,1,80.5000015354157,8|2,0:0|0:0,0:0:0:0:
256,92,94619,6,0,B|296:92|296:92|336:108,1,80.5000015354157,0|2,1:0|0:0,0:0:0:0:
436,32,94994,2,0,B|436:72|436:72|416:108,1,80.5000015354157,8|2,0:0|0:0,0:0:0:0:
492,208,95369,2,0,B|452:208|452:208|412:192,1,80.5000015354157,0|2,1:0|0:0,0:0:0:0:
312,268,95744,2,0,B|312:228|312:228|332:192,1,80.5000015354157,8|2,0:0|1:2,0:0:0:0:
256,132,96119,6,2,P|220:152|104:144,1,161.000003070831,0|8,1:0|0:0,0:0:0:0:
48,260,96682,1,2,0:0:0:0:
48,260,96776,1,0,0:0:0:0:
48,260,96869,2,0,B|84:244|84:244|128:244,1,80.5000015354157,0|2,1:0|0:0,0:0:0:0:
296,308,97244,2,0,B|256:320|256:320|220:308,1,80.5000015354157,8|2,0:0|0:0,0:0:0:0:
312,228,97619,2,0,P|352:252|356:360,1,161.000003070831,0|8,1:0|0:0,0:0:0:0:
256,336,98182,1,2,0:0:0:0:
153,356,98369,2,0,P|142:280|200:228,1,161.000003070831,0|8,1:0|0:0,0:0:0:0:
312,228,98932,1,0,0:0:0:0:
312,228,99026,1,0,0:0:0:0:
312,228,99119,6,0,P|352:232|396:136,1,161.000003070831,2|8,1:2|0:0,0:0:0:0:
328,68,99682,1,2,0:0:0:0:
416,108,99869,2,0,P|456:116|496:108,1,80.5000015354157,0|2,1:0|0:0,0:0:0:0:
494,275,100244,2,0,P|455:268|416:276,1,80.5000015354157,8|2,0:0|0:0,0:0:0:0:
328,332,100619,2,0,P|320:324|184:336,1,161.000003070831,0|8,1:0|0:0,0:0:0:0:
88,336,101182,1,2,0:0:0:0:
100,316,101276,1,0,0:0:0:0:
108,292,101369,2,0,P|112:252|92:212,1,80.5000015354157,0|0,1:0|1:0,0:0:0:0:
216,220,101744,2,0,P|256:228|296:220,1,80.5000015354157,8|2,0:0|1:2,0:0:0:0:
364,148,102119,5,6,1:2:0:0:
364,148,108119,6,0,P|324:164|296:160,1,70,4|2,1:0|0:0,0:0:0:0:
148,236,108494,2,0,P|188:220|216:224,1,70,0|2,3:0|0:0,0:0:0:0:
96,312,108869,2,0,L|64:248,1,70,0|2,0:0|0:0,0:0:0:0:
52,112,109244,2,0,L|83:174,1,70,2|0,0:0|0:0,0:0:0:0:
148,236,109619,6,0,P|148:192|224:132,1,140,0|0,1:0|3:0,0:0:0:0:
296,160,110182,1,2,0:0:0:0:
296,160,110369,2,0,P|332:168|364:160,1,70,0|2,0:0|0:0,0:0:0:0:
444,128,110744,2,0,L|432:204,1,70,0|2,3:2|0:0,0:0:0:0:
460,276,111119,6,0,P|396:268|332:320,1,140,2|0,0:0|3:0,0:0:0:0:
280,372,111682,2,0,B|225:330|225:330|157:337,1,140,2|0,0:0|0:0,0:0:0:0:
76,312,112244,2,0,B|132:208|132:208|32:188|60:80,2,280,0|0|0,3:0|3:0|3:0,0:0:0:0:
140,120,114119,5,4,1:0:0:0:
