osu file format v12

[General]
AudioFilename: 1004_b_no_higeki.mp3
AudioLeadIn: 0
PreviewTime: -1
Countdown: 0
SampleSet: Soft
StackLeniency: 0.7
Mode: 0
LetterboxInBreaks: 1
WidescreenStoryboard: 1

[Editor]
DistanceSpacing: 1
BeatDivisor: 2
GridSize: 4

[Metadata]
Title:B no Higeki
TitleUnicode:Bの悲劇
Artist:BOKKEN GREEN+PURPLE
ArtistUnicode:BOKKEN GREEN+PURPLE
Creator:Saturnalize
Version:Beginner
Source:BMS
Tags:BOF2010
BeatmapID:330278
BeatmapSetID:131095

[Difficulty]
HPDrainRate:2
CircleSize:3
OverallDifficulty:2
ApproachRate:3
SliderMultiplier:0.8
SliderTickRate:1

[Events]
//Background and Video events
0,0,"BGPBG.jpg",0,0
//Break Periods
//Storyboard Layer 0 (Background)
//Storyboard Layer 1 (Fail)
//Storyboard Layer 2 (Pass)
//Storyboard Layer 3 (Foreground)
//Storyboard Sound Samples
//Background Colour Transformations
3,100,163,162,255

[TimingPoints]
3119.87550593527,375,4,2,1,60,1,0
90119,-100,4,2,2,60,0,1
102119,-100,4,2,2,60,0,0

[Colours]
Combo1 : 210,0,153
Combo2 : 44,147,0
Combo3 : 128,0,128
Combo4 : 102,204,0
SliderBorder : 177,177,177

[HitObjects]
32,128,3119,2,0,P|128:160|208:64,1,240,4|2,1:0|0:0,0:0:0:0:
288,64,4619,2,0,B|288:132|244:180|244:180|312:272,1,240,0|2,0:0|0:0,0:0:0:0:
284,344,6119,2,0,P|172:344|104:240,1,240,0|2,0:0|0:0,0:0:0:0:
144,176,7619,2,0,P|256:176|324:280,1,240,0|2,0:0|0:0,0:0:0:0:
352,348,9119,5,4,1:0:0:0:
428,36,10619,1,4,1:0:0:0:
108,12,12119,37,4,1:0:0:0:
88,172,12869,1,4,1:0:0:0:
240,124,13619,5,4,1:0:0:0:
228,204,13994,1,4,1:0:0:0:
220,284,14369,1,4,1:0:0:0:
368,348,15119,38,0,P|448:292|448:236,1,160,4|0,1:0|1:0,0:0:0:0:
420,164,16244,1,8,1:0:0:0:
352,124,16619,2,0,B|292:124|292:124|252:116|252:116|192:116,1,160,0|0,1:0|1:0,0:0:0:0:
112,116,17744,1,8,1:0:0:0:
144,44,18119,6,0,P|188:96|81:190,1,240,0|8,1:0|1:0,0:0:0:0:
56,268,19619,2,0,B|104:288|160:272|160:272|216:304,1,160,0|0,1:0|1:0,0:0:0:0:
280,264,20744,2,0,L|354:306,1,80,8|0,1:0|1:0,0:0:0:0:
428,308,21494,38,0,P|480:272|484:180,1,160,8|8,1:0|1:0,0:0:0:0:
436,116,22619,1,0,1:0:0:0:
368,72,22994,2,0,B|328:56|288:72|288:72|248:88|208:72,1,160,8|8,1:0|1:0,0:0:0:0:
144,32,24119,5,0,1:0:0:0:
136,112,24494,2,0,B|156:144|196:156|196:156|180:244,1,160,8|8,1:0|1:0,0:0:0:0:
228,304,25619,2,0,P|268:316|308:308,1,80,0|8,1:0|1:0,0:0:0:0:
372,264,26369,2,0,P|412:252|452:260,1,80,0|8,1:0|1:0,0:0:0:0:
416,332,27119,37,4,1:0:0:0:
336,336,27494,2,0,P|296:280|324:200,1,160,8|8,1:0|1:0,0:0:0:0:
344,124,28619,1,0,1:0:0:0:
264,140,28994,2,0,B|224:184|216:224|216:224|124:228,1,160,8|8,1:0|1:0,0:0:0:0:
104,288,30119,6,0,P|40:284|0:244,2,120,0|2|0,1:0|1:2|1:0,0:0:0:0:
180,312,31619,2,0,B|228:280|292:312|292:312|348:344|408:312,1,240,0|8,1:0|1:0,0:0:0:0:
464,256,33119,37,0,1:0:0:0:
476,176,33494,2,0,P|440:104|368:72,1,160,8|8,1:0|1:0,0:0:0:0:
292,88,34619,1,0,1:0:0:0:
224,128,34994,2,0,P|144:156|68:132,1,160,8|8,1:0|1:0,0:0:0:0:
20,196,36119,6,0,B|52:224|104:232|104:232|116:304,1,160,0|0,1:0|1:0,0:0:0:0:
172,352,37244,1,8,1:0:0:0:
236,304,37619,2,0,P|268:288|316:292,1,80,0|8,1:0|1:0,0:0:0:0:
380,252,38369,2,0,P|428:260|468:244,1,80,0|8,1:0|1:0,0:0:0:0:
416,180,39119,5,4,1:0:0:0:
256,192,39307,12,4,40619,1:0:0:0:
144,152,40994,22,0,P|104:144|72:112,1,80,2|0,1:2|1:0,0:0:0:0:
144,72,41744,1,2,1:2:0:0:
216,112,42119,2,0,B|256:128|296:112|296:112|336:96|376:112,1,160,0|0,1:0|1:0,0:0:0:0:
432,160,43244,1,2,1:2:0:0:
464,232,43619,6,0,P|464:288|456:312,1,80,0|2,1:0|1:2,0:0:0:0:
376,304,44369,2,0,P|376:248|384:224,1,80,0|2,1:0|1:2,0:0:0:0:
432,160,45119,2,0,P|416:80|344:48,1,160,0|0,1:0|1:0,0:0:0:0:
272,56,46244,1,2,1:2:0:0:
192,80,46619,38,0,P|128:88|104:80,1,80,4|2,1:0|1:2,0:0:0:0:
72,152,47369,2,0,P|110:203|116:228,1,80,0|2,1:0|1:2,0:0:0:0:
192,216,48119,2,0,P|248:144|304:240,1,240,0|2,1:0|1:2,0:0:0:0:
376,272,49619,6,0,B|400:232|392:176|392:176|448:152,1,160,0|0,1:0|1:0,0:0:0:0:
488,80,50744,1,2,1:2:0:0:
456,8,51119,1,4,1:0:0:0:
328,104,51869,6,0,P|280:96|256:72,1,80,0|0,1:0|1:0,0:0:0:0:
320,24,52619,22,0,P|384:44|344:184,1,240,4|8,1:0|1:0,0:0:0:0:
296,240,54119,2,0,P|256:244|220:268,1,80,0|8,1:0|1:0,0:0:0:0:
152,224,54869,2,0,P|120:240|72:236,1,80,0|8,1:0|1:0,0:0:0:0:
100,160,55619,5,0,1:0:0:0:
48,96,55994,2,0,P|80:80|128:84,1,80,8|0,1:0|1:0,0:0:0:0:
196,116,56744,1,8,1:0:0:0:
272,152,57119,38,0,B|312:168|352:152|352:152|392:136|432:152,1,160,0|0,1:0|1:0,0:0:0:0:
488,208,58244,1,8,1:0:0:0:
504,288,58619,5,4,1:0:0:0:
456,352,58994,1,2,0:0:0:0:
320,272,59744,2,0,P|264:256|224:264,1,80,2|0,0:0|0:0,0:0:0:0:
168,288,60494,1,2,0:0:0:0:
32,376,61244,37,2,2:0:0:0:
56,300,61619,1,0,1:0:0:0:
52,220,61994,1,0,1:0:0:0:
8,152,62369,2,0,L|84:128,1,80,0|0,1:0|1:0,0:0:0:0:
160,156,63119,2,0,L|236:132,1,80,0|0,1:0|1:0,0:0:0:0:
316,124,63869,6,0,P|380:160|392:240,1,160,0|4,1:0|1:0,0:0:0:0:
256,192,64807,12,0,66119,0:0:0:0:
256,192,66307,12,0,67619,0:0:0:0:
256,192,67807,12,0,69119,0:0:0:0:
256,192,69307,12,0,70619,0:0:0:0:
232,328,70994,38,0,P|304:344|376:304,1,160,2|2,0:0|0:0,0:0:0:0:
408,232,72119,1,0,0:0:0:0:
408,152,72494,2,0,P|376:104|280:72,1,160,2|2,0:0|0:0,0:0:0:0:
208,40,73619,6,0,P|152:72|88:64,2,120,0|2|0,0:0|0:0|0:0,0:0:0:0:
280,80,75119,2,0,P|320:80|360:96,1,80
340,172,75869,2,0,P|300:172|260:156,1,80
188,188,76619,38,0,P|112:196|184:276,1,240,4|0,1:0|3:0,0:0:0:0:
264,256,78119,2,0,B|328:240|384:264|384:264|376:200|408:152,1,240,0|0,0:0|3:0,0:0:0:0:
352,92,79619,2,0,B|296:124|240:92|240:92|184:60|124:92,1,240,0|0,0:0|3:0,0:0:0:0:
60,144,81119,2,0,P|64:236|188:296,1,240,0|0,0:0|3:0,0:0:0:0:
260,320,82619,6,0,P|316:276|400:292,1,160,4|0,3:2|3:0,0:0:0:0:
464,336,83744,1,0,3:0:0:0:
472,256,84119,2,0,B|444:220|400:204|400:204|416:128,1,160,0|0,3:0|3:0,0:0:0:0:
368,68,85244,1,0,0:0:0:0:
292,48,85619,38,0,P|196:64|176:128,1,160,0|0,3:0|3:0,0:0:0:0:
256,120,86744,1,0,0:0:0:0:
212,188,87119,2,0,P|244:200|292:192,1,80,0|0,3:0|3:0,0:0:0:0:
332,260,87869,2,0,P|376:256|420:280,1,80,0|0,3:0|3:0,0:0:0:0:
360,336,88619,5,4,3:1:0:0:
368,348,90119,6,0,P|280:348|248:292,1,160,4|0,1:0|1:0,0:0:0:0:
252,212,91244,1,8,1:0:0:0:
176,184,91619,2,0,L|100:160,1,80,0|8,1:0|1:0,0:0:0:0:
116,80,92369,2,0,L|192:104,1,80,0|8,1:0|1:0,0:0:0:0:
272,92,93119,6,0,P|364:88|424:208,1,240,2|8,1:2|1:0,0:0:0:0:
348,228,94619,2,0,P|296:224|264:160,2,120,0|2|0,1:0|1:2|1:0,0:0:0:0:
380,300,96119,38,0,B|316:324|256:292|256:292|148:320,1,240,2|8,1:2|1:0,0:0:0:0:
80,280,97619,2,0,P|52:248|48:200,1,80,0|8,1:0|1:0,0:0:0:0:
92,144,98369,2,0,P|120:176|124:224,1,80,0|8,1:0|1:0,0:0:0:0:
204,216,99119,6,0,P|328:256|400:188,1,240,2|8,1:2|1:0,0:0:0:0:
348,128,100619,2,0,P|292:116|236:144,2,120,2|0|2,1:2|1:0|1:2,0:0:0:0:
400,188,102119,5,4,1:0:0:0:
388,268,102494,2,0,P|340:316|256:300,1,160,2|2,0:0|0:0,0:0:0:0:
176,316,103619,6,0,P|140:296|96:292,1,80,0|2,0:0|0:0,0:0:0:0:
24,304,104369,1,0,0:0:0:0:
48,228,104744,1,2,0:0:0:0:
56,148,105119,38,0,B|64:104|40:56|40:56|112:96|184:64,1,240,2|2,0:0|0:0,0:0:0:0:
248,112,106619,2,0,P|288:96|328:104,1,80,0|2,0:0|0:0,0:0:0:0:
376,160,107369,2,0,P|368:232|296:272,1,160,2|4,0:0|1:0,0:0:0:0:
232,224,108494,6,0,B|136:96|40:64|-24:224|80:264|160:272|208:128|176:32,1,480,2|0,0:0|0:0,0:0:0:0:
256,32,111119,2,0,P|320:80|376:80,1,120,2|0,0:0|0:0,0:0:0:0:
472,56,112244,1,2,0:0:0:0:
492,132,112619,6,0,B|492:172|492:172|468:204,1,80,0|2,0:0|0:0,0:0:0:0:
388,220,113369,2,0,B|353:200|353:200|337:163,1,80,0|0,1:0|3:0,0:0:0:0:
412,132,114119,5,4,1:0:0:0:
