osu file format v12

[General]
AudioFilename: 1004_b_no_higeki.mp3
AudioLeadIn: 0
PreviewTime: -1
Countdown: 0
SampleSet: Soft
StackLeniency: 0.7
Mode: 0
LetterboxInBreaks: 1
WidescreenStoryboard: 0

[Editor]
DistanceSpacing: 1
BeatDivisor: 4
GridSize: 4
TimelineZoom: 1

[Metadata]
Title:B no Higeki
TitleUnicode:Bの悲劇
Artist:BOKKEN GREEN+PURPLE
ArtistUnicode:BOKKEN GREEN+PURPLE
Creator:Saturnalize
Version:Another
Source:BMS
Tags:BOF2010
BeatmapID:330277
BeatmapSetID:131095

[Difficulty]
HPDrainRate:8
CircleSize:4
OverallDifficulty:8
ApproachRate:9
SliderMultiplier:1.6
SliderTickRate:1

[Events]
//Background and Video events
0,0,"BGPBG.jpg",0,0
//Break Periods
//Storyboard Layer 0 (Background)
//Storyboard Layer 1 (Fail)
//Storyboard Layer 2 (Pass)
//Storyboard Layer 3 (Foreground)
//Storyboard Sound Samples
//Background Colour Transformations
3,100,163,162,255

[TimingPoints]
3119.87550593527,375,4,2,2,60,1,0
9026,-86.9565217391304,4,2,2,60,0,0
9588,-100,4,2,2,60,0,0
10526,-86.9565217391304,4,2,2,60,0,0
11088,-100,4,2,2,60,0,0
12026,-86.9565217391304,4,2,2,60,0,0
12588,-100,4,2,2,60,0,0
12776,-86.9565217391304,4,2,2,60,0,0
13338,-100,4,2,2,60,0,0
15119,-86.9565217391304,4,2,1,60,0,0
39073,-100,4,2,1,60,0,0
39823,-86.9565217391304,4,2,0,60,0,0
40619,-86.9565217391304,4,2,1,60,0,0
51682,-86.9565217391304,4,2,0,60,0,0
52619,-86.9565217391304,4,2,1,60,0,0
64573,-200,4,2,1,60,0,0
70713,-133.333333333333,4,2,1,60,0,0
75635,-100,4,2,1,60,0,0
76573,-100,4,2,2,60,0,0
90119,-86.9565217391304,4,2,2,60,0,1
102119,-100,4,2,2,60,0,0

[Colours]
Combo1 : 210,0,153
Combo2 : 44,147,0
Combo3 : 128,0,128
Combo4 : 102,204,0
SliderBorder : 177,177,177

[HitObjects]
80,176,3119,6,0,P|128:112|200:120,1,160,4|8,1:0|0:1,0:0:0:0:
296,112,3682,2,0,P|328:152|400:160,1,120,0|0,0:0|0:0,0:0:0:0:
432,152,4057,2,0,L|424:232,1,80,2|8,0:0|0:1,0:0:0:0:
352,296,4432,1,2,0:0:0:0:
256,272,4619,2,0,P|184:272|128:336,1,160,0|8,0:0|0:1,0:0:0:0:
48,288,5182,2,0,B|56:256|88:224|88:224|80:176,1,120
64,144,5557,1,2,0:0:0:0:
136,80,5744,2,0,B|176:96|176:96|216:88,1,80,8|2,0:1|0:0,0:0:0:0:
304,120,6119,6,0,B|368:112|368:112|416:136|416:192,1,160,0|8,0:0|0:1,0:0:0:0:
384,280,6682,1,0,0:0:0:0:
368,316,6776,1,0,0:0:0:0:
256,352,6963,1,0,0:0:0:0:
244,312,7057,1,2,0:0:0:0:
156,276,7244,2,0,P|124:292|76:284,1,80,8|2,0:1|0:0,0:0:0:0:
116,192,7619,2,0,B|150:172|191:185|191:185|232:196|271:178,1,160,0|8,0:0|0:1,0:0:0:0:
332,104,8182,2,0,L|324:60,1,40,0|0,0:0|0:0,0:0:0:0:
436,20,8463,2,0,L|428:64,1,40,0|2,0:0|0:0,0:0:0:0:
412,156,8744,1,8,0:1:0:0:
480,224,8932,1,0,3:0:0:0:
412,156,9119,6,0,P|332:136|268:204,1,184.000003509522,4|8,1:0|0:1,0:0:0:0:
176,180,9682,22,0,P|136:216|68:216,1,120
36,204,10057,1,2,0:0:0:0:
100,136,10244,1,8,0:1:0:0:
100,300,10432,1,0,0:0:0:0:
192,276,10619,38,0,B|232:252|248:212|248:212|344:224,1,184.000003509522,4|8,1:0|0:1,0:0:0:0:
432,184,11182,22,0,P|440:236|404:300,1,120
368,320,11557,2,0,L|288:308,1,80,2|8,0:0|0:1,0:0:0:0:
200,340,11932,1,0,0:0:0:0:
112,300,12119,6,0,P|96:216|160:152,1,184.000003509522,4|8,1:0|0:1,0:0:0:0:
240,204,12682,21,0,0:0:0:0:
336,204,12869,38,0,P|352:288|288:352,1,184.000003509522,4|8,1:0|0:1,0:0:0:0:
192,340,13432,21,0,0:0:0:0:
108,292,13619,6,0,P|96:232|120:180,1,120,4|0,1:0|1:0,0:0:0:0:
160,156,13994,2,0,L|276:196,1,120,12|0,1:0|1:0,0:0:0:0:
312,204,14369,2,0,L|352:184,1,40,4|0,1:0|0:0,0:0:0:0:
356,224,14557,2,0,L|400:218,1,40,0|0,1:0|0:0,0:0:0:0:
380,256,14744,2,0,L|423:266,1,40,12|0,1:0|0:0,0:0:0:0:
392,296,14932,2,0,L|429:320,1,40,0|0,0:0|3:0,0:0:0:0:
388,344,15119,22,0,P|352:376|232:328,1,184.000003509522,4|8,1:0|1:0,0:0:0:0:
188,260,15682,1,0,0:0:0:0:
188,260,15776,1,0,0:0:0:0:
188,260,15869,2,0,L|96:248,1,92.0000017547608,0|0,1:0|0:0,0:0:0:0:
84,156,16244,2,0,L|176:168,1,92.0000017547608,8|0,1:0|0:2,0:0:0:0:
252,220,16619,2,0,P|352:240|404:184,1,184.000003509522,0|8,1:0|1:0,0:0:0:0:
392,96,17182,1,0,0:0:0:0:
392,96,17276,1,0,0:0:0:0:
392,96,17369,2,0,P|437:100|479:132,1,92.0000017547608,0|0,1:0|0:0,0:0:0:0:
312,156,17744,2,0,P|293:114|299:62,1,92.0000017547608,8|0,1:0|0:0,0:0:0:0:
392,96,18119,6,0,P|468:140|464:228,1,184.000003509522,0|8,1:2|1:0,0:0:0:0:
384,276,18682,1,0,0:0:0:0:
384,276,18776,1,0,0:0:0:0:
384,276,18869,2,0,L|292:256,1,92.0000017547608,0|0,1:0|0:0,0:0:0:0:
296,164,19244,2,0,L|388:184,1,92.0000017547608,8|0,1:0|0:0,0:0:0:0:
388,296,19619,2,0,L|205:256,1,184.000003509522,2|8,1:2|1:0,0:0:0:0:
132,152,20182,1,0,0:0:0:0:
136,160,20275,1,0,0:0:0:0:
140,168,20369,1,0,1:0:0:0:
236,96,20557,1,0,0:0:0:0:
232,104,20650,1,0,0:0:0:0:
228,112,20744,2,0,L|280:132,1,46.0000008773804,8|0,1:0|0:0,0:0:0:0:
304,160,20932,2,0,L|356:180,1,46.0000008773804,0|0,1:0|0:0,0:0:0:0:
376,212,21119,38,0,P|384:260|292:344,1,184.000003509522,0|8,1:0|1:0,0:0:0:0:
204,324,21682,1,0,0:0:0:0:
204,324,21776,1,0,0:0:0:0:
204,324,21869,2,0,L|164:240,1,92.0000017547608,0|0,1:0|0:0,0:0:0:0:
224,172,22244,2,0,L|264:256,1,92.0000017547608,8|0,1:0|0:0,0:0:0:0:
204,324,22619,2,0,P|116:324|72:248,1,184.000003509522,0|8,1:0|1:0,0:0:0:0:
92,156,23182,1,0,0:0:0:0:
92,156,23276,1,0,0:0:0:0:
92,156,23369,2,0,L|0:168,1,92.0000017547608,0|0,1:0|0:0,0:0:0:0:
20,76,23744,2,0,L|112:64,1,92.0000017547608,8|0,1:0|0:0,0:0:0:0:
180,124,24119,6,0,P|224:152|336:96,1,184.000003509522,0|8,1:0|1:0,0:0:0:0:
248,64,24682,1,0,0:0:0:0:
248,64,24776,1,0,0:0:0:0:
248,64,24869,1,0,1:0:0:0:
172,112,25057,1,0,0:0:0:0:
92,156,25244,2,0,P|88:204|108:244,1,92.0000017547608,8|0,1:0|0:0,0:0:0:0:
192,272,25619,2,0,B|208:224|176:184|176:184|264:164,1,184.000003509522,2|8,1:2|1:0,0:0:0:0:
352,188,26182,1,0,0:0:0:0:
356,180,26276,1,0,0:0:0:0:
360,172,26369,1,0,1:0:0:0:
484,108,26557,1,0,0:0:0:0:
480,116,26650,1,0,1:0:0:0:
476,124,26744,2,0,L|484:172,1,46.0000008773804,8|0,1:0|0:0,0:0:0:0:
468,212,26932,2,0,L|460:257,1,46.0000008773804,0|0,1:0|0:0,0:0:0:0:
468,304,27119,37,4,1:0:0:0:
360,328,27307,2,0,L|344:372,2,46.0000008773804,2|0|8,0:0|0:0|1:0,0:0:0:0:
256,296,27682,2,0,L|244:248,2,46.0000008773804,2|0|0,0:0|0:0|1:0,0:0:0:0:
148,312,28057,2,0,L|144:368,2,46.0000008773804,2|0|8,0:0|0:0|1:0,0:0:0:0:
124,284,28338,1,0,0:0:0:0:
112,248,28432,1,2,0:0:0:0:
116,212,28526,1,0,0:0:0:0:
136,180,28619,5,0,1:0:0:0:
168,164,28713,1,0,0:0:0:0:
204,156,28807,1,2,0:0:0:0:
240,164,28901,1,0,0:0:0:0:
276,176,28994,1,8,1:0:0:0:
312,188,29088,1,0,0:0:0:0:
348,200,29182,1,2,0:0:0:0:
384,204,29276,1,0,0:0:0:0:
420,200,29369,37,0,1:0:0:0:
452,180,29463,1,0,0:0:0:0:
476,152,29557,1,2,0:0:0:0:
484,116,29651,1,0,0:0:0:0:
480,80,29744,1,8,1:0:0:0:
464,48,29838,1,0,0:0:0:0:
436,24,29932,1,2,0:0:0:0:
400,12,30026,1,0,0:0:0:0:
364,12,30119,6,0,P|304:60|300:128,1,138.000002632141,0|0,1:0|0:0,0:0:0:0:
316,160,30494,1,8,1:0:0:0:
420,200,30682,1,2,0:0:0:0:
436,308,30869,2,0,P|392:364|324:360,1,138.000002632141,0|0,1:0|0:0,0:0:0:0:
288,344,31244,1,8,1:0:0:0:
240,244,31432,1,2,0:0:0:0:
132,256,31619,2,0,L|32:240,1,92.0000017547608,0|2,1:0|0:0,0:0:0:0:
60,132,31994,2,0,L|160:148,1,92.0000017547608,8|2,1:0|0:0,0:0:0:0:
144,268,32369,2,0,L|44:252,1,92.0000017547608,0|2,1:0|0:0,0:0:0:0:
72,144,32744,2,0,L|172:160,1,92.0000017547608,8|0,1:0|1:0,0:0:0:0:
260,212,33119,37,0,1:0:0:0:
364,172,33307,2,0,P|392:172|424:180,2,46.0000008773804,2|2|8,0:0|0:0|1:0,0:0:0:0:
344,280,33682,2,0,P|330:304|307:327,2,46.0000008773804,2|2|0,0:0|0:0|1:0,0:0:0:0:
260,212,34057,2,0,P|246:187|236:156,2,46.0000008773804,2|0|8,0:0|0:0|1:0,0:0:0:0:
223,213,34338,1,0,0:0:0:0:
191,231,34432,1,2,0:0:0:0:
172,262,34526,1,0,0:0:0:0:
164,300,34620,1,0,1:0:0:0:
140,328,34714,1,0,0:0:0:0:
104,340,34808,1,2,0:0:0:0:
68,336,34901,5,0,0:0:0:0:
40,312,34995,1,8,1:0:0:0:
28,276,35089,1,0,0:0:0:0:
32,240,35183,1,2,0:0:0:0:
52,208,35276,1,0,0:0:0:0:
68,176,35370,1,0,1:0:0:0:
72,140,35464,1,0,0:0:0:0:
64,104,35558,1,2,0:0:0:0:
48,72,35651,1,0,0:0:0:0:
24,44,35745,1,8,1:0:0:0:
68,56,35839,1,0,0:0:0:0:
112,60,35933,1,2,0:0:0:0:
156,52,36026,1,0,0:0:0:0:
200,36,36119,38,0,P|268:80|272:136,1,138.000002632141,0|0,1:0|0:0,0:0:0:0:
260,176,36494,2,0,L|356:168,1,92.0000017547608,8|2,1:0|0:0,0:0:0:0:
328,276,36869,2,0,L|232:284,1,92.0000017547608,0|2,1:0|0:0,0:0:0:0:
152,212,37244,2,0,P|132:168|144:128,1,92.0000017547608,8|2,1:0|0:0,0:0:0:0:
232,192,37619,2,0,P|200:280|88:264,1,184.000003509522,0|8,1:0|1:0,0:0:0:0:
68,192,38182,1,0,0:0:0:0:
68,192,38276,1,0,0:0:0:0:
68,192,38369,2,0,L|76:144,1,46.0000008773804,0|0,1:0|0:0,0:0:0:0:
120,144,38557,2,0,L|156:112,1,46.0000008773804,2|0,1:2|0:0,0:0:0:0:
192,144,38744,2,0,L|240:143,1,46.0000008773804,8|0,1:0|0:0,0:0:0:0:
248,186,38932,2,0,L|285:216,1,46.0000008773804,2|0,1:2|0:0,0:0:0:0:
324,208,39119,6,0,P|388:220|424:56,1,280,4|0,1:0|0:0,0:0:0:0:
384,36,39869,6,0,L|336:40,1,46.0000008773804,8|8,1:2|1:2,0:0:0:0:
284,84,40057,2,0,L|236:88,1,46.0000008773804,0|8,1:2|1:2,0:0:0:0:
188,136,40244,2,0,L|140:140,1,46.0000008773804,8|0,1:2|1:2,0:0:0:0:
80,172,40432,2,0,L|32:176,1,46.0000008773804,0|0,1:2|1:2,0:0:0:0:
0,220,40619,22,2,P|36:292|108:292,1,138.000002632141,4|0,1:0|0:0,0:0:0:0:
132,312,40994,2,0,P|152:312|180:320,1,46.0000008773804,10|2,1:2|0:0,0:0:0:0:
280,364,41276,1,2,0:0:0:0:
320,340,41369,2,0,L|412:348,1,92.0000017547608,0|2,1:0|0:0,0:0:0:0:
440,240,41744,2,0,L|348:232,1,92.0000017547608,8|2,1:2|2:0,0:0:0:0:
252,176,42119,2,2,P|224:120|248:52,1,138.000002632141,0|0,1:0|0:0,0:0:0:0:
284,24,42494,2,0,L|336:32,1,46.0000008773804,10|2,1:2|0:0,0:0:0:0:
160,48,42776,2,0,L|108:40,1,46.0000008773804,2|0,0:0|1:0,0:0:0:0:
8,72,43057,1,2,0:0:0:0:
32,180,43244,2,0,P|72:208|116:208,1,92.0000017547608,8|2,1:2|0:0,0:0:0:0:
208,264,43619,6,2,P|268:248|332:284,1,138.000002632141,0|0,1:0|0:0,0:0:0:0:
348,324,43994,2,0,L|368:280,1,46.0000008773804,10|2,1:2|0:0,0:0:0:0:
476,192,44276,2,0,L|456:236,1,46.0000008773804,2|0,0:0|1:0,0:0:0:0:
348,216,44557,1,2,0:0:0:0:
280,132,44744,2,0,P|268:88|288:48,1,92.0000017547608,8|2,1:2|0:0,0:0:0:0:
360,132,45119,2,2,P|328:196|240:204,1,138.000002632141,0|0,1:0|0:0,0:0:0:0:
228,236,45494,2,0,P|200:240|176:252,1,46.0000008773804,10|2,1:2|0:0,0:0:0:0:
88,348,45776,2,0,P|116:344|140:332,1,46.0000008773804,2|0,0:0|1:0,0:0:0:0:
144,200,46057,1,0,1:0:0:0:
20,256,46244,1,10,1:2:0:0:
132,336,46432,1,0,0:0:0:0:
264,304,46619,38,2,P|324:296|392:328,1,138.000002632141,4|0,1:0|0:0,0:0:0:0:
424,364,46994,2,0,L|448:316,1,46.0000008773804,10|2,1:2|0:0,1:0:0:0:
440,184,47276,2,0,L|416:232,1,46.0000008773804,2|0,0:0|1:0,0:0:0:0:
328,288,47557,1,2,0:0:0:0:
228,244,47744,2,0,P|184:240|140:256,1,92.0000017547608,8|2,1:2|0:0,0:0:0:0:
48,316,48119,2,2,P|60:252|40:184,1,138.000002632141,0|0,1:0|0:0,0:0:0:0:
12,144,48494,2,0,L|68:156,1,46.0000008773804,10|2,1:2|0:0,0:0:0:0:
164,120,48776,2,0,L|220:108,1,46.0000008773804,2|0,0:0|1:0,0:0:0:0:
316,88,49057,1,2,0:0:0:0:
412,140,49244,2,0,P|424:188|412:236,1,92.0000017547608,8|2,1:2|0:0,0:0:0:0:
320,284,49619,6,2,P|256:264|228:200,1,138.000002632141,0|0,1:0|0:0,0:0:0:0:
232,156,49994,2,0,L|264:116,1,46.0000008773804,10|0,1:2|0:0,0:0:0:0:
124,92,50276,2,0,L|92:132,1,46.0000008773804,2|0,0:0|1:0,0:0:0:0:
92,240,50557,1,2,0:0:0:0:
164,324,50744,2,0,P|216:340|256:328,1,92.0000017547608,8|2,1:2|0:0,0:0:0:0:
344,272,51119,37,4,1:0:0:0:
344,272,51869,1,8,0:0:0:0:
362,240,51962,1,8,0:0:0:0:
369,204,52056,1,0,0:0:0:0:
362,168,52150,1,8,0:0:0:0:
343,137,52244,1,8,1:2:0:0:
314,114,52337,1,8,1:2:0:0:
279,103,52431,1,0,1:0:0:0:
243,105,52525,1,0,1:0:0:0:
208,120,52619,6,0,L|114:123,1,92.0000017547608,4|2,1:0|0:0,0:0:0:0:
48,212,52994,1,8,1:0:0:0:
60,248,53088,1,2,0:0:0:0:
168,272,53276,1,2,0:0:0:0:
180,236,53369,1,0,1:0:0:0:
276,292,53557,1,2,0:0:0:0:
380,256,53744,2,0,L|412:160,1,92.0000017547608,8|2,1:0|0:0,0:0:0:0:
312,112,54119,2,0,L|280:208,1,92.0000017547608,0|2,1:0|0:0,0:0:0:0:
180,236,54494,1,8,1:0:0:0:
144,248,54588,1,2,0:0:0:0:
56,140,54776,1,2,0:0:0:0:
92,152,54870,1,0,1:0:0:0:
204,152,55057,1,2,0:0:0:0:
244,48,55244,2,0,P|280:24|336:24,1,92.0000017547608,8|2,1:0|0:0,0:0:0:0:
360,128,55619,38,0,P|324:152|268:152,1,92.0000017547608,0|2,1:0|0:0,0:0:0:0:
172,120,55994,1,8,1:0:0:0:
160,156,56088,1,2,0:0:0:0:
256,256,56276,1,2,0:0:0:0:
268,292,56370,1,0,1:0:0:0:
376,312,56557,1,2,0:0:0:0:
456,236,56744,2,0,P|472:184|464:148,1,92.0000017547608,8|2,1:0|0:0,0:0:0:0:
392,64,57119,2,0,L|284:100,1,92.0000017547608,0|2,1:0|0:0,0:0:0:0:
196,120,57494,1,8,1:0:0:0:
168,96,57588,1,2,0:0:0:0:
60,128,57776,1,2,0:0:0:0:
88,152,57870,1,0,1:0:0:0:
220,116,58057,1,0,1:0:0:0:
296,228,58244,1,8,1:0:0:0:
212,336,58432,1,2,0:0:0:0:
80,288,58619,5,4,1:0:0:0:
308,136,58994,1,2,0:0:0:0:
328,100,59744,1,2,0:0:0:0:
488,324,60119,37,0,0:0:0:0:
212,356,60494,1,2,0:0:0:0:
180,372,61244,1,2,0:0:0:0:
16,148,61619,21,4,1:0:0:0:
120,188,61807,1,0,1:0:0:0:
216,136,61994,1,0,1:0:0:0:
112,100,62182,1,0,1:0:0:0:
48,220,62369,1,0,1:0:0:0:
140,316,62557,1,0,1:0:0:0:
262,256,62744,1,0,1:0:0:0:
244,124,62932,2,0,L|236:64,1,46.0000008773804,0|0,1:0|1:0,0:0:0:0:
264,52,63119,5,0,1:0:0:0:
291,28,63212,1,0,1:0:0:0:
326,16,63306,1,0,1:0:0:0:
363,18,63400,1,0,1:0:0:0:
396,33,63494,1,0,1:0:0:0:
422,59,63587,1,0,1:0:0:0:
436,92,63681,1,0,1:0:0:0:
437,129,63775,1,0,1:0:0:0:
424,163,63869,2,0,L|432:204,3,30.6666672515869,0|0|0|0,1:0|1:0|1:0|1:0,0:0:0:0:
416,228,64151,2,0,L|404:280,1,46.0000008773804,0|0,1:0|1:0,0:0:0:0:
284,340,64432,1,0,1:0:0:0:
268,308,64526,1,0,1:0:0:0:
252,276,64619,6,2,B|184:276|184:276|88:320|88:320|20:320,1,240,4|0,1:2|0:3,0:0:0:0:
20,96,66119,2,0,B|88:96|88:96|184:140|184:140|252:140,1,240,0|0,0:0|0:3,0:0:0:0:
428,276,67619,2,2,P|376:340|240:304,1,240,0|0,0:0|0:0,0:0:0:0:
128,108,69119,2,2,P|180:44|316:80,1,240,0|2,0:0|0:0,0:0:0:0:
320,88,70338,1,2,0:0:0:0:
324,96,70432,1,0,0:0:0:0:
328,104,70526,1,0,0:0:0:0:
332,112,70619,1,0,0:0:0:0:
392,188,70807,6,0,L|424:200,2,30.0000011444092,0|0|0,0:0|0:0|3:0,0:0:0:0:
344,272,71182,2,0,L|365:298,2,30.0000011444092,0|0|0,0:0|0:0|0:0,0:0:0:0:
256,308,71557,2,0,L|261:341,2,30.0000011444092,0|0|0,0:0|0:0|3:0,0:0:0:0:
224,328,71838,1,0,0:0:0:0:
194,335,71931,1,0,0:0:0:0:
165,334,72025,1,0,0:0:0:0:
136,326,72119,1,0,0:0:0:0:
110,310,72213,1,0,0:0:0:0:
90,288,72306,1,0,0:0:0:0:
76,262,72400,1,0,0:0:0:0:
70,233,72494,37,0,3:0:0:0:
71,203,72588,1,0,0:0:0:0:
81,174,72681,1,0,0:0:0:0:
97,149,72775,1,0,0:0:0:0:
120,130,72869,1,0,0:0:0:0:
147,117,72963,1,0,0:0:0:0:
176,111,73057,2,0,L|184:84,3,20.0000007629395,0|0|0|0,0:0|3:0|0:0|3:0,0:0:0:0:
208,120,73338,2,0,L|228:168,1,30.0000011444092
236,184,73526,1,0,0:0:0:0:
252,220,73619,1,0,0:0:0:0:
344,296,73807,6,0,L|364:340,2,30.0000011444092,0|0|0,0:0|0:0|3:0,0:0:0:0:
436,216,74182,2,0,L|416:260,2,30.0000011444092,0|0|0,0:0|0:0|0:0,0:0:0:0:
372,116,74557,1,0,0:0:0:0:
256,136,74744,1,0,3:0:0:0:
216,144,74838,1,0,0:0:0:0:
176,148,74932,1,0,0:0:0:0:
136,140,75026,1,0,0:0:0:0:
104,116,75119,2,0,L|88:152,1,30.0000011444092
64,172,75307,2,0,L|76:212,1,30.0000011444092
68,240,75494,2,0,L|104:260,1,30.0000011444092,0|0,3:0|0:0,0:0:0:0:
116,292,75682,6,0,L|144:284,2,26.6666666666667,0|0|0,3:0|3:0|3:0,0:0:0:0:
184,316,75869,2,0,L|208:276,1,40,0|0,3:0|3:0,0:0:0:0:
260,308,76057,2,0,L|284:268,1,40,0|0,3:0|3:0,0:0:0:0:
336,300,76244,2,0,L|360:260,1,40,0|0,3:0|3:0,0:0:0:0:
412,292,76432,2,0,L|436:252,1,40,0|0,3:0|3:0,0:0:0:0:
448,220,76619,22,0,P|376:172|376:104,1,160,4|0,1:0|3:0,0:0:0:0:
456,48,77182,2,0,L|292:52,1,160
200,56,77744,1,0,3:0:0:0:
200,56,78119,2,0,P|208:128|284:156,1,160,0|0,0:0|3:0,0:0:0:0:
348,228,78682,2,0,P|392:276|360:356,1,160
268,332,79244,1,0,3:0:0:0:
268,332,79619,6,0,B|208:332|208:332|168:340|168:340|108:340,1,160,0|0,0:0|3:0,0:0:0:0:
108,244,80182,2,0,B|168:244|168:244|208:252|208:252|268:252,1,160,0|0,0:0|0:0,0:0:0:0:
340,188,80744,1,0,3:0:0:0:
340,188,81119,2,0,P|332:116|264:64,1,160,0|0,0:0|3:0,0:0:0:0:
164,80,81682,2,0,P|118:136|130:221,1,160,0|0,0:0|0:0,0:0:0:0:
208,288,82244,2,0,P|248:288|288:276,1,80,0|0,3:0|0:0,0:0:0:0:
340,188,82619,37,4,3:2:0:0:
348,204,82994,1,0,3:2:0:0:
236,316,83369,1,0,3:2:0:0:
244,332,83744,1,0,3:2:0:0:
100,232,84119,1,0,3:2:0:0:
108,248,84494,1,0,3:2:0:0:
208,84,84869,1,0,3:2:0:0:
216,100,85244,1,0,3:2:0:0:
384,192,85619,5,0,3:0:0:0:
244,268,85994,1,0,3:0:0:0:
176,88,86369,1,0,3:0:0:0:
336,68,86744,1,0,3:0:0:0:
332,260,87119,37,0,3:0:0:0:
284,344,87307,1,0,3:0:0:0:
188,332,87494,1,0,3:0:0:0:
172,236,87682,1,0,3:0:0:0:
172,236,87776,1,0,3:0:0:0:
172,236,87869,1,0,3:0:0:0:
72,220,88057,1,0,3:0:0:0:
28,307,88245,1,0,3:0:0:0:
100,378,88432,1,0,3:0:0:0:
188,332,88619,1,4,3:1:0:0:
188,332,89182,6,0,P|232:328|268:340,1,80
356,260,89557,2,0,P|312:264|276:252,1,80
232,140,89932,1,0,0:0:0:0:
140,80,90119,6,0,P|60:60|0:132,1,184.000003509522,4|8,1:0|1:0,0:0:0:0:
56,228,90682,1,2,0:0:0:0:
164,248,90869,2,0,L|252:212,1,92.0000017547608,0|2,1:0|2:0,0:0:0:0:
324,292,91244,2,0,L|236:328,1,92.0000017547608,8|2,1:0|2:0,0:0:0:0:
212,340,91494,2,0,L|200:372,2,30.6666672515869,2|2|0,0:0|0:0|1:0,0:0:0:0:
236,232,91807,1,2,0:0:0:0:
180,136,91994,2,0,P|144:108|96:104,1,92.0000017547608,8|2,1:0|0:0,0:0:0:0:
56,204,92369,2,0,P|92:232|140:236,1,92.0000017547608,0|2,1:2|0:0,0:0:0:0:
240,200,92744,1,8,1:0:0:0:
264,92,92932,1,2,0:0:0:0:
372,104,93119,6,0,P|420:128|444:160,1,92.0000017547608,0|2,1:0|0:0,0:0:0:0:
348,216,93494,2,0,P|369:265|367:305,1,92.0000017547608,8|2,1:0|0:0,0:0:0:0:
260,284,93869,2,0,P|244:335|217:364,1,92.0000017547608,0|2,1:0|0:0,0:0:0:0:
145,279,94244,2,0,P|100:308|60:313,1,92.0000017547608,8|2,1:0|0:0,0:2:0:0:
72,204,94619,1,0,1:0:0:0:
176,168,94807,1,2,0:0:0:0:
176,168,94901,1,0,0:0:0:0:
176,168,94994,2,0,L|256:216,1,92.0000017547608,8|2,1:0|0:0,0:0:0:0:
340,144,95369,2,0,L|260:96,1,92.0000017547608,0|2,1:2|0:0,0:0:0:0:
152,72,95744,2,0,P|108:96|80:152,1,92.0000017547608,8|0,1:0|1:0,0:0:0:0:
116,236,96119,38,0,B|168:280|228:252|248:224|248:224|240:276,1,184.000003509522,0|8,1:0|1:0,0:0:0:0:
328,328,96682,2,0,L|318:395,2,46.0000008773804,2|0|0,0:0|0:0|1:0,0:0:0:0:
404,244,97057,1,2,0:0:0:0:
408,252,97151,1,0,0:0:0:0:
412,260,97244,1,8,1:0:0:0:
288,228,97432,2,0,L|252:260,2,46.0000008773804,2|0|0,0:0|0:0|1:0,0:0:0:0:
340,128,97807,1,2,0:0:0:0:
348,124,97901,1,0,0:0:0:0:
356,120,97994,1,8,1:0:0:0:
228,144,98182,2,0,L|176:160,2,46.0000008773804,2|0|0,0:0|0:0|1:0,0:0:0:0:
104,108,98557,2,0,L|52:92,2,46.0000008773804,2|0|8,0:0|0:0|1:0,0:0:0:0:
136,212,98932,2,0,P|136:228|144:244,2,34.5000006580353
140,194,99119,6,0,P|182:242|168:355,1,184.000003509522,0|8,1:0|1:0,0:0:0:0:
68,308,99682,1,2,0:0:0:0:
204,340,99869,2,0,P|244:324|292:332,1,92.0000017547608,0|2,1:0|0:0,0:0:0:0:
400,360,100244,1,8,1:0:0:0:
368,252,100432,1,2,0:0:0:0:
408,148,100619,2,0,B|420:116|448:96|448:96|384:96|336:48,1,184.000003509522,0|8,1:0|1:0,0:0:0:0:
248,112,101182,1,2,0:0:0:0:
144,72,101369,2,0,P|96:72|56:96,1,92.0000017547608,0|2,1:0|1:2,0:0:0:0:
92,208,101744,2,0,P|140:208|180:184,1,92.0000017547608,8|2,1:0|1:2,0:0:0:0:
248,112,102119,5,4,1:0:0:0:
436,148,102494,2,0,P|480:240|360:312,1,240,8|0,0:1|0:0,0:0:0:0:
292,336,103244,2,0,P|244:328|200:340,1,80,8|0,0:1|0:0,0:0:0:0:
124,372,103619,1,0,0:0:0:0:
156,232,103901,1,0,0:0:0:0:
88,104,104182,1,2,0:0:0:0:
4,148,104369,1,2,0:0:0:0:
60,224,104557,1,2,0:0:0:0:
156,232,104744,1,8,0:1:0:0:
236,180,104932,1,0,0:0:0:0:
256,88,105119,6,0,B|296:60|360:72|360:72|380:120,1,160,2|8,0:0|0:1,0:0:0:0:
396,216,105682,2,0,P|336:280|268:272,1,160,2|2,0:0|0:0,0:0:0:0:
176,284,106244,2,0,P|140:276|88:288,1,80,8|0,0:1|0:0,0:0:0:0:
188,204,106619,2,0,P|224:212|276:200,1,80,2|0,0:0|0:0,0:0:0:0:
265,204,106901,1,0,0:0:0:0:
265,204,106994,1,8,0:1:0:0:
324,128,107182,1,0,0:0:0:0:
372,44,107369,2,0,L|464:56,1,80,2|0,0:0|0:0,0:0:0:0:
484,144,107744,2,0,L|392:132,1,80,8|0,0:1|0:0,0:0:0:0:
308,124,108119,37,4,1:0:0:0:
212,132,108307,2,0,L|188:92,2,40,0|0|2,0:0|0:0|0:0,0:0:0:0:
148,204,108682,2,0,L|103:188,2,40,0|0|2,0:0|0:0|0:0,0:0:0:0:
156,300,109057,2,0,L|112:316,2,40,0|0|2,0:0|0:0|0:0,0:0:0:0:
184,316,109338,1,0,0:0:0:0:
212,302,109431,1,0,0:0:0:0:
244,296,109525,1,0,0:0:0:0:
276,297,109619,1,2,0:0:0:0:
306,306,109713,1,0,0:0:0:0:
334,322,109806,1,0,0:0:0:0:
360,344,109900,1,0,0:0:0:0:
392,352,109994,1,2,0:0:0:0:
424,348,110088,1,0,0:0:0:0:
452,328,110182,1,0,0:0:0:0:
468,300,110276,1,0,0:0:0:0:
472,268,110369,5,2,0:0:0:0:
464,236,110463,1,0,0:0:0:0:
440,212,110557,1,0,0:0:0:0:
412,200,110651,1,0,0:0:0:0:
380,200,110744,1,2,0:0:0:0:
352,212,110838,1,0,0:0:0:0:
320,220,110932,1,2,0:0:0:0:
288,220,111026,1,2,0:0:0:0:
256,216,111119,38,0,P|176:176|164:108,1,160,2|0,0:0|0:0,0:0:0:0:
236,40,111682,2,0,P|316:80|328:148,1,160,2|0,0:0|0:0,0:0:0:0:
256,216,112244,2,0,B|208:224|208:224|144:216|144:216|96:224,1,160,2|0,0:0|0:0,0:0:0:0:
224,144,112807,2,0,L|280:120,2,40,0|0|2,0:0|0:0|0:0,0:0:0:0:
128,304,113182,22,0,L|80:320,2,26.6666666666667,0|0|0,1:0|1:0|1:0,0:0:0:0:
156,320,113369,2,0,L|220:300,1,40,0|0,1:0|1:0,0:0:0:0:
228,332,113557,2,0,L|292:312,1,40,0|0,1:0|1:0,0:0:0:0:
300,344,113744,2,0,L|364:324,1,40,0|0,3:0|3:0,0:0:0:0:
372,356,113932,2,0,L|436:336,1,40,0|0,3:0|3:0,0:0:0:0:
444,368,114119,5,4,1:0:0:0:
