osu file format v9

[General]
AudioFilename: 05 Golden House.mp3
AudioLeadIn: 0
PreviewTime: 19399
Countdown: 0
SampleSet: Soft
StackLeniency: 0.4
Mode: 0
LetterboxInBreaks: 1

[Editor]
Bookmarks: 34189,55875,85865
DistanceSpacing: 1.1
BeatDivisor: 4
GridSize: 8

[Metadata]
Title:Golden House
Artist:BMA stars
Creator:AoiX
Version:Spinboxer
Source:
Tags:jubeat ripple Spring festival spboxer3 _Kiva wmfchris Megurine Luka

[Difficulty]
HPDrainRate:7
CircleSize:4
OverallDifficulty:7
ApproachRate:7
SliderMultiplier:1.4
SliderTickRate:1

[Events]
//Background and Video events
0,0,"BG.jpg"
//Break Periods
2,33899,36950
//Storyboard Layer 0 (Background)
//Storyboard Layer 1 (Fail)
//Storyboard Layer 2 (Pass)
//Storyboard Layer 3 (Foreground)
//Storyboard Sound Samples
//Background Colour Transformations
3,100,163,162,255

[TimingPoints]
4638,461.290074575229,4,2,0,60,1,0
7636,-100,4,2,0,48,0,0
7867,-100,4,2,0,60,0,0
11326,-100,4,2,0,48,0,0
11557,-100,4,2,0,60,0,0
15017,-100,4,2,0,48,0,0
15247,-100,4,2,0,60,0,0
19399,-66.6666666666667,4,2,0,60,0,1
34160,-66.6666666666667,4,2,0,60,0,0
85825,-66.6666666666667,4,2,0,100,0,1
115347,-66.6666666666667,4,2,0,100,0,0
118115,-66.6666666666667,4,2,0,30,0,0

[Colours]
Combo1 : 255,128,0
Combo2 : 255,0,0
SliderBorder : 248,184,46

[HitObjects]
176,128,4638,2,0,B|160:72|64:64,2,105,0|0|2
256,240,5791,2,0,B|256:328,2,70
304,192,6483,2,0,B|328:152|328:152|368:152|400:120,2,105,0|2|0
160,192,7636,2,8,B|88:192,1,70
160,312,8328,6,0,B|192:336|192:336|256:336,2,105,0|0|2
56,224,9481,2,0,B|56:312,2,70
104,168,10173,2,0,B|120:128|160:104|160:104|128:104,2,105,0|2|0
240,152,11326,2,8,B|328:152,1,70
384,272,12018,6,0,B|384:304|352:304|352:304|288:304,1,105
192,304,12710,1,2
80,216,13171,2,0,B|8:216,2,70
128,168,13863,2,0,B|168:168|168:168|192:160|192:160|240:160,1,105,0|2
336,160,14555,1,0
256,48,15017,2,8,B|256:136,1,70
240,256,15708,6,0,B|200:312|128:304,2,105,0|0|2
256,112,16862,2,0,B|256:32,2,70
272,184,17554,2,0,B|312:240|384:232,2,105,0|2|0
336,152,18476,1,0
368,136,18592,1,0
400,128,18707,1,8
432,136,18822,1,0
464,152,18937,1,8
304,320,19399,6,0,B|224:232,1,104.999996870756,4|0
160,160,19860,2,0,B|128:96|72:96,1,104.999996870756,2|0
32,104,20206,2,0,B|103:108|131:59,1,104.999996870756,2|0
144,16,20552,2,0,B|104:75|132:124,1,104.999996870756,2|0
88,320,21244,6,0,B|232:320,1,104.999996870756
280,264,21705,2,0,B|424:264,1,104.999996870756,2|0
344,288,22051,2,0,B|468:216,1,104.999996870756,2|0
408,272,22397,2,2,B|500:161,1,104.999996870756
288,80,23089,6,0,B|168:80,2,104.999996870756,0|0|2
216,160,23781,2,0,B|153:195,1,52.4999984353781,0|2
200,288,24127,2,0,B|163:350,1,52.4999984353781,0|2
88,272,24473,1,0
64,168,24704,5,0
112,72,24934,1,2
88,176,25165,1,0
168,104,25396,5,0
104,192,25626,1,2
200,160,25857,1,2
112,224,26087,2,0,B|232:224,1,104.999996870756,0|2
376,88,26779,6,0,B|376:208,1,104.999996870756,4|0
304,272,27241,2,0,B|240:264|160:320,1,104.999996870756,2|0
208,240,27587,2,0,B|215:287|176:338,1,104.999996870756,2|0
128,336,27933,2,0,B|64:344|-16:288,1,104.999996870756,2|0
72,104,28625,6,0,B|168:40,1,104.999996870756
248,104,29086,2,0,B|304:96|352:136,1,104.999996870756,2|0
376,88,29432,2,0,B|354:140|296:162,1,104.999996870756,2|0
328,208,29778,2,2,B|293:163|303:101,1,104.999996870756
96,96,30470,6,0,B|72:168|72:168|72:232,2,104.999996870756,0|0|2
192,48,31162,2,0,B|248:48,1,52.4999984353781,0|2
336,104,31508,2,0,B|408:104,1,52.4999984353781,0|2
440,192,31854,2,0,B|440:224|408:240|408:240|352:240,1,104.999996870756
320,336,32315,5,2
224,296,32546,1,0
264,200,32776,1,0
264,336,33007,5,2
224,239,33237,1,2
320,200,33468,1,0
360,296,33699,1,2
256,192,37850,12,0,41079
216,192,41541,6,0,B|256:152|256:40,1,157.499995306134,4|0
254,95,42002,6,0,B|253:149|293:189,1,104.999996870756,2|0
368,264,42463,2,0,B|411:306|472:304,2,104.999996870756,0|0|2
160,304,43386,6,0,B|96:368,1,52.4999984353781
120,264,43617,2,0,B|64:288,1,52.4999984353781,2|0
128,208,43847,2,0,B|16:208,2,104.999996870756
472,32,44770,1,2
56,112,45231,6,0,B|104:112|104:112|144:128|144:128|216:128,1,157.499995306134
264,128,45692,2,0,B|400:128,1,104.999996870756
336,224,46154,2,0,B|448:224,2,104.999996870756,0|0|2
136,296,47076,6,0,B|87:268,1,52.4999984353781
136,296,47307,2,0,B|107:247,1,52.4999984353781,2|0
136,296,47537,6,0,B|136:232|136:232|157:217|176:216,2,104.999996870756,0|0|2
464,344,48460,1,2
376,152,48921,6,0,B|272:120,1,104.999996870756
176,88,49382,2,0,B|112:96|24:32,1,157.499995306134,2|0
72,62,49844,6,0,B|110:112|104:159,1,104.999996870756
96,264,50305,2,0,B|96:288|80:312|80:312|112:288|168:296,1,104.999996870756,2|0
232,280,50767,5,0
280,256,50882,1,0
336,264,50998,1,2
376,296,51113,1,0
336,264,51228,6,0,B|312:200|336:160,2,104.999996870756
48,40,52150,1,2
176,208,52612,6,0,B|248:136|352:144,1,157.499995306134
368,136,53073,2,0,B|425:132|480:53,1,104.999996870756,2|0
352,56,53534,2,0,B|304:56|304:56|280:48|280:48|208:48,2,104.999996870756,0|0|2
64,328,54457,5,0
88,328,54918,1,0
112,328,55379,1,2
256,176,55841,6,0,B|256:56,2,104.999996870756,0|0|6
328,256,56648,1,0
368,288,56763,2,0,B|456:304|480:240,1,104.999996870756,0|2
464,104,57225,1,0
368,144,57455,2,0,B|296:144,2,52.4999984353781
320,48,57917,1,2
224,88,58147,5,0
168,176,58378,1,0
216,144,58608,1,2
114,166,58839,1,0
168,176,59070,2,0,B|184:264|104:328|16:288,1,209.999993741512,2|0
137,275,59762,6,0,B|185:323|249:291,1,104.999996870756,4|6
416,296,60338,1,0
376,256,60454,2,0,B|440:232|440:232|488:160,1,104.999996870756,0|2
464,56,60915,2,0,B|409:147,1,104.999996870756
304,144,61376,2,0,B|272:136|256:122|256:122|240:136|200:144,1,104.999996870756
48,56,61837,2,0,B|104:144|104:144|104:200,1,157.499995306134,0|2
56,224,62299,2,0,B|104:200|104:200|160:200,2,104.999996870756,0|0|2
128,304,62991,2,8,B|256:304,1,104.999996870756
336,304,63452,1,0
280,216,63683,6,0,B|328:160|432:160,1,157.499995306134,4|0
365,167,64144,6,2,B|269:79,1,104.999996870756
184,96,64605,1,0
88,48,64836,1,0
136,136,65066,2,0,B|152:192|136:256,1,104.999996870756,2|4
192,328,65528,2,0,B|88:352,1,104.999996870756,4|0
422,351,65989,2,0,B|320:328,1,104.999996870756,2|0
256,240,66450,2,0,B|248:232|248:232|264:224|264:224|248:216|248:216|264:208|264:208|248:200|248:200|264:192|264:192|248:184|248:184|264:176|264:176|248:168|248:168|264:160|264:160|248:152|248:152|256:136,1,209.999993741512
64,56,67373,5,0
160,96,67604,1,2
120,192,67834,1,2
24,152,68065,1,0
448,56,68296,5,0
352,96,68526,1,2
392,192,68757,1,2
488,152,68987,1,0
256,320,69218,5,4
256,288,69679,1,4
256,256,70141,5,4
256,152,70371,1,8
256,48,70602,1,8
256,256,71063,6,0,B|320:256|360:184,1,104.999996870756
320,104,71525,2,0,B|456:104,1,104.999996870756,2|0
192,88,72216,2,0,B|56:88,1,104.999996870756
144,176,72678,2,0,B|96:200|88:272,1,104.999996870756,0|6
296,272,73369,5,0
272,320,73485,1,0
256,368,73600,1,0
240,320,73715,1,0
216,272,73831,1,2
368,96,74292,6,0,B|472:168,1,104.999996870756
336,168,74754,2,0,B|376:216|360:304,1,104.999996870756,6|0
280,344,75215,1,0
256,232,75446,1,0
232,344,75677,1,0
147,266,75908,6,0,B|136:216|175:169,1,104.999996870756
57,155,76369,2,0,B|144:96,1,104.999996870756,4|6
256,64,76829,2,0,B|360:64,2,104.999996870756
144,64,77521,1,2
256,88,77752,6,0,B|296:88|296:88|328:112|328:112|384:112,1,104.999996870756,8|8
152,160,78444,6,0,B|104:192|40:168,1,104.999996870756,4|0
144,240,78906,2,0,B|195:265|206:332,1,104.999996870756,8|0
216,208,79367,2,0,B|212:150|264:104|264:104|360:104,2,209.999993741512,0|8|0
216,320,80521,1,2
432,104,80981,5,8
432,104,81096,1,0
432,104,81211,2,0,B|320:104,1,104.999996870756,8|0
208,104,81673,2,0,B|136:104|96:80|96:80|120:128|112:192,2,209.999993741512,2|0|8
304,104,83057,6,0,B|376:104|416:80|416:80|392:128|400:192,1,209.999993741512,0|8
256,192,83979,12,4,85363
256,192,85825,6,0,B|208:168|208:168|120:168,1,104.999996870756,4|0
192,280,86286,2,0,B|136:280|80:352,1,104.999996870756,2|0
64,368,86632,2,0,B|111:333|111:277,1,104.999996870756,2|0
112,224,86979,2,0,B|112:169|64:134,1,104.999996870756,2|0
280,56,87670,6,0,B|232:56|232:56|216:64|216:64|160:64,1,104.999996870756
264,136,88131,2,0,B|304:184|376:160,1,104.999996870756,2|0
416,168,88478,2,0,B|357:146|307:203,1,104.999996870756,2|0
296,240,88824,2,2,B|317:297|272:335,1,104.999996870756
64,232,89515,6,0,B|64:192|64:192|56:152|56:152|56:88,2,104.999996870756,0|0|2
144,312,90207,2,0,B|175:256,1,52.4999984353781,0|2
264,328,90553,2,0,B|319:296,1,52.4999984353781,0|2
256,200,90900,2,0,B|400:200,1,104.999996870756,0|2
416,104,91360,5,2
312,64,91591,1,0
328,176,91822,1,0
374,53,92052,5,2
287,124,92283,1,2
392,168,92514,2,0,B|424:216|400:304,1,104.999996870756,0|2
64,288,93205,6,0,B|64:184,1,104.999996870756,4|0
72,64,93667,2,0,B|128:48|192:104,1,104.999996870756,2|0
208,128,94013,2,0,B|250:167|306:151,1,104.999996870756,2|0
248,152,94359,6,0,B|288:191|276:248,1,104.999996870756,2|0
56,328,95050,6,0,B|96:320|112:288|112:288|184:288,1,104.999996870756,4|0
264,288,95512,2,0,B|344:288|400:224,1,104.999996870756,2|0
321,298,95858,2,0,B|390:258|406:174,1,104.999996870756,2|0
376,280,96204,2,2,B|416:210|388:130,1,104.999996870756
200,64,96896,6,0,B|352:64,2,104.999996870756,4|0|2
96,112,97588,2,0,B|48:144,1,52.4999984353781,0|2
96,112,97934,2,0,B|32:112,1,52.4999984353781,0|2
96,112,98280,2,0,B|208:112,1,104.999996870756,0|2
312,136,98740,5,6
296,248,98971,1,0
184,224,99201,1,0
325,197,99432,5,6
256,104,99663,1,6
160,168,99894,1,0
232,264,100124,1,2
416,120,100585,6,0,B|416:264,2,104.999996870756,4|0|2
328,40,101277,1,0
328,40,101393,1,2
216,40,101623,1,0
216,40,101739,2,0,B|104:40,1,104.999996870756,2|0
56,264,102431,6,0,B|104:264|104:264|136:272|136:272|192:272,2,104.999996870756,0|0|2
144,192,103123,1,0
144,192,103239,1,2
256,192,103470,1,0
256,192,103585,2,2,B|408:192,1,104.999996870756
160,72,104277,6,0,B|96:72|56:120,2,104.999996870756,0|0|2
256,128,104968,1,0
256,128,105083,1,2
256,16,105314,1,0
256,16,105429,2,0,B|296:16|296:16|336:32|336:32|368:32,1,104.999996870756,2|0
432,120,105891,5,2
432,232,106121,1,2
320,120,106352,1,0
320,232,106583,1,0
202,164,106814,5,2
202,291,107044,1,2
76,164,107275,1,0
76,291,107506,1,2
144,56,107966,6,0,B|96:96|96:96|48:96,2,104.999996870756,4|0|2
256,56,108658,1,0
256,56,108773,1,2
344,136,109004,1,0
344,136,109120,2,0,B|456:136,1,104.999996870756,2|0
288,296,109812,6,0,B|352:296|384:368,2,104.999996870756,4|0|2
176,296,110504,1,0
176,296,110619,1,2
72,240,110850,1,0
72,240,110966,2,2,B|16:352,1,104.999996870756
120,120,111657,6,0,B|144:64|144:64|144:16,2,104.999996870756,4|0|2
208,192,112349,1,0
208,192,112463,1,2
320,152,112695,1,0
320,152,112809,2,0,B|440:152,1,104.999996870756,2|0
360,248,113270,5,2
256,296,113501,1,6
208,192,113732,1,0
320,152,113963,1,0
193,262,114193,5,6
248,128,114424,1,6
384,184,114655,1,0
328,312,114886,1,2
256,192,115347,12,0,118115
