osu file format v9

[General]
AudioFilename: 05 Golden House.mp3
AudioLeadIn: 0
PreviewTime: 19399
Countdown: 0
SampleSet: Normal
StackLeniency: 0.4
Mode: 0
LetterboxInBreaks: 1

[Editor]
Bookmarks: 34160,100586
DistanceSpacing: 0.8
BeatDivisor: 4
GridSize: 4

[Metadata]
Title:Golden House
Artist:BMA stars
Creator:AoiX
Version:Collab
Source:
Tags:jubeat ripple Spring festival spboxer3 _Kiva wmfchris Megurine Luka

[Difficulty]
HPDrainRate:7
CircleSize:5
OverallDifficulty:7
ApproachRate:8
SliderMultiplier:1.6
SliderTickRate:1

[Events]
//Background and Video events
0,0,"BG.jpg"
//Break Periods
//Storyboard Layer 0 (Background)
//Storyboard Layer 1 (Fail)
//Storyboard Layer 2 (Pass)
//Storyboard Layer 3 (Foreground)
//Storyboard Sound Samples
//Background Colour Transformations
3,100,163,162,255

[TimingPoints]
4638,461.290074575229,4,2,1,40,1,0
12018,-100,4,2,1,50,0,0
17554,-100,4,1,1,50,0,0
19399,-100,4,2,1,80,0,1
19514,-100,4,2,1,60,0,0
19860,-100,4,1,1,60,0,0
20091,-100,4,2,1,60,0,0
20783,-100,4,1,1,60,0,0
21244,-100,4,2,1,60,0,0
21705,-100,4,1,1,60,0,0
21936,-100,4,2,1,60,0,0
22628,-100,4,1,1,60,0,0
23089,-100,4,2,1,60,0,0
23550,-100,4,1,1,60,0,0
23781,-100,4,2,1,60,0,0
24473,-100,4,1,1,60,0,0
24934,-100,4,2,1,60,0,0
27241,-100,4,1,1,60,0,0
27471,-100,4,2,1,60,0,0
28163,-100,4,1,1,60,0,0
28625,-100,4,2,1,60,0,0
29086,-100,4,1,1,60,0,0
29317,-100,4,2,1,60,0,0
30008,-100,4,1,1,60,0,0
30470,-100,4,2,1,60,0,0
30931,-100,4,1,1,60,0,0
31162,-100,4,2,1,60,0,0
31854,-100,4,1,1,60,0,0
32315,-100,4,2,1,60,0,0
34160,-100,4,2,0,30,0,0
41541,-100,4,2,2,40,0,0
55841,-100,4,2,2,50,0,0
67373,-100,4,2,0,40,0,0
68296,-100,4,2,0,50,0,0
69218,-100,4,2,0,60,0,0
71063,-100,4,2,1,70,0,0
85825,-100,4,2,1,100,0,1
85940,-100,4,2,1,80,0,0
86286,-100,4,1,1,80,0,0
86386,-100,4,2,1,80,0,0
87208,-100,4,1,1,80,0,0
87308,-100,4,2,1,80,0,0
88131,-100,4,1,1,80,0,0
88231,-100,4,2,1,80,0,0
89054,-100,4,1,1,80,0,0
89154,-100,4,2,1,80,0,0
89976,-100,4,1,1,80,0,0
90076,-100,4,2,1,80,0,0
90899,-100,4,1,1,80,0,0
90999,-100,4,2,1,80,0,0
93666,-100,4,1,1,80,0,0
93766,-100,4,2,1,80,0,0
94589,-100,4,1,1,80,0,0
94689,-100,4,2,1,80,0,0
95512,-100,4,1,1,80,0,0
95612,-100,4,2,1,80,0,0
96434,-100,4,1,1,80,0,0
96534,-100,4,2,1,80,0,0
97357,-100,4,1,1,80,0,0
97457,-100,4,2,1,80,0,0
98279,-100,4,1,1,80,0,0
98379,-100,4,2,1,80,0,0
100586,-100,4,2,1,100,0,1
100701,-100,4,2,1,80,0,0
101047,-100,4,1,1,80,0,0
101147,-100,4,2,1,80,0,0
101970,-100,4,1,1,80,0,0
102431,-100,4,2,1,80,0,0
102892,-100,4,1,1,80,0,0
102992,-100,4,2,1,80,0,0
103815,-100,4,1,1,80,0,0
104276,-100,4,2,1,80,0,0
104737,-100,4,1,1,80,0,0
104853,-100,4,2,1,80,0,0
105660,-100,4,1,1,80,0,0
106121,-100,4,2,1,80,0,0
108428,-100,4,1,1,80,0,0
108528,-100,4,2,1,80,0,0
109350,-100,4,1,1,80,0,0
109812,-100,4,2,1,80,0,0
110273,-100,4,1,1,80,0,0
110388,-100,4,2,1,80,0,0
111196,-100,4,1,1,80,0,0
111657,-100,4,2,1,80,0,0
112118,-100,4,1,1,80,0,0
112218,-100,4,2,1,80,0,0
113041,-100,4,1,1,80,0,0
113502,-100,4,2,1,80,0,0
115347,-100,4,2,1,20,0,0
118115,-100,4,2,1,5,0,0

[Colours]
Combo1 : 255,128,0
Combo2 : 255,0,0
SliderBorder : 248,184,46

[HitObjects]
128,128,4638,6,0,B|216:120,1,80,4|0
272,168,5099,1,8
192,240,5329,1,0
192,240,5445,1,0
192,240,5560,1,0
312,256,5791,1,0
288,336,6021,1,8
312,256,6252,1,0
360,192,6483,6,0,B|368:144|368:144|376:120|400:96,1,80
472,232,6944,2,0,B|464:280|464:280|456:304|432:328,1,80
408,320,7290,1,0
368,328,7405,2,0,B|312:336|272:336,2,80,0|2|2
352,120,8328,6,0,B|312:200,1,80
280,264,8789,1,0
264,128,9019,1,0
264,128,9135,1,0
264,128,9250,2,0,B|224:216,1,80
160,328,9712,2,0,B|208:240,1,80,8|0
144,200,10173,6,0,B|136:160,1,40
272,256,10519,2,0,B|328:248,1,40
248,152,10865,1,0
248,152,10980,1,0
248,152,11096,1,0
96,120,11326,1,10
372,272,11557,1,10
464,72,12018,5,0
432,80,12133,1,0
400,88,12249,1,0
368,96,12364,1,0
336,104,12479,1,0
240,184,12710,1,0
272,176,12825,1,0
400,224,13056,1,0
368,232,13171,1,0
336,240,13287,1,0
304,248,13402,2,0,B|296:280|248:280|248:280|280:288|280:264|280:296,1,80
80,320,13863,5,0
112,304,13979,1,0
144,288,14094,1,0
176,272,14209,1,0
208,256,14325,1,0
368,136,14555,1,0
360,168,14671,1,0
352,200,14786,1,0
424,320,15017,1,0
400,296,15132,1,0
376,272,15247,1,8
304,256,15708,5,0
280,272,15823,1,0
256,288,15938,1,0
232,304,16054,1,0
208,320,16169,1,0
176,160,16400,1,2
136,168,16516,1,0
84,228,16746,5,2
120,212,16862,1,0
48,288,17092,2,0,B|104:256|176:288,1,120
192,304,17554,1,0
312,280,17784,1,0
416,216,18015,1,0
480,96,18246,1,0
376,64,18476,5,0
360,96,18592,1,0
336,120,18707,1,8
312,136,18822,1,0
288,152,18937,1,0
256,168,19053,1,0
224,176,19168,1,8
192,176,19283,1,0
160,168,19399,6,0,B|116:152|128:64,1,80,4|2
156,96,19860,6,0,B|204:56|196:8,1,80,0|2
228,36,20206,2,0,B|268:56|332:20,1,80,0|2
336,32,20552,2,0,B|384:36|392:88,1,80
288,136,21013,1,0
440,128,21244,6,0,B|384:136|384:200,1,80,4|2
412,196,21705,6,0,B|444:236|412:292,1,80,0|2
396,288,22051,2,0,B|356:272|316:304,1,80,0|2
296,328,22397,2,0,B|256:352|216:328,1,80
312,228,22858,1,0
112,160,23089,6,0,B|160:224,1,80,4|2
96,232,23550,6,0,B|152:312,1,80,0|2
141,297,23896,2,0,B|176:264|224:288,1,80,0|2
215,284,24242,2,0,B|256:240|320:280,1,80,0|0
112,160,24704,1,0
272,88,24934,5,0
336,144,25165,1,2
248,176,25396,1,8
360,56,25626,1,2
312,232,25857,1,0
424,124,26087,1,2
396,216,26318,1,12
164,92,26779,5,4
56,136,27010,2,0,B|104:132|148:184,1,80,0|0
222,214,27471,1,0
222,214,27587,2,0,B|175:214|142:252,1,80,0|2
293,186,27933,2,0,B|248:181|212:226,1,80
364,152,28394,1,0
180,144,28625,6,0,B|192:104|252:88,1,80,4|2
396,80,29086,2,0,B|392:132|352:160,1,80,0|2
336,168,29432,2,0,B|292:180|268:216,1,80
252,236,29778,2,0,B|188:224|192:208|192:208|172:188,1,80,0|0
300,296,30239,1,0
180,144,30470,6,0,B|152:108|92:116,1,80,4|0
52,220,30931,6,0,B|80:184|140:192,1,80,0|2
152,204,31277,2,0,B|196:224|248:204,1,80,0|2
252,236,31623,2,0,B|304:240|332:268,1,80,0|0
196,332,32084,1,0
292,316,32315,5,0
148,244,32546,1,2
380,236,32776,1,8
168,148,33007,1,2
392,112,33237,1,8
256,72,33468,1,10
344,24,33699,1,12
152,104,34160,5,0
112,192,34391,1,0
152,280,34621,1,2
360,280,35083,5,0
400,192,35314,1,0
360,104,35544,1,2
256,228,36005,5,0
256,108,36351,1,0
256,108,36467,1,2
180,132,36697,1,0
180,212,36928,2,0,B|164:256|124:264,2,80,0|0|2
256,192,37850,12,0,41079
256,192,41541,6,0,B|280:152|280:152|320:152|344:120,1,120,4|0
288,80,42002,2,0,B|320:40|368:56,1,80,2|0
392,168,42463,2,0,B|424:136|408:88,1,80
344,120,42925,2,0,B|312:152|328:200,1,80,2|0
256,264,43386,5,0
232,280,43501,1,0
200,288,43617,1,0
168,296,43732,1,0
136,296,43847,2,0,B|104:288|88:248|88:248|88:264,2,80,2|0|0
152,232,44770,1,2
320,288,45231,6,0,B|360:288|384:248|384:248|424:248,1,120
464,192,45692,2,0,B|416:176|416:136,1,80,2|0
352,152,46154,2,0,B|312:184|320:224,1,80
352,280,46615,2,0,B|392:256|384:208,1,80,2|0
304,96,47076,5,0
280,80,47192,1,0
248,72,47307,1,0
216,72,47422,1,0
184,80,47537,2,0,B|152:88|136:128|136:128|128:120,2,80,2|0|0
200,144,48460,2,0,B|208:192|176:216,1,80,2|4
152,232,48806,1,0
128,240,48921,5,4
256,336,49152,1,0
384,240,49383,2,0,B|400:192|400:192|384:168|384:168|384:128,1,120,2|0
400,64,49844,2,0,B|440:80|448:128,1,80
400,304,50305,2,0,B|448:288|448:240,1,80,2|0
336,192,50767,5,0
304,200,50882,1,0
280,216,50997,1,0
264,240,51112,1,0
256,272,51228,2,0,B|248:320|200:328,2,80,2|0|0
192,264,52150,1,2
192,264,52612,6,0,B|152:216|96:192,1,120
144,136,53073,2,0,B|104:112|64:128,1,80,2|0
64,256,53534,2,0,B|24:240|24:192,2,80,0|0|2
216,304,54457,6,0,B|280:256,1,80,2|0
256,184,54918,2,0,B|272:104,1,80,2|0
208,56,55379,1,2
168,56,55495,1,0
128,64,55610,1,0
88,80,55725,1,0
56,104,55841,5,0
64,224,56071,1,0
144,312,56302,2,0,B|208:320|256:280,1,120,4|0
280,248,56763,2,0,B|240:232|224:192,1,80,8|0
224,112,57225,1,0
288,152,57455,1,0
288,72,57686,1,8
352,112,57917,1,0
360,32,58147,6,0,B|408:8,2,40
352,112,58608,1,8
352,192,58839,1,0
352,272,59070,2,0,B|296:312|240:272,1,120
208,256,59531,5,8
256,144,59762,1,4
192,40,59992,2,0,B|248:80|304:56,1,120,4|0
344,40,60454,2,0,B|384:24|416:32|416:32|416:24,1,80,8|0
392,104,60915,2,0,B|408:144|448:160,1,80
368,192,61376,2,0,B|408:208|424:248,1,80,8|0
360,264,61837,2,0,B|376:328|432:336|432:336|424:344,1,120
384,352,62299,2,0,B|336:360|312:328,2,80,8|0|0
448,304,62991,1,8
464,224,63221,1,8
456,144,63452,5,0
456,144,63567,1,0
456,144,63683,2,0,B|416:96|352:88,1,120,4|0
368,128,64144,2,0,B|336:160|296:144,1,80,8|0
216,144,64605,1,0
144,104,64836,1,0
184,32,65066,1,8
256,72,65297,1,4
296,144,65528,5,4
288,184,65643,1,0
264,216,65758,1,0
232,248,65874,1,0
200,264,65989,2,0,B|160:296|128:272,1,80,8|0
152,192,66450,2,0,B|112:192|88:152,2,80,0|0|8
288,247,67373,5,0
312,160,67604,1,2
224,136,67834,1,0
201,224,68065,1,2
233,279,68296,5,0
169,168,68526,1,2
280,104,68757,1,0
344,215,68987,1,2
32,192,69218,6,0,B|112:192,1,80,2|0
480,192,69679,2,0,B|400:192,1,80,2|0
256,192,70141,2,0,B|256:168,8,20,2|0|0|0|0|0|0|0|0
360,72,71063,6,0,B|432:96|432:168|384:192|384:192|432:208|432:296|360:312,1,320,4|2
320,240,72216,1,0
256,288,72447,1,8
192,240,72678,1,0
256,192,72908,6,0,B|232:160|232:160|232:120,2,80,4|0|8
256,216,73485,1,0
256,240,73600,1,8
256,264,73716,1,0
256,288,73831,2,0,B|280:324|324:320,2,80,10|0|8
152,312,74754,6,0,B|80:288|80:216|128:192|128:192|80:176|80:88|152:72,1,320,4|2
192,144,75907,1,0
256,96,76138,1,8
320,144,76369,1,4
256,192,76599,6,0,B|280:224|280:224|280:264,2,80,4|0|8
256,168,77176,1,0
256,144,77291,1,8
256,120,77407,1,0
256,96,77521,2,0,B|232:60|188:64,1,80,8|0
124,16,77983,5,8
188,64,78213,1,0
256,96,78444,2,0,B|344:104|400:40,1,160,4|8
296,160,79366,2,0,B|384:184|448:128,1,160,2|8
328,232,80289,2,0,B|408:280|480:232,1,160,0|8
480,152,80981,1,8
408,184,81212,2,0,B|432:280|360:328,1,160,8|10
256,208,82134,5,2
256,192,83057,1,2
256,176,83979,1,2
256,192,84095,12,0,85363
200,40,85825,6,0,B|240:56|256:96,1,80,4|0
264,176,86286,1,0
328,128,86516,1,0
328,128,86632,1,0
328,48,86862,1,0
328,48,86978,2,0,B|360:80|400:80,1,80,0|0
336,224,87670,6,0,B|384:232|400:192,1,80
336,144,88131,1,0
264,184,88362,1,0
264,184,88477,1,0
264,264,88708,1,0
264,264,88823,2,0,B|248:304|256:344,1,80,0|0
112,264,89515,6,0,B|120:312|168:320,1,80
192,248,89976,2,0,B|184:200|136:192,1,80,0|0
104,184,90322,1,0
56,120,90553,1,0
96,112,90668,2,0,B|136:112|160:72,1,80,0|0
240,56,91129,1,0
240,56,91360,5,8
356,88,91591,1,0
360,208,91821,1,8
248,240,92052,1,0
168,152,92283,2,0,B|248:160,2,80,0|8|8
440,328,93205,6,0,B|424:288|448:248,1,80,4|0
496,192,93666,2,0,B|448:200|424:168,1,80,0|0
384,160,94012,2,0,B|401:114|440:109,1,80
472,80,94358,2,0,B|502:117|487:154,1,80,0|0
360,56,95050,6,0,B|312:56|280:72,1,80,4|0
224,128,95512,2,0,B|239:91|208:53,1,80,0|0
177,83,95858,2,0,B|137:87|120:133,1,80
160,142,96204,2,0,B|183:173|231:165,1,80,0|0
112,272,96896,5,4
176,320,97126,1,0
256,312,97357,1,0
336,320,97587,1,0
336,320,97703,1,0
400,272,97933,1,0
400,272,98049,1,0
416,192,98279,1,0
400,112,98510,1,0
332,72,98741,5,8
173,104,98971,1,0
316,171,99202,1,8
239,28,99433,1,0
221,188,99663,2,0,B|227:228|197:264,2,80,0|8|8
384,120,100586,6,0,B|376:184|416:224,1,80,4|2
376,224,101047,2,0,B|328:264|336:312,1,80,0|2
320,328,101393,1,0
288,352,101508,1,0
248,360,101624,1,0
208,352,101739,2,0,B|160:352|152:296,1,80
376,224,102200,1,0
72,280,102431,6,0,B|128:272|128:208,1,80,4|2
112,200,102892,2,0,B|80:160|112:104,1,80,0|2
144,120,103238,1,0
184,112,103354,1,0
216,88,103469,1,0
232,56,103584,2,0,B|272:32|312:56,1,80
112,200,104045,1,0
400,224,104276,6,0,B|352:160,1,80,4|2
416,152,104737,2,0,B|360:72,1,80,0|2
371,87,105083,2,0,B|336:120|288:96,1,80,0|2
228,117,105429,2,0,B|259:141|300:97,1,80,0|0
400,224,105891,1,0
240,296,106121,5,0
88,260,106352,1,2
264,208,106583,1,8
116,168,106813,1,8
152,328,107044,1,2
200,152,107274,1,2
152,328,107505,1,8
348,292,107966,5,4
456,248,108197,2,0,B|408:252|364:200,1,80,0|0
290,170,108658,1,0
290,170,108774,2,0,B|337:170|370:132,1,80,0|2
430,113,109120,2,0,B|403:147|358:142,1,80
331,67,109581,1,0
332,240,109812,6,0,B|320:280|260:296,1,80,4|2
116,304,110273,2,0,B|120:252|160:224,1,80,0|2
188,230,110619,1,0
227,221,110734,1,0
258,195,110850,1,0
260,148,110965,2,0,B|324:160|320:176|320:176|340:196,1,80,0|0
212,88,111426,1,0
332,240,111657,6,0,B|360:276|420:268,1,80,4|0
460,164,112118,2,0,B|432:200|372:192,1,80,0|2
360,180,112464,2,0,B|320:160|264:180,1,80,0|2
260,148,112810,2,0,B|208:144|180:116,1,80,0|0
316,52,113271,1,0
54,253,113502,6,0,B|120:222|118:145|118:145|119:195|227:197,1,240,4|0
259,147,114425,1,8
388,173,114655,1,8
480,272,114886,1,8
256,192,115347,12,0,118115
