osu file format v14

[General]
AudioFilename: dayxday.mp3
AudioLeadIn: 0
PreviewTime: 52750
Countdown: 0
SampleSet: Soft
StackLeniency: 0.7
Mode: 0
LetterboxInBreaks: 0
WidescreenStoryboard: 1

[Editor]
DistanceSpacing: 1
BeatDivisor: 4
GridSize: 4
TimelineZoom: 1

[Metadata]
Title:DAYxDAY (TV Size)
TitleUnicode:DAY☓DAY(TV Size)
Artist:BLUE ENCOUNT
ArtistUnicode:BLUE ENCOUNT
Creator:Atsuro
Version:Normal
Source:銀魂゜
Tags:Bandai Namco Pictures Opening Gintama゜(2015)
BeatmapID:680653
BeatmapSetID:303757

[Difficulty]
HPDrainRate:4
CircleSize:3
OverallDifficulty:4
ApproachRate:5
SliderMultiplier:1.25
SliderTickRate:1

[Events]
//Background and Video events
Video,90,"vid.avi"
0,0,"bg.jpeg",0,0
//Break Periods
2,7017,8104
//Storyboard Layer 0 (Background)
//Storyboard Layer 1 (Fail)
//Storyboard Layer 2 (Pass)
//Storyboard Layer 3 (Foreground)
//Storyboard Sound Samples

[TimingPoints]
600,310.880829015544,4,2,1,65,1,0
20496,-100,4,2,1,50,0,0
47853,-100,4,2,1,65,0,0
52827,-100,4,2,1,70,0,1
72413,-100,4,2,1,70,0,0
72724,-100,4,2,1,70,0,1
86403,-100,4,2,1,70,0,0
87024,-100,4,2,1,40,0,0
87335,-100,4,2,1,25,0,0

[Colours]
Combo1 : 18,124,255
Combo2 : 180,202,214

[HitObjects]
28,84,600,6,0,P|88:68|152:84,1,125,4|0,0:1|0:0,0:0:0:0:
235,167,1221,2,0,P|295:183|356:170,1,125,4|0,0:1|0:0,0:0:0:0:
444,80,1843,2,0,L|480:199,1,125,4|0,0:1|0:0,0:0:0:0:
392,289,2465,2,0,L|356:170,1,125,4|0,0:1|0:0,0:0:0:0:
316,52,3087,5,4,0:1:0:0:
256,164,3397,1,2,0:0:0:0:
196,52,3708,2,0,P|120:52|72:72,1,125,2|8,0:0|0:0,0:0:0:0:
36,188,4330,2,0,B|72:256|72:256|144:276|174:210,1,187.5,8|8,0:0|0:0,0:0:0:0:
192,164,4952,1,0,0:0:0:0:
256,192,5030,12,0,6817,0:0:0:0:
136,240,9304,6,0,L|64:272,2,62.5,8|0|0,0:0|0:0|0:0,0:0:0:0:
200,240,9770,2,0,L|272:272,2,62.5,8|8|8,0:0|0:0|0:0,0:0:0:0:
168,120,10392,6,0,P|216:68|272:64,1,125,4|0,0:0|0:0,0:0:0:0:
328,76,10859,2,0,L|385:137,1,62.5,8|0,0:0|0:0,0:0:0:0:
400,176,11169,2,0,L|374:298,1,125,2|8,0:0|0:0,0:0:0:0:
256,340,11791,2,0,P|188:296|164:208,1,125,2|8,0:0|0:0,0:0:0:0:
100,152,12413,2,0,L|44:204,2,62.5,2|2|8,0:0|0:0|0:0,0:0:0:0:
144,108,12879,6,0,B|236:60|236:148|324:108,1,187.5,4|8,0:0|0:0,0:0:0:0:
424,36,13656,2,0,L|464:100,1,62.5,2|2,0:0|0:0,0:0:0:0:
472,148,13967,2,0,P|465:209|420:251,1,125,8|2,0:0|0:0,0:0:0:0:
300,284,14589,1,8,0:0:0:0:
180,256,14900,2,0,P|135:214|127:153,1,125,2|8,0:0|0:0,0:0:0:0:
148,96,15366,6,0,L|284:72,1,125,4|0,0:0|0:0,0:0:0:0:
320,116,15833,2,0,L|388:104,1,62.5,8|0,0:0|0:0,0:0:0:0:
444,112,16144,2,0,P|460:178|445:233,1,125,2|8,0:0|0:0,0:0:0:0:
348,312,16765,2,0,P|292:272|228:248,1,125,2|8,0:0|0:0,0:0:0:0:
116,272,17387,2,0,L|56:208,1,62.5,2|2,0:0|0:0,0:0:0:0:
72,164,17698,2,0,L|114:118,1,62.5,8|0,0:0|0:0,0:0:0:0:
160,76,18009,6,0,P|248:48|340:80,1,187.5,12|12,0:0|0:0,0:0:0:0:
388,256,18941,1,12,0:0:0:0:
388,256,19097,2,0,P|344:296|268:320,1,125,12|12,0:0|0:0,0:0:0:0:
228,318,19563,2,0,P|170:297|124:256,1,125,12|8,0:0|0:0,0:0:0:0:
56,148,20185,1,2,0:0:0:0:
120,40,20496,6,0,L|256:60,1,125,4|8,0:0|0:0,0:0:0:0:
284,104,20962,1,0,0:0:0:0:
328,148,21118,2,0,L|464:168,1,125,2|8,0:0|0:0,0:0:0:0:
496,284,21739,2,0,L|420:272,1,62.5,2|0,0:0|0:0,0:0:0:0:
376,292,22050,2,0,P|320:324|260:312,1,125,8|2,0:0|0:0,0:0:0:0:
148,268,22672,1,8,0:0:0:0:
64,176,22983,6,0,B|40:116|40:116|64:60,1,125,2|8,0:0|0:0,0:0:0:0:
116,28,23449,2,0,L|244:28,1,125,2|2,0:0|0:0,0:0:0:0:
304,28,23916,1,8,0:0:0:0:
364,137,24226,2,0,P|304:153|244:136,1,125,2|8,0:0|0:0,0:0:0:0:
304,28,24848,2,0,L|377:29,2,62.5,2|2|8,0:0|0:0|0:0,0:0:0:0:
184,66,25470,6,0,P|133:114|95:177,1,125,2|8,0:0|0:0,0:0:0:0:
69,212,25936,1,0,0:0:0:0:
101,265,26092,2,0,P|149:316|212:354,1,125,2|8,0:0|0:0,0:0:0:0:
318,363,26713,2,0,P|337:295|317:243,1,125,2|8,0:0|0:0,0:0:0:0:
268,208,27180,1,0,0:0:0:0:
214,176,27335,2,0,P|195:108|215:56,1,125,2|8,0:0|0:0,0:0:0:0:
328,9,27957,6,0,L|415:118,1,125,2|8,0:0|0:0,0:0:0:0:
441,158,28423,2,0,P|460:216|440:274,1,125,2|2,0:0|0:0,0:0:0:0:
335,342,29045,1,0,0:0:0:0:
335,342,29201,2,0,L|286:302,1,62.5,2|2,0:0|0:0,0:0:0:0:
184,229,29667,1,12,0:0:0:0:
82,302,29978,2,0,L|33:341,2,62.5,8|8|8,0:0|0:0|0:0,0:0:0:0:
98,241,30444,6,0,P|115:161|105:112,1,125,4|8,0:0|0:0,0:0:0:0:
63,74,30910,1,0,0:0:0:0:
114,39,31066,2,0,L|243:39,1,125,2|8,0:0|0:0,0:0:0:0:
364,38,31688,2,0,P|394:51|419:75,1,62.5,2|0,0:0|0:0,0:0:0:0:
443,126,31998,2,0,L|445:271,1,125,8|2,0:0|0:0,0:0:0:0:
378,357,32620,2,0,L|319:313,1,62.5,8|0,0:0|0:0,0:0:0:0:
276,283,32931,6,0,P|209:294|152:280,1,125,2|8,0:0|0:0,0:0:0:0:
95,258,33397,2,0,L|57:112,1,125,2|2,0:0|0:0,0:0:0:0:
47,76,33864,1,8,0:0:0:0:
160,22,34175,2,0,P|233:33|279:72,1,125,2|8,0:0|0:0,0:0:0:0:
303,185,34796,2,0,L|214:185,2,62.5,2|2|8,0:0|0:0|0:0,0:0:0:0:
428,188,35418,6,0,P|407:269|374:308,1,125,4|8,0:0|0:0,0:0:0:0:
326,329,35884,1,0,0:0:0:0:
265,346,36040,2,0,L|128:347,1,125,2|8,0:0|0:0,0:0:0:0:
24,300,36662,2,0,L|56:163,1,125,2|8,0:0|0:0,0:0:0:0:
68,120,37128,1,0,0:0:0:0:
84,60,37283,2,0,P|144:71|195:107,1,125,2|8,0:0|0:0,0:0:0:0:
316,144,37905,6,0,P|362:111|435:97,1,125,2|8,0:0|0:0,0:0:0:0:
484,208,38527,2,0,L|445:326,1,125,2|8,0:0|0:0,0:0:0:0:
324,360,39149,1,2,0:0:0:0:
204,328,39460,2,0,L|165:209,2,125,12|2|0,0:0|0:0|0:0,0:0:0:0:
324,360,40392,6,0,L|324:276,1,62.5,6|2,0:0|0:0,0:0:0:0:
256,124,41014,2,0,L|256:186,1,62.5,2|2,0:0|0:0,0:0:0:0:
184,360,41636,2,0,L|184:276,1,62.5,2|2,0:0|0:0,0:0:0:0:
120,119,42258,2,0,L|120:181,1,62.5,2|2,0:0|0:0,0:0:0:0:
52,356,42879,6,0,L|118:310,1,62.5,6|2,0:0|0:0,0:0:0:0:
171,145,43501,2,0,L|105:191,1,62.5,2|2,0:0|0:0,0:0:0:0:
260,308,44123,2,0,L|326:262,1,62.5,2|2,0:0|0:0,0:0:0:0:
380,96,44745,2,0,L|314:142,2,62.5,2|2|8,0:0|0:0|0:0,0:0:0:0:
487,35,45366,6,0,P|504:109|489:153,1,125,4|8,0:0|0:0,0:0:0:0:
452,204,45833,1,0,0:0:0:0:
400,236,45988,2,0,B|337:257|337:209|278:236,1,125,2|8,0:0|0:0,0:0:0:0:
216,344,46610,2,0,L|278:344,2,62.5,2|0|8,0:0|0:0|0:0,0:0:0:0:
152,344,47076,1,0,0:0:0:0:
88,344,47232,2,0,P|56:284|76:200,1,125,2|8,0:0|0:0,0:0:0:0:
128,124,47853,5,4,0:0:0:0:
229,50,48164,1,8,0:0:0:0:
330,123,48475,1,8,0:0:0:0:
291,242,48786,1,8,0:0:0:0:
166,242,49097,2,0,L|29:242,1,125,8|8,0:0|0:0,0:0:0:0:
116,342,49719,2,0,L|241:342,1,125,8|8,0:0|0:0,0:0:0:0:
363,314,50340,6,0,P|397:251|401:185,1,125,6|8,0:0|0:0,0:0:0:0:
386,138,50807,1,2,0:0:0:0:
348,88,50962,2,0,L|216:88,1,125,6|8,0:0|0:0,0:0:0:0:
185,138,51429,1,2,0:0:0:0:
169,199,51584,2,0,P|177:260|208:314,2,125,6|8|12,0:0|0:0|0:0,0:0:0:0:
370,50,52827,6,0,L|443:155,1,125,4|8,0:0|0:0,0:0:0:0:
402,271,53449,2,0,L|329:166,1,125,2|8,0:0|0:0,0:0:0:0:
256,68,54071,1,2,0:0:0:0:
140,112,54382,1,8,0:0:0:0:
200,220,54693,1,2,0:0:0:0:
84,264,55004,1,8,0:0:0:0:
160,360,55315,6,0,P|244:344|304:296,1,125,4|8,0:0|0:0,0:0:0:0:
316,276,55781,1,0,0:0:0:0:
332,216,55936,2,0,L|332:72,1,125,2|8,0:0|0:0,0:0:0:0:
220,32,56558,2,0,P|136:48|76:96,1,125,2|8,0:0|0:0,0:0:0:0:
64,116,57024,1,0,0:0:0:0:
48,176,57180,2,0,L|48:320,1,125,2|8,0:0|0:0,0:0:0:0:
147,224,57802,6,0,P|207:208|267:223,1,125,4|8,0:0|0:0,0:0:0:0:
344,324,58423,2,0,P|403:339|463:324,1,125,2|8,0:0|0:0,0:0:0:0:
488,200,59045,1,2,0:0:0:0:
412,100,59356,1,8,0:0:0:0:
336,200,59667,1,2,0:0:0:0:
264,100,59978,1,8,0:0:0:0:
164,28,60289,6,0,P|96:24|32:64,1,125,4|8,0:0|0:0,0:0:0:0:
124,148,60910,1,2,0:0:0:0:
48,248,61221,1,8,0:0:0:0:
128,344,61532,2,0,P|192:356|252:344,1,125,2|8,0:0|0:0,0:0:0:0:
372,376,62154,2,0,P|414:326|434:268,1,125,2|8,0:0|0:0,0:0:0:0:
456,148,62776,5,4,0:0:0:0:
376,52,63087,1,8,0:0:0:0:
264,108,63397,2,0,P|204:128|136:100,1,125,2|8,0:0|0:0,0:0:0:0:
108,60,63864,1,0,0:0:0:0:
64,104,64019,2,0,P|52:164|64:232,1,125,2|8,0:0|0:0,0:0:0:0:
120,336,64641,2,0,L|264:316,1,125,2|8,0:0|0:0,0:0:0:0:
272,264,65107,1,0,0:0:0:0:
304,212,65263,6,0,L|448:192,1,125,4|8,0:0|0:0,0:0:0:0:
504,96,65884,1,2,0:0:0:0:
416,8,66195,1,8,0:0:0:0:
332,100,66506,2,0,P|268:120|212:100,1,125,2|8,0:0|0:0,0:0:0:0:
116,28,67128,2,0,P|76:80|56:140,1,125,2|8,0:0|0:0,0:0:0:0:
48,196,67594,1,0,0:0:0:0:
80,248,67750,6,0,B|136:284|136:284|204:284,1,125,4|8,0:0|0:0,0:0:0:0:
320,284,68372,2,0,B|378:284|378:284|434:248,1,125,2|8,0:0|0:0,0:0:0:0:
480,132,68993,1,2,0:0:0:0:
384,52,69304,1,8,0:0:0:0:
284,132,69615,2,0,P|216:120|168:68,1,125,2|8,0:0|0:0,0:0:0:0:
72,12,70237,6,0,P|32:68|35:139,1,125,4|8,0:0|0:0,0:0:0:0:
56,180,70703,1,0,0:0:0:0:
100,224,70859,2,0,B|163:245|163:197|222:224,1,125,2|8,0:0|0:0,0:0:0:0:
336,276,71480,2,0,P|375:219|372:148,1,125,2|8,0:0|0:0,0:0:0:0:
352,108,71947,1,0,0:0:0:0:
308,64,72102,2,0,B|245:43|245:90|186:64,1,125,8|2,0:0|0:0,0:0:0:0:
64,40,72724,6,0,L|40:164,1,125,4|8,0:0|0:0,0:0:0:0:
112,264,73346,2,0,L|136:140,1,125,2|8,0:0|0:0,0:0:0:0:
196,32,73967,1,2,0:0:0:0:
316,60,74278,1,8,0:0:0:0:
240,160,74589,1,2,0:0:0:0:
360,188,74900,1,8,0:0:0:0:
416,300,75211,6,0,P|370:354|307:365,1,125,4|8,0:0|0:0,0:0:0:0:
256,368,75677,1,0,0:0:0:0:
191,366,75833,2,0,P|132:349|96:300,1,125,2|8,0:0|0:0,0:0:0:0:
88,176,76454,2,0,L|208:112,1,125,2|8,0:0|0:0,0:0:0:0:
256,88,76921,1,0,0:0:0:0:
313,117,77076,2,0,L|424:176,1,125,2|8,0:0|0:0,0:0:0:0:
476,292,77698,6,0,P|424:328|356:328,1,125,4|8,0:0|0:0,0:0:0:0:
264,252,78320,2,0,P|212:216|144:216,1,125,2|8,0:0|0:0,0:0:0:0:
52,288,78941,1,2,0:0:0:0:
48,164,79252,1,8,0:0:0:0:
148,92,79563,2,0,P|208:76|272:96,1,125,2|8,0:0|0:0,0:0:0:0:
372,160,80185,6,0,P|384:222|368:285,1,125,4|8,0:0|0:0,0:0:0:0:
336,332,80651,1,0,0:0:0:0:
276,347,80807,2,0,P|216:364|156:347,2,125,2|8|2,0:0|0:0|0:0,0:0:0:0:
218,236,81739,1,8,0:0:0:0:
157,126,82050,2,0,P|216:109|276:125,1,125,2|8,0:0|0:0,0:0:0:0:
353,224,82672,6,0,B|357:290|357:290|327:340,1,125,4|8,0:0|0:0,0:0:0:0:
271,369,83138,1,0,0:0:0:0:
214,341,83294,2,0,B|184:290|184:290|188:224,1,125,2|8,0:0|0:0,0:0:0:0:
272,130,83916,2,0,L|272:255,1,125,2|8,0:0|0:0,0:0:0:0:
348,352,84537,1,2,0:0:0:0:
426,255,84848,1,8,0:0:0:0:
391,134,85159,6,0,P|319:42|285:31,1,125,4|8,0:0|0:0,0:0:0:0:
253,31,85625,1,0,0:0:0:0:
206,72,85781,2,0,L|142:124,1,62.5,2|2,0:0|0:0,0:0:0:0:
96,112,86092,2,0,L|47:72,2,62.5,8|0|4,0:0|0:0|0:0,0:0:0:0:
192,192,86713,1,4,0:0:0:0:
96,272,87024,1,0,0:0:0:0:
192,352,87335,6,0,B|280:344|390:219|188:219|283:94|375:87,1,375
