osu file format v14

[General]
AudioFilename: dayxday.mp3
AudioLeadIn: 0
PreviewTime: 52750
Countdown: 0
SampleSet: Soft
StackLeniency: 0.5
Mode: 0
LetterboxInBreaks: 0
WidescreenStoryboard: 1

[Editor]
DistanceSpacing: 1
BeatDivisor: 4
GridSize: 4
TimelineZoom: 1.4

[Metadata]
Title:DAYxDAY (TV Size)
TitleUnicode:DAY☓DAY(TV Size)
Artist:BLUE ENCOUNT
ArtistUnicode:BLUE ENCOUNT
Creator:Atsuro
Version:Insane
Source:銀魂゜
Tags:Bandai Namco Pictures Opening Gintama゜(2015)
BeatmapID:685821
BeatmapSetID:303757

[Difficulty]
HPDrainRate:7
CircleSize:4
OverallDifficulty:7.5
ApproachRate:9
SliderMultiplier:1.65
SliderTickRate:1

[Events]
//Background and Video events
Video,90,"vid.avi"
0,0,"bg.jpeg",0,0
//Break Periods
2,7017,8704
//Storyboard Layer 0 (Background)
//Storyboard Layer 1 (Fail)
//Storyboard Layer 2 (Pass)
//Storyboard Layer 3 (Foreground)
//Storyboard Sound Samples

[TimingPoints]
600,310.880829015544,4,1,1,65,1,0
600,-125,4,2,1,65,0,0
3087,-90.9090909090909,4,2,1,65,0,0
3397,-90.9090909090909,4,2,1,35,0,0
3708,-90.9090909090909,4,2,1,40,0,0
4019,-90.9090909090909,4,2,1,50,0,0
4330,-90.9090909090909,4,2,1,60,0,0
9304,-90.9090909090909,4,2,1,65,0,0
19952,-90.9090909090909,4,2,1,40,0,0
20496,-111.111111111111,4,2,1,50,0,0
30444,-100,4,2,1,50,0,0
39926,-100,4,2,1,40,0,0
40392,-100,4,2,1,50,0,0
47387,-100,4,2,1,40,0,0
47853,-90.9090909090908,4,2,1,65,0,0
51273,-90.9090909090908,4,2,1,45,0,0
51584,-90.9090909090908,4,2,1,65,0,0
52827,-83.3333333333333,4,2,1,70,0,1
72102,-83.3333333333333,4,2,1,45,0,1
72413,-83.3333333333333,4,2,1,45,0,0
72724,-83.3333333333333,4,2,1,70,0,1
85470,-83.3333333333333,4,2,1,50,0,1
86403,-83.3333333333333,4,2,1,70,0,0
87024,-100,4,2,1,40,0,0
87335,-125,4,2,1,25,0,0

[Colours]
Combo1 : 18,124,255
Combo2 : 180,202,214

[HitObjects]
96,260,600,6,0,P|108:304|184:308,1,132,4|0,0:1|0:0,0:0:0:0:
344,148,1221,2,0,B|336:80|336:80|292:20,1,132,4|0,0:1|0:0,0:0:0:0:
328,308,1843,6,0,P|389:315|416:260,1,132,4|0,0:1|0:0,0:0:0:0:
213,28,2465,2,0,B|176:80|176:80|168:148,1,132,4|0,0:1|0:0,0:0:0:0:
256,324,3087,6,0,L|256:216,1,90.7500027694703,4|2,0:1|0:0,0:0:0:0:
284,32,3397,2,0,L|320:72,3,45.3750013847352,2|2|2|2,0:0|0:0|0:0|0:0,0:0:0:0:
360,72,3708,2,0,L|396:112,3,45.3750013847352,2|2|2|2,0:0|0:0|0:0|0:0,0:0:0:0:
436,108,4019,2,0,L|472:148,3,45.3750013847352,8|8|8|8,0:0|0:0|0:0|0:0,0:0:0:0:
492,180,4330,1,8,0:0:0:0:
500,212,4408,1,8,0:0:0:0:
498,246,4485,1,8,0:0:0:0:
487,278,4563,1,8,0:0:0:0:
466,305,4641,5,8,0:0:0:0:
438,324,4719,1,2,0:0:0:0:
406,334,4796,1,2,0:0:0:0:
388,224,4952,5,0,0:0:0:0:
256,192,5030,12,0,6817,0:0:0:0:
255,219,9304,6,0,P|267:171|255:131,1,90.7500027694703,8|0,0:0|0:0,0:0:0:0:
156,177,9615,1,0,0:0:0:0:
258,298,9770,2,0,L|370:298,1,90.7500027694703,8|8,0:0|0:0,0:0:0:0:
487,302,10081,1,8,0:0:0:0:
487,302,10392,6,0,P|451:206|491:138,1,181.500005538941,4|2,0:0|0:0,0:0:0:0:
375,202,10859,2,0,P|335:210|283:202,1,90.7500027694703,8|0,0:0|0:0,0:0:0:0:
155,102,11169,2,0,P|195:94|247:102,1,90.7500027694703,2|2,0:0|0:0,0:0:0:0:
156,192,11480,5,8,0:0:0:0:
65,101,11636,1,0,0:0:0:0:
160,16,11791,2,0,L|260:16,1,90.7500027694703
229,187,12102,2,0,P|217:143|233:95,1,90.7500027694703,8|0,0:0|0:0,0:0:0:0:
322,224,12413,1,2,0:0:0:0:
230,280,12568,1,2,0:0:0:0:
138,224,12724,1,8,0:0:0:0:
228,30,12879,6,0,P|254:116|221:215,1,181.500005538941,4|2,0:0|0:0,0:0:0:0:
145,331,13346,2,0,L|259:331,1,90.7500027694703,8|0,0:0|0:0,0:0:0:0:
338,168,13656,2,0,P|314:224|326:264,1,90.7500027694703,2|2,0:0|0:0,0:0:0:0:
420,116,13967,1,8,0:0:0:0:
420,116,14123,1,0,0:0:0:0:
344,36,14278,5,2,0:0:0:0:
256,96,14434,1,0,0:0:0:0:
167,36,14589,1,8,0:0:0:0:
92,116,14745,1,0,0:0:0:0:
96,248,14900,2,0,P|152:232|196:188,1,90.7500027694703,2|2,0:0|0:0,0:0:0:0:
92,116,15211,1,8,0:0:0:0:
218,279,15366,6,0,P|282:303|390:271,1,181.500005538941,4|0,0:0|0:0,0:0:0:0:
416,147,15833,2,0,P|368:175|344:211,1,90.7500027694703,8|0,0:0|0:0,0:0:0:0:
504,187,16144,2,0,L|504:95,1,90.7500027694703,2|2,0:0|0:0,0:0:0:0:
408,7,16454,2,0,P|379:42|339:62,1,90.7500027694703,8|0,0:0|0:0,0:0:0:0:
186,39,16765,5,2,0:0:0:0:
186,179,16921,1,0,0:0:0:0:
255,108,17076,1,8,0:0:0:0:
113,108,17232,1,0,0:0:0:0:
142,258,17387,2,0,P|193:272|229:255,1,90.7500027694703,2|2,0:0|0:0,0:0:0:0:
290,100,17698,2,0,P|251:137|248:177,1,90.7500027694703,8|0,0:0|0:0,0:0:0:0:
323,356,18009,6,0,L|311:260,1,90.7500027694703,12|0,0:0|0:0,0:0:0:0:
247,172,18320,1,2,0:0:0:0:
387,308,18475,2,0,L|375:212,1,90.7500027694703,12|0,0:0|3:0,0:0:0:0:
247,172,18786,1,2,0:0:0:0:
455,256,18941,1,12,0:0:0:0:
401,75,19097,6,0,P|344:129|374:217,1,181.500005538941,12|12,0:0|0:0,0:0:0:0:
482,119,19563,2,0,P|493:70|469:17,1,90.7500027694703,12|0,0:0|0:0,0:0:0:0:
312,7,19874,1,8,0:0:0:0:
292,9,19952,1,2,0:0:0:0:
275,14,20030,1,2,0:0:0:0:
260,22,20107,1,2,0:0:0:0:
246,35,20185,1,2,0:0:0:0:
233,47,20263,1,2,0:0:0:0:
224,63,20340,1,2,0:0:0:0:
217,79,20418,1,2,0:0:0:0:
214,92,20496,6,0,P|186:165|124:201,1,148.49999546814,4|8,0:0|0:0,0:0:0:0:
97,86,20962,1,0,0:0:0:0:
214,92,21118,2,0,P|254:98|308:119,1,74.2499977340699,2|2,0:0|0:0,0:0:0:0:
397,168,21429,2,0,P|357:174|303:195,1,74.2499977340699,8|0,0:0|0:0,0:0:0:0:
228,246,21739,5,2,0:0:0:0:
296,326,21895,1,0,0:0:0:0:
228,228,22050,1,8,0:0:0:0:
160,326,22206,1,0,0:0:0:0:
91,236,22361,2,0,P|63:160|95:100,1,148.49999546814,2|8,0:0|0:0,0:0:0:0:
171,36,22827,1,0,0:0:0:0:
254,115,22983,6,0,P|310:100|333:76,1,74.2499977340699,2|0,0:0|0:0,0:0:0:0:
246,1,23294,1,8,0:0:0:0:
168,118,23449,2,0,P|149:181|172:265,1,148.49999546814,0|2,0:0|0:0,0:0:0:0:
267,350,23916,2,0,P|302:330|327:291,1,74.2499977340699,8|0,0:0|0:0,0:0:0:0:
321,190,24226,6,0,P|397:211|467:179,1,148.49999546814,2|8,0:0|0:0,0:0:0:0:
389,105,24693,1,0,0:0:0:0:
276,44,24848,2,0,L|177:36,1,74.2499977340699,2|2,0:0|0:0,0:0:0:0:
123,147,25159,2,0,L|222:155,1,74.2499977340699,8|0,0:0|0:0,0:0:0:0:
98,66,25470,6,0,P|44:118|50:186,1,148.49999546814,2|8,0:0|0:0,0:0:0:0:
140,233,25936,1,0,0:0:0:0:
197,152,26092,2,0,L|123:147,1,74.2499977340699,2|2,0:0|0:0,0:0:0:0:
178,311,26403,2,0,P|213:272|221:239,1,74.2499977340699,8|0,0:0|0:0,0:0:0:0:
273,129,26713,6,0,P|306:200|369:228,1,148.49999546814
374,127,27180,1,0,0:0:0:0:
245,242,27335,2,0,P|210:252|166:248,1,74.2499977340699,2|2,0:0|0:0,0:0:0:0:
83,121,27646,2,0,L|109:31,1,74.2499977340699,8|0,0:0|0:0,0:0:0:0:
150,165,27957,6,0,P|77:202|22:171,1,148.49999546814,2|8,0:0|0:0,0:0:0:0:
167,82,28423,2,0,P|240:45|295:76,1,148.49999546814,0|2,0:0|0:0,0:0:0:0:
284,172,28890,2,0,P|241:136|229:106,1,74.2499977340699,8|0,0:0|0:0,0:0:0:0:
368,172,29201,5,2,0:0:0:0:
305,254,29356,1,2,0:0:0:0:
284,172,29511,1,8,0:0:0:0:
395,257,29667,1,4,0:0:0:0:
409,267,29978,1,8,0:0:0:0:
268,160,30133,1,8,0:0:0:0:
405,126,30289,1,8,0:0:0:0:
271,300,30444,6,0,P|218:319|175:321,1,82.5,4|0,0:0|0:0,0:0:0:0:
89,214,30755,2,0,P|142:195|185:193,1,82.5,8|0,0:0|0:0,0:0:0:0:
327,190,31066,2,0,P|273:208|230:210,1,82.5,2|2,0:0|0:0,0:0:0:0:
144,103,31377,2,0,P|197:84|240:82,1,82.5,8|0,0:0|0:0,0:0:0:0:
339,114,31688,5,2,0:0:0:0:
410,30,31843,1,0,0:0:0:0:
479,111,31998,2,0,P|491:149|480:202,1,82.5,8|0,0:0|0:0,0:0:0:0:
411,283,32309,2,0,P|366:219|410:156,1,165,2|8,0:0|0:0,0:0:0:0:
473,218,32776,1,0,0:0:0:0:
346,329,32931,6,0,P|308:342|239:338,1,82.5,2|0,0:0|0:0,0:0:0:0:
171,287,33242,1,8,0:0:0:0:
196,174,33397,2,0,P|240:189|273:225,1,82.5,0|2,0:0|0:0,0:0:0:0:
171,287,33708,1,2,0:0:0:0:
84,197,33864,2,0,L|85:107,1,82.5,8|0,0:0|0:0,0:0:0:0:
165,21,34175,6,0,P|200:45|246:59,1,82.5,2|0,0:0|0:0,0:0:0:0:
365,117,34486,2,0,P|330:141|284:155,1,82.5,8|0,0:0|0:0,0:0:0:0:
165,212,34796,2,0,P|200:236|246:250,1,82.5,2|2,0:0|0:0,0:0:0:0:
364,308,35107,2,0,P|331:331|292:344,1,82.5,8|0,0:0|0:0,0:0:0:0:
108,323,35418,6,0,P|42:246|65:163,1,165,4|8,0:0|0:0,0:0:0:0:
126,104,35884,1,0,0:0:0:0:
226,160,36040,2,0,P|200:191|164:212,1,82.5,2|2,0:0|0:0,0:0:0:0:
209,72,36351,2,0,L|302:72,1,82.5,8|0,0:0|0:0,0:0:0:0:
451,144,36662,6,0,P|379:180|308:145,1,165,2|8,0:0|0:0,0:0:0:0:
379,88,37128,1,0,0:0:0:0:
350,253,37283,2,0,P|317:280|263:289,1,82.5,2|2,0:0|0:0,0:0:0:0:
138,209,37594,2,0,P|116:172|116:117,1,82.5,8|2,0:0|0:0,0:0:0:0:
216,255,37905,6,0,P|162:298|71:270,1,165,2|8,0:0|0:0,0:0:0:0:
52,146,38372,1,0,0:0:0:0:
146,65,38527,2,0,P|190:100|209:143,1,82.5,2|2,0:0|0:0,0:0:0:0:
282,257,38838,2,0,P|304:222|338:199,1,82.5,8|0,0:0|0:0,0:0:0:0:
479,244,39149,5,2,0:0:0:0:
458,359,39304,1,0,0:0:0:0:
365,286,39460,2,0,L|253:164,1,165,12|2,0:0|0:0,0:0:0:0:
130,38,39926,1,8,0:0:0:0:
109,42,40004,1,8,0:0:0:0:
91,51,40081,1,8,0:0:0:0:
75,64,40159,1,8,0:0:0:0:
62,80,40237,1,10,0:0:0:0:
53,99,40315,1,8,0:0:0:0:
50,121,40392,6,0,L|50:215,1,82.5,6|2,0:0|0:0,0:0:0:0:
108,343,40703,1,8,0:0:0:0:
108,343,40859,1,0,0:0:0:0:
196,248,41014,2,0,P|200:189|181:143,1,82.5,2|2,0:0|0:0,0:0:0:0:
245,319,41325,2,0,P|294:351|343:358,1,82.5,0|8,0:0|0:0,0:0:0:0:
340,184,41636,6,0,P|286:210|256:249,1,82.5,2|0,0:0|0:0,0:0:0:0:
423,212,41947,1,8,0:0:0:0:
450,91,42102,1,0,0:0:0:0:
327,111,42258,2,0,P|277:94|233:69,1,82.5,2|2,0:0|0:0,0:0:0:0:
147,185,42568,2,0,P|196:168|240:143,1,82.5,8|0,0:0|0:0,0:0:0:0:
73,84,42879,6,0,L|58:183,1,82.5,6|2,0:0|0:0,0:0:0:0:
44,330,43190,1,8,0:0:0:0:
44,330,43346,1,0,0:0:0:0:
143,262,43501,2,0,P|178:205|184:157,1,82.5,2|2,0:0|0:0,0:0:0:0:
236,60,43812,2,0,P|271:117|277:165,1,82.5,0|8,0:0|0:0,0:0:0:0:
326,262,44123,6,0,P|361:205|367:157,1,82.5,2|2,0:0|0:0,0:0:0:0:
416,60,44434,1,8,0:0:0:0:
468,172,44589,1,0,0:0:0:0:
416,288,44745,1,2,0:0:0:0:
393,308,44822,1,2,0:0:0:0:
365,322,44900,1,2,0:0:0:0:
335,325,44978,1,2,0:0:0:0:
305,317,45055,1,8,0:0:0:0:
140,136,45366,6,0,L|80:212,1,82.5,4|0,0:0|0:0,0:0:0:0:
40,80,45677,2,0,L|100:4,1,82.5,8|0,0:0|0:0,0:0:0:0:
215,111,45988,2,0,P|293:135|371:111,1,165,2|8,0:0|0:0,0:0:0:0:
456,8,46454,1,0,0:0:0:0:
370,111,46610,5,2,0:0:0:0:
456,208,46765,1,0,0:0:0:0:
370,306,46921,2,0,P|330:336|274:357,1,82.5,8|0,0:0|0:0,0:0:0:0:
152,364,47232,1,0,0:0:0:0:
204,236,47387,1,0,0:0:0:0:
215,214,47464,1,0,0:0:0:0:
219,191,47542,1,0,0:0:0:0:
217,167,47620,1,0,0:0:0:0:
209,145,47697,1,0,0:0:0:0:
194,125,47775,1,0,0:0:0:0:
176,112,47853,6,0,P|133:84|59:67,1,90.7500027694703,4|0,0:0|0:0,0:0:0:0:
85,270,48164,2,0,L|179:221,1,90.7500027694703,8|0,0:0|0:0,0:0:0:0:
336,111,48475,2,0,P|373:86|416:71,1,90.7500027694703,8|0,0:0|0:0,0:0:0:0:
427,270,48786,2,0,L|333:221,1,90.7500027694703,8|0,0:0|0:0,0:0:0:0:
174,125,49097,6,0,P|167:78|187:18,1,90.7500027694703,8|0,0:0|0:0,0:0:0:0:
165,228,49408,2,0,P|127:257|65:270,1,90.7500027694703,8|0,0:0|0:0,0:0:0:0:
262,182,49719,2,0,P|306:199|348:246,1,90.7500027694703,8|0,0:0|0:0,0:0:0:0:
443,354,50030,2,0,L|440:237,1,90.7500027694703,8|0,0:0|0:0,0:0:0:0:
435,142,50340,6,0,P|360:142|322:45,1,181.500005538941,6|8,0:0|0:0,0:0:0:0:
399,67,50807,1,2,0:0:0:0:
304,196,50962,2,0,L|120:196,1,181.500005538941,6|8,0:0|0:0,0:0:0:0:
212,120,51429,1,8,0:0:0:0:
212,272,51584,6,0,B|240:312|240:312|292:316,1,90.7500027694703,6|2,0:0|0:0,0:0:0:0:
376,157,51895,2,0,B|327:161|327:161|304:196,1,90.7500027694703,8|2,0:0|0:0,0:0:0:0:
396,352,52206,1,6,0:0:0:0:
396,352,52827,6,0,P|412:296|396:256,1,98.9999969787599,4|0,0:0|0:0,0:0:0:0:
312,120,53138,2,0,P|296:176|312:216,1,98.9999969787599,8|0,0:0|0:0,0:0:0:0:
470,194,53449,2,0,P|414:178|374:194,1,98.9999969787599,2|2,0:0|0:0,0:0:0:0:
238,278,53760,2,0,P|294:294|334:278,1,98.9999969787599,8|0,0:0|0:0,0:0:0:0:
312,120,54071,6,0,L|230:26,1,98.9999969787599,2|0,0:0|0:0,0:0:0:0:
119,65,54382,1,8,0:0:0:0:
199,164,54537,1,0,0:0:0:0:
290,254,54693,2,0,L|355:179,1,98.9999969787599,2|2,0:0|0:0,0:0:0:0:
483,198,55004,1,8,0:0:0:0:
403,297,55159,1,0,0:0:0:0:
272,160,55315,6,0,L|337:85,1,98.9999969787599,4|0,0:0|0:0,0:0:0:0:
290,254,55625,2,0,P|232:246|196:220,1,98.9999969787599,8|0,0:0|0:0,0:0:0:0:
76,140,55936,1,2,0:0:0:0:
196,68,56092,1,2,0:0:0:0:
290,254,56247,6,0,P|336:288|380:295,1,98.9999969787599,8|0,0:0|0:0,0:0:0:0:
493,157,56558,6,0,P|461:73|359:50,1,197.99999395752,2|8,0:0|0:0,0:0:0:0:
268,136,57024,1,0,0:0:0:0:
356,236,57180,2,0,P|384:196|393:147,1,98.9999969787599,2|2,0:0|0:0,0:0:0:0:
259,10,57491,2,0,P|210:13|167:38,1,98.9999969787599,8|0,0:0|0:0,0:0:0:0:
72,200,57802,6,0,P|71:249|92:293,1,98.9999969787599,4|0,0:0|0:0,0:0:0:0:
248,312,58112,2,0,L|347:251,1,98.9999969787599,8|0,0:0|0:0,0:0:0:0:
224,232,58423,1,2,0:0:0:0:
300,372,58579,1,2,0:0:0:0:
406,252,58734,2,0,P|433:198|442:152,1,98.9999969787599,8|0,0:0|0:0,0:0:0:0:
297,99,59045,6,0,P|330:149|365:180,1,98.9999969787599,2|0,0:0|0:0,0:0:0:0:
241,41,59356,2,0,P|180:44|136:59,1,98.9999969787599,8|0,0:0|0:0,0:0:0:0:
11,175,59667,1,2,0:0:0:0:
150,236,59822,1,2,0:0:0:0:
111,135,59978,1,8,0:0:0:0:
51,276,60133,1,0,0:0:0:0:
189,320,60289,6,0,P|229:279|238:235,1,98.9999969787599,4|0,0:0|0:0,0:0:0:0:
229,93,60599,2,0,L|300:165,1,98.9999969787599,8|0,0:0|0:0,0:0:0:0:
383,312,60910,2,0,L|311:239,1,98.9999969787599,2|2,0:0|0:0,0:0:0:0:
318,61,61221,2,0,P|374:51|418:71,1,98.9999969787599,8|0,0:0|0:0,0:0:0:0:
484,216,61532,6,0,P|400:218|366:111,1,197.99999395752,2|8,0:0|0:0,0:0:0:0:
440,147,61998,1,0,0:0:0:0:
368,320,62154,2,0,L|264:321,1,98.9999969787599,2|2,0:0|0:0,0:0:0:0:
168,240,62465,2,0,L|272:239,1,98.9999969787599,8|0,0:0|0:0,0:0:0:0:
183,159,62776,6,0,B|123:159|123:159|69:129|64:81|92:34,1,197.99999395752,4|8,0:0|0:0,0:0:0:0:
201,2,63242,1,0,0:0:0:0:
250,84,63397,2,0,L|142:84,1,98.9999969787599,2|2,0:0|0:0,0:0:0:0:
316,12,63708,2,0,P|344:57|343:115,1,98.9999969787599,8|0,0:0|0:0,0:0:0:0:
258,229,64019,6,0,P|357:260|448:217,1,197.99999395752,2|8,0:0|0:0,0:0:0:0:
346,101,64486,1,0,0:0:0:0:
180,232,64641,2,0,P|138:252|69:242,1,98.9999969787599,2|2,0:0|0:0,0:0:0:0:
60,92,64952,2,0,P|101:71|170:81,1,98.9999969787599,8|0,0:0|0:0,0:0:0:0:
292,252,65263,6,0,P|328:288|400:304,1,98.9999969787599,4|0,0:0|0:0,0:0:0:0:
416,152,65574,2,0,P|380:115|308:99,1,98.9999969787599,8|0,0:0|0:0,0:0:0:0:
175,99,65884,2,0,P|129:116|96:152,1,98.9999969787599,2|2,0:0|0:0,0:0:0:0:
139,303,66195,2,0,P|185:287|220:252,1,98.9999969787599,8|0,0:0|0:0,0:0:0:0:
256,120,66506,6,0,L|256:320,1,197.99999395752,2|8,0:0|0:0,0:0:0:0:
344,220,66973,1,0,0:0:0:0:
256,120,67128,2,0,P|192:92|132:88,1,98.9999969787599,2|2,0:0|0:0,0:0:0:0:
24,156,67439,2,0,L|72:252,1,98.9999969787599,8|0,0:0|0:0,0:0:0:0:
136,372,67750,6,0,P|184:324|196:280,1,98.9999969787599,4|0,0:0|0:0,0:0:0:0:
268,156,68061,2,0,L|316:252,1,98.9999969787599,8|0,0:0|0:0,0:0:0:0:
380,372,68372,1,2,0:0:0:0:
426,235,68527,1,2,0:0:0:0:
468,372,68682,1,8,0:0:0:0:
353,286,68838,1,0,0:0:0:0:
497,289,68993,6,0,P|512:240|492:180,1,98.9999969787599,2|0,0:0|0:0,0:0:0:0:
448,44,69304,2,0,L|356:140,1,98.9999969787599,8|0,0:0|0:0,0:0:0:0:
260,236,69615,2,0,P|232:140|308:88,1,197.99999395752,2|8,0:0|0:0,0:0:0:0:
360,184,70081,1,0,0:0:0:0:
288,312,70237,6,0,P|232:320|180:308,1,98.9999969787599,6|0,0:0|0:0,0:0:0:0:
56,228,70548,2,0,P|112:236|164:224,1,98.9999969787599,8|0,0:0|0:0,0:0:0:0:
288,128,70859,2,0,B|196:184|196:72|104:128,1,197.99999395752,2|8,0:0|0:0,0:0:0:0:
56,228,71325,1,0,0:0:0:0:
104,324,71480,6,0,P|152:340|200:324,1,98.9999969787599,6|0,0:0|0:0,0:0:0:0:
228,308,71714,1,0,0:0:0:0:
248,280,71791,2,0,L|248:180,1,98.9999969787599,8|2,0:0|0:0,0:0:0:0:
242,60,72102,1,8,0:0:0:0:
194,70,72179,1,8,0:0:0:0:
154,99,72257,1,8,0:0:0:0:
129,141,72335,1,8,0:0:0:0:
123,190,72412,1,10,0:0:0:0:
137,237,72490,1,2,0:0:0:0:
168,274,72568,1,2,0:0:0:0:
304,356,72724,6,0,P|352:327|380:285,1,98.9999969787599,4|0,0:0|0:0,0:0:0:0:
368,99,73035,2,0,P|319:127|291:169,1,98.9999969787599,8|0,0:0|0:0,0:0:0:0:
208,356,73346,2,0,P|159:327|131:285,1,98.9999969787599,2|2,0:0|0:0,0:0:0:0:
144,99,73657,2,0,P|192:127|220:169,1,98.9999969787599,8|0,0:0|0:0,0:0:0:0:
306,355,73967,5,2,0:0:0:0:
176,261,74123,1,0,0:0:0:0:
336,261,74278,1,8,0:0:0:0:
208,356,74434,1,0,0:0:0:0:
256,202,74589,2,0,P|284:152|344:132,1,98.9999969787599,2|2,0:0|0:0,0:0:0:0:
428,232,74900,2,0,P|370:232|323:190,1,98.9999969787599,8|0,0:0|0:0,0:0:0:0:
227,37,75211,6,0,L|159:121,1,98.9999969787599,4|0,0:0|0:0,0:0:0:0:
116,304,75522,2,0,L|184:220,1,98.9999969787599,8|0,0:0|0:0,0:0:0:0:
295,104,75833,1,2,0:0:0:0:
354,237,75988,1,2,0:0:0:0:
389,139,76144,1,8,0:0:0:0:
256,202,76299,1,0,0:0:0:0:
227,37,76454,6,0,P|140:91|164:195,1,197.99999395752,2|8,0:0|0:0,0:0:0:0:
200,312,76921,1,0,0:0:0:0:
320,240,77076,2,0,P|336:184|324:144,1,98.9999969787599,2|2,0:0|0:0,0:0:0:0:
289,322,77387,2,0,L|397:322,1,98.9999969787599,8|0,0:0|0:0,0:0:0:0:
472,172,77698,6,0,P|448:104|424:68,1,98.9999969787599,4|0,0:0|0:0,0:0:0:0:
260,84,78009,2,0,P|236:127|222:174,1,98.9999969787599,8|0,0:0|0:0,0:0:0:0:
352,344,78320,2,0,P|328:276|304:240,1,98.9999969787599,2|2,0:0|0:0,0:0:0:0:
140,256,78631,2,0,P|116:299|102:346,1,98.9999969787599,8|0,0:0|0:0,0:0:0:0:
230,270,78941,5,2,0:0:0:0:
162,134,79097,1,0,0:0:0:0:
49,226,79252,2,0,P|90:254|138:256,1,98.9999969787599,8|0,0:0|0:0,0:0:0:0:
275,163,79563,2,0,P|262:67|182:16,1,197.99999395752,2|8,0:0|0:0,0:0:0:0:
162,134,80030,1,0,0:0:0:0:
310,323,80185,6,0,P|358:331|414:319,1,98.9999969787599,4|0,0:0|0:0,0:0:0:0:
242,246,80496,2,0,P|193:238|137:250,1,98.9999969787599,8|0,0:0|0:0,0:0:0:0:
354,255,80807,2,0,P|363:206|355:157,1,98.9999969787599,2|2,0:0|0:0,0:0:0:0:
197,55,81118,2,0,P|187:103|195:152,1,98.9999969787599,8|0,0:0|0:0,0:0:0:0:
310,323,81429,6,0,P|389:331|423:212,1,197.99999395752,2|8,0:0|0:0,0:0:0:0:
388,112,81895,1,0,0:0:0:0:
268,56,82050,2,0,P|221:72|193:126,1,98.9999969787599,2|2,0:0|0:0,0:0:0:0:
274,264,82361,2,0,P|282:215|249:163,1,98.9999969787599,8|0,0:0|0:0,0:0:0:0:
88,164,82672,6,0,P|124:195|185:192,1,98.9999969787599,4|0,0:0|0:0,0:0:0:0:
100,72,82983,1,8,0:0:0:0:
12,172,83138,1,0,0:0:0:0:
100,272,83294,2,0,P|152:276|200:260,1,98.9999969787599,2|2,0:0|0:0,0:0:0:0:
411,272,83605,2,0,P|362:276|315:262,1,98.9999969787599,8|0,0:0|0:0,0:0:0:0:
328,104,83916,6,0,P|360:156|352:204,1,98.9999969787599,2|0,0:0|0:0,0:0:0:0:
154,191,84226,2,0,P|155:143|184:104,1,98.9999969787599,8|0,0:0|0:0,0:0:0:0:
343,284,84537,2,0,P|256:324|169:283,1,197.99999395752,2|8,0:0|0:0,0:0:0:0:
118,158,85004,1,0,0:0:0:0:
256,64,85159,6,0,L|256:164,1,98.9999969787599,4|0,0:0|0:0,0:0:0:0:
235,305,85470,2,0,L|235:373,3,49.4999984893799,8|8|8|8,0:0|0:0|0:0|0:0,0:0:0:0:
192,276,85781,2,0,L|192:226,3,49.4999984893799,2|2|2|2,0:0|0:0|0:0|0:0,0:0:0:0:
148,300,86092,1,8,0:0:0:0:
99,293,86169,1,8,0:0:0:0:
60,264,86247,1,8,0:0:0:0:
40,219,86325,1,8,0:0:0:0:
45,170,86403,5,4,0:0:0:0:
256,24,86714,1,4,0:0:0:0:
471,203,87024,1,0,0:0:0:0:
212,352,87335,6,0,P|255:210|300:352,1,396,0|0,0:0|0:0,0:0:0:0:
