osu file format v14

[General]
AudioFilename: dayxday.mp3
AudioLeadIn: 0
PreviewTime: 52750
Countdown: 0
SampleSet: Soft
StackLeniency: 0.6
Mode: 0
LetterboxInBreaks: 0
WidescreenStoryboard: 0

[Editor]
DistanceSpacing: 1.2
BeatDivisor: 4
GridSize: 4
TimelineZoom: 1.3

[Metadata]
Title:DAYxDAY (TV Size)
TitleUnicode:DAY☓DAY(TV Size)
Artist:BLUE ENCOUNT
ArtistUnicode:BLUE ENCOUNT
Creator:Atsuro
Version:Hard
Source:銀魂゜
Tags:Bandai Namco Pictures Opening Gintama゜(2015)
BeatmapID:680651
BeatmapSetID:303757

[Difficulty]
HPDrainRate:6
CircleSize:4
OverallDifficulty:6
ApproachRate:7.5
SliderMultiplier:1.5
SliderTickRate:1

[Events]
//Background and Video events
Video,90,"vid.avi"
0,0,"bg.jpeg",0,0
//Break Periods
2,7017,8479
//Storyboard Layer 0 (Background)
//Storyboard Layer 1 (Fail)
//Storyboard Layer 2 (Pass)
//Storyboard Layer 3 (Foreground)
//Storyboard Sound Samples

[TimingPoints]
600,310.880829015544,4,1,1,65,1,0
600,-125,4,2,1,65,0,0
3087,-100,4,2,1,65,0,0
20496,-111.111111111111,4,2,1,50,0,0
47853,-111.111111111111,4,2,1,65,0,0
52827,-100,4,2,1,70,0,1
72413,-100,4,2,1,70,0,0
72724,-100,4,2,1,70,0,1
86403,-100,4,2,1,70,0,0
87024,-100,4,2,1,40,0,0
87335,-125,4,2,1,25,0,0

[Colours]
Combo1 : 18,124,255
Combo2 : 180,202,214

[HitObjects]
212,36,600,6,0,P|188:88|224:152,1,120,4|0,0:1|0:0,0:0:0:0:
344,344,1221,2,0,P|368:292|332:228,1,120,4|0,0:1|0:0,0:0:0:0:
167,237,1843,6,0,P|143:290|168:344,1,120,4|0,0:1|0:0,0:0:0:0:
300,142,2465,2,0,P|324:89|300:36,1,120,4|0,0:1|0:0,0:0:0:0:
60,88,3087,6,0,L|4:160,1,75,4|2,0:1|0:0,0:0:0:0:
12,236,3397,2,0,L|68:308,1,75,2|2,0:0|0:0,0:0:0:0:
128,352,3708,2,8,P|160:328|188:276,1,75,2|8,0:0|0:0,0:0:0:0:
232,224,4019,2,8,P|253:254|283:276,1,75
364,316,4330,6,8,L|340:380,2,37.5,8|8|2,0:0|0:0|0:0,0:0:0:0:
396,232,4641,2,8,L|368:196,2,37.5
452,304,4952,1,0,0:0:0:0:
256,192,5030,12,0,6817,0:0:0:0:
156,356,9304,6,0,L|116:280,1,75,8|0,0:0|0:0,0:0:0:0:
80,212,9615,1,0,0:0:0:0:
164,176,9770,2,0,L|204:252,2,75,8|8|8,0:0|0:0|0:0,0:0:0:0:
100,40,10392,6,0,P|184:28|256:64,1,150,4|2,0:0|0:0,0:0:0:0:
296,108,10859,2,0,P|328:128|372:140,1,75,8|0,0:0|0:0,0:0:0:0:
452,120,11169,1,2,0:0:0:0:
452,120,11325,1,2,0:0:0:0:
436,208,11480,2,0,L|400:288,1,75,8|0,0:0|0:0,0:0:0:0:
332,328,11791,6,0,P|296:304|240:288,1,75,2|0,0:0|0:0,0:0:0:0:
176,296,12102,2,0,P|141:282|110:260,1,75,8|0,0:0|0:0,0:0:0:0:
72,180,12413,1,2,0:0:0:0:
116,100,12568,1,2,0:0:0:0:
160,180,12724,1,8,0:0:0:0:
72,180,12879,6,0,P|28:120|40:48,1,150,4|0,0:0|0:0,0:0:0:0:
124,20,13346,2,0,L|212:44,1,75,8|0,0:0|0:0,0:0:0:0:
244,144,13656,2,0,L|156:120,1,75,2|2,0:0|0:0,0:0:0:0:
212,232,13967,2,0,L|300:256,1,75,8|0,0:0|0:0,0:0:0:0:
372,264,14278,6,0,P|416:216|424:180,1,75,2|0,0:0|0:0,0:0:0:0:
440,120,14589,1,8,0:0:0:0:
372,64,14745,1,0,0:0:0:0:
300,120,14900,2,0,P|261:142|219:144,2,75,2|2|8,0:0|0:0|0:0,0:0:0:0:
304,28,15366,6,0,P|230:37|168:78,1,150,4|0,0:0|0:0,0:0:0:0:
120,156,15833,2,0,L|84:224,1,75,8|0,0:0|0:0,0:0:0:0:
48,304,16144,2,0,P|80:312|120:304,1,75,2|2,0:0|0:0,0:0:0:0:
184,240,16454,2,0,P|220:231|256:239,1,75,8|0,0:0|0:0,0:0:0:0:
308,312,16765,6,0,P|340:320|380:312,1,75,2|0,0:0|0:0,0:0:0:0:
448,252,17076,1,8,0:0:0:0:
480,168,17232,1,0,0:0:0:0:
448,84,17387,2,0,P|416:104|396:144,2,75,2|2|8,0:0|0:0|0:0,0:0:0:0:
380,24,17853,1,0,0:0:0:0:
380,24,18009,6,8,L|294:46,1,75,12|0,0:0|0:0,0:0:0:0:
248,128,18320,1,2,0:0:0:0:
248,128,18475,2,0,L|162:105,1,75,12|0,0:0|3:0,3:0:0:0:
128,200,18786,1,2,0:0:0:0:
128,200,18941,2,0,L|42:222,1,75,12|12,0:0|0:0,0:0:0:0:
132,344,19408,5,12,0:0:0:0:
220,328,19563,2,0,P|256:308|280:276,1,75,8|0,0:0|0:0,0:0:0:0:
364,308,19874,2,0,P|364:266|348:230,1,75,8|2,0:0|0:0,0:0:0:0:
416,172,20185,2,0,P|380:150|340:146,1,75,2|2,0:0|0:0,0:0:0:0:
320,56,20496,6,0,P|284:76|256:160,1,134.999995880127,4|8,0:0|0:0,0:0:0:0:
284,236,20962,1,0,0:0:0:0:
344,292,21118,2,0,P|284:320|220:288,1,134.999995880127,2|8,0:0|0:0,0:0:0:0:
164,236,21584,1,0,0:0:0:0:
100,284,21739,6,0,L|32:332,1,67.4999979400635,2|0,0:0|0:0,0:0:0:0:
20,224,22050,2,0,L|88:176,1,67.4999979400635,8|0,0:0|0:0,0:0:0:0:
144,140,22361,2,0,P|208:160|276:136,1,134.999995880127,2|8,0:0|0:0,0:0:0:0:
336,92,22827,1,0,0:0:0:0:
336,92,22983,6,0,L|420:212,1,134.999995880127,2|8,0:0|0:0,0:0:0:0:
456,272,23449,1,0,0:0:0:0:
424,348,23605,2,0,P|396:328|376:292,1,67.4999979400635,2|2,0:0|0:0,0:0:0:0:
344,228,23916,2,0,P|316:248|296:284,1,67.4999979400635,8|0,0:0|0:0,0:0:0:0:
268,352,24226,6,0,P|224:300|232:232,1,134.999995880127,2|8,0:0|0:0,0:0:0:0:
280,172,24693,1,0,0:0:0:0:
220,116,24848,2,0,L|156:68,1,67.4999979400635,2|2,0:0|0:0,0:0:0:0:
100,28,25159,1,8,0:0:0:0:
100,28,25315,1,0,0:0:0:0:
36,80,25470,6,0,P|12:140|36:208,1,134.999995880127,2|8,0:0|0:0,0:0:0:0:
92,264,25936,1,0,0:0:0:0:
168,292,26092,2,0,L|252:292,1,67.4999979400635,2|2,0:0|0:0,0:0:0:0:
304,212,26403,2,0,L|220:212,1,67.4999979400635,8|0,0:0|0:0,0:0:0:0:
320,292,26713,6,0,P|376:248|376:176,1,134.999995880127,2|8,0:0|0:0,0:0:0:0:
368,108,27180,1,0,0:0:0:0:
288,132,27335,2,0,P|232:176|232:247,1,134.999995880127,2|8,0:0|0:0,0:0:0:0:
240,316,27802,1,0,0:0:0:0:
160,316,27957,6,0,L|80:196,1,134.999995880127,2|8,0:0|0:0,0:0:0:0:
52,132,28423,2,0,P|116:108|180:136,1,134.999995880127,0|2,0:0|0:0,0:0:0:0:
236,184,28890,2,0,L|236:252,1,67.4999979400635,8|0,0:0|0:0,0:0:0:0:
320,308,29201,6,0,L|320:240,1,67.4999979400635,2|2,0:0|0:0,0:0:0:0:
320,160,29511,1,8,0:0:0:0:
320,160,29667,1,4,0:0:0:0:
173,89,29978,1,8,0:0:0:0:
103,45,30133,1,8,0:0:0:0:
174,7,30289,1,8,0:0:0:0:
174,89,30444,6,0,P|143:147|83:190,1,134.999995880127,4|8,0:0|0:0,0:0:0:0:
27,242,30910,1,0,0:0:0:0:
96,288,31066,2,0,P|144:312|176:316,1,67.4999979400635,2|2,0:0|0:0,0:0:0:0:
240,316,31377,2,0,P|272:306|301:289,1,67.4999979400635,8|0,0:0|0:0,0:0:0:0:
356,232,31688,6,0,L|356:140,1,67.4999979400635,2|0,0:0|0:0,0:0:0:0:
444,112,31998,2,0,L|444:204,2,67.4999979400635,8|0|2,0:0|0:0|0:0,0:0:0:0:
440,32,32465,1,2,0:0:0:0:
372,72,32620,2,0,P|328:88|296:84,1,67.4999979400635,8|0,0:0|0:0,0:0:0:0:
232,56,32931,6,0,P|172:48|84:100,1,134.999995880127,2|8,0:0|0:0,0:0:0:0:
64,148,33397,2,0,L|64:284,1,134.999995880127,0|2,0:0|0:0,0:0:0:0:
68,364,33864,2,0,P|100:356|128:332,1,67.4999979400635,8|0,0:0|0:0,0:0:0:0:
180,272,34175,6,0,P|244:248|308:272,1,134.999995880127,2|8,0:0|0:0,0:0:0:0:
360,328,34641,1,0,0:0:0:0:
396,255,34796,2,0,P|405:223|419:193,1,67.4999979400635,2|2,0:0|0:0,0:0:0:0:
419,111,35107,2,0,P|405:81|396:49,1,67.4999979400635,8|0,0:0|0:0,0:0:0:0:
321,82,35418,6,0,P|257:103|194:83,1,134.999995880127,4|8,0:0|0:0,0:0:0:0:
121,48,35884,1,0,0:0:0:0:
121,49,36040,2,0,P|89:108|77:192,1,134.999995880127,2|8,0:0|0:0,0:0:0:0:
96,252,36506,1,0,0:0:0:0:
167,200,36662,6,0,P|227:174|289:199,1,134.999995880127
358,252,37128,1,0,0:0:0:0:
439,284,37283,2,0,P|471:262|490:223,1,67.4999979400635,2|2,0:0|0:0,0:0:0:0:
492,150,37594,1,8,0:0:0:0:
418,101,37750,1,0,0:0:0:0:
338,139,37905,6,0,P|274:159|211:140,1,134.999995880127,2|8,0:0|0:0,0:0:0:0:
156,80,38372,1,0,0:0:0:0:
111,147,38527,2,0,L|67:216,1,67.4999979400635,2|2,0:0|0:0,0:0:0:0:
132,287,38838,2,0,L|176:218,1,67.4999979400635,8|0,0:0|0:0,0:0:0:0:
207,316,39149,5,2,0:0:0:0:
138,369,39304,1,0,0:0:0:0:
62,332,39460,2,0,L|31:269,1,67.4999979400635,12|0,0:0|0:0,0:0:0:0:
31,183,39770,1,2,0:0:0:0:
111,147,39926,2,0,P|179:169|238:146,1,134.999995880127,8|2,0:0|0:0,0:0:0:0:
303,103,40392,6,0,P|335:94|369:94,1,67.4999979400635,6|2,0:0|0:0,0:0:0:0:
449,130,40703,1,8,0:0:0:0:
321,250,41014,2,0,P|288:258|254:258,1,67.4999979400635,2|2,0:0|0:0,0:0:0:0:
176,223,41325,1,2,0:0:0:0:
385,168,41636,6,0,P|393:200|393:234,1,67.4999979400635,2|2,0:0|0:0,0:0:0:0:
358,313,41947,1,8,0:0:0:0:
238,185,42258,2,0,P|229:152|229:118,1,67.4999979400635,2|2,0:0|0:0,0:0:0:0:
265,40,42568,1,8,0:0:0:0:
214,297,42879,6,0,L|127:284,1,67.4999979400635,6|2,0:0|0:0,0:0:0:0:
92,204,43190,1,8,0:0:0:0:
298,235,43501,2,0,L|385:222,1,67.4999979400635,2|2,0:0|0:0,0:0:0:0:
420,142,43812,1,2,0:0:0:0:
214,163,44123,6,0,L|127:150,1,67.4999979400635,2|2,0:0|0:0,0:0:0:0:
92,70,44434,1,8,0:0:0:0:
298,104,44745,2,0,L|385:91,1,67.4999979400635,2|2,0:0|0:0,0:0:0:0:
420,11,45055,1,8,0:0:0:0:
112,156,45366,6,0,L|86:229,1,67.4999979400635,4|0,0:0|0:0,0:0:0:0:
34,133,45677,2,0,L|60:60,1,67.4999979400635,8|0,0:0|0:0,0:0:0:0:
128,32,45988,2,0,P|188:67|204:151,1,134.999995880127,2|8,0:0|0:0,0:0:0:0:
176,201,46454,1,0,0:0:0:0:
256,200,46610,6,0,L|333:201,1,67.4999979400635,2|0,0:0|0:0,0:0:0:0:
379,285,46921,2,0,L|311:284,1,67.4999979400635,8|0,0:0|0:0,0:0:0:0:
230,283,47232,1,2,0:0:0:0:
269,353,47387,1,8,0:0:0:0:
349,356,47543,1,8,0:0:0:0:
431,216,47853,6,0,P|428:184|402:142,1,67.4999979400635,4|0,0:0|0:0,0:0:0:0:
470,77,48164,2,0,P|440:63|391:65,1,67.4999979400635,8|0,0:0|0:0,0:0:0:0:
333,123,48475,2,0,B|303:136|254:134,1,67.4999979400635,8|0,0:0|0:0,0:0:0:0:
225,222,48786,2,0,B|198:203|175:159,1,67.4999979400635,8|0,0:0|0:0,0:0:0:0:
144,86,49097,6,0,P|125:57|98:38,1,67.4999979400635,8|0,0:0|0:0,0:0:0:0:
28,102,49408,2,0,L|28:181,1,67.4999979400635,8|0,0:0|0:0,0:0:0:0:
28,264,49719,2,0,P|76:327|156:323,1,134.999995880127,8|8,0:0|0:0,0:0:0:0:
208,330,50185,1,2,0:0:0:0:
287,314,50340,6,0,L|429:267,1,134.999995880127,6|8,0:0|0:0,0:0:0:0:
455,201,50807,1,2,0:0:0:0:
382,165,50962,2,0,L|253:207,1,134.999995880127,6|8,0:0|0:0,0:0:0:0:
182,168,51429,1,2,0:0:0:0:
228,101,51584,6,0,L|292:79,1,67.4999979400635,6|0,0:0|0:0,0:0:0:0:
207,32,51895,2,0,L|142:53,1,67.4999979400635,8|8,0:0|0:0,0:0:0:0:
67,82,52206,1,12,0:0:0:0:
67,82,52827,6,0,P|47:126|53:172,1,75,4|2,0:0|0:0,0:0:0:0:
95,228,53138,2,0,L|198:206,1,75,8|0,0:0|0:0,0:0:0:0:
263,167,53449,2,0,P|243:211|249:257,1,75,2|2,0:0|0:0,0:0:0:0:
291,313,53760,2,0,L|380:332,1,75,8|0,0:0|0:0,0:0:0:0:
460,352,54071,5,2,0:0:0:0:
508,268,54226,1,0,0:0:0:0:
488,172,54382,2,0,L|470:88,1,75,8|0,0:0|0:0,0:0:0:0:
400,164,54693,2,0,B|368:184|368:184|331:192,1,75,2|2,0:0|0:0,0:0:0:0:
232,192,55004,2,0,B|195:184|195:184|163:164,1,75,8|0,0:0|0:0,0:0:0:0:
152,68,55315,6,0,P|88:98|72:192,1,150,4|8,0:0|0:0,0:0:0:0:
92,264,55781,1,0,0:0:0:0:
172,321,55936,2,0,L|253:312,1,75,2|2,0:0|0:0,0:0:0:0:
335,353,56247,2,0,L|416:344,1,75,8|0,0:0|0:0,0:0:0:0:
482,279,56558,6,0,P|465:187|405:160,1,150,2|8,0:0|0:0,0:0:0:0:
340,216,57024,1,0,0:0:0:0:
267,281,57180,2,0,P|209:236|206:164,1,150,2|8,0:0|0:0,0:0:0:0:
250,76,57646,1,0,0:0:0:0:
159,80,57802,6,0,P|122:84|85:80,1,75,4|0,0:0|0:0,0:0:0:0:
96,192,58112,2,0,P|100:229|96:266,1,75,8|0,0:0|0:0,0:0:0:0:
208,244,58423,2,0,P|245:239|282:243,1,75,2|2,0:0|0:0,0:0:0:0:
268,132,58734,2,0,P|263:94|267:57,1,75,8|0,0:0|0:0,0:0:0:0:
168,78,59045,5,2,0:0:0:0:
168,78,59201,1,0,0:0:0:0:
110,157,59356,2,0,P|94:191|89:245,1,75,8|0,0:0|0:0,0:0:0:0:
84,325,59667,2,0,P|118:341|172:346,1,75,2|2,0:0|0:0,0:0:0:0:
252,352,59978,2,0,P|268:318|273:264,1,75,8|0,0:0|0:0,0:0:0:0:
245,187,60289,6,0,P|222:104|243:43,1,150,4|8,0:0|0:0,0:0:0:0:
310,115,60755,1,0,0:0:0:0:
357,200,60910,2,0,L|397:293,1,75,2|2,0:0|0:0,0:0:0:0:
307,348,61221,2,0,L|267:254,1,75,8|0,0:0|0:0,0:0:0:0:
245,187,61532,6,0,B|176:218|176:150|101:185,1,150,2|8,0:0|0:0,0:0:0:0:
19,238,61998,1,0,0:0:0:0:
19,140,62154,2,0,B|23:104|23:104|43:68,1,75,2|2,0:0|0:0,0:0:0:0:
138,85,62465,2,0,B|171:103|171:103|207:107,1,75,8|0,0:0|0:0,0:3:0:0:
305,108,62776,6,0,L|389:108,1,75,4|0,0:0|0:0,0:0:0:0:
477,110,63087,2,0,P|490:153|465:253,1,150,8|0,0:0|0:0,0:0:0:0:
404,328,63553,1,2,0:0:0:0:
307,340,63708,2,0,L|231:340,1,75,8|0,0:0|0:0,0:0:0:0:
195,249,64019,2,0,P|264:225|334:248,1,150,2|8,0:0|0:0,0:0:0:0:
110,342,64641,6,0,L|70:273,1,75,2|2,0:0|0:0,0:0:0:0:
69,179,64952,2,0,L|106:114,1,75,8|0,0:0|0:0,0:0:0:0:
193,70,65263,6,0,P|237:127|319:137,1,150,4|8,0:0|0:0,0:0:0:0:
290,42,65729,1,0,0:0:0:0:
384,19,65884,2,0,P|450:23|485:42,1,75,2|2,0:0|0:0,0:0:0:0:
495,115,66195,2,0,P|458:170|424:190,1,75,8|0,0:0|0:0,0:0:0:0:
367,224,66506,2,0,P|339:291|366:360,1,150,2|8,0:0|0:0,0:0:0:0:
232,168,67128,6,0,L|140:168,1,75,2|2,0:0|0:0,0:0:0:0:
108,68,67439,2,0,L|200:68,1,75,8|0,0:0|0:0,0:0:0:0:
280,68,67750,6,0,P|316:92|336:136,1,75,4|0,0:0|0:0,0:0:0:0:
360,212,68061,1,8,0:0:0:0:
360,212,68216,1,0,0:0:0:0:
416,292,68372,2,0,P|464:280|488:264,1,75,2|2,0:0|0:0,0:0:0:0:
360,212,68682,2,0,P|312:224|288:239,1,75,8|0,0:0|0:0,0:0:0:0:
204,284,68993,6,0,P|165:271|131:234,1,75,2|0,0:0|0:0,0:0:0:0:
120,152,69304,1,8,0:0:0:0:
36,200,69460,1,0,0:0:0:0:
60,296,69615,2,0,P|110:345|192:372,1,150,2|8,0:0|0:0,0:0:0:0:
345,248,70237,6,0,P|292:187|215:181,1,150,4|8,0:0|0:0,0:0:0:0:
248,279,70703,1,0,0:0:0:0:
322,349,70859,2,0,P|401:334|444:270,1,150,2|8,0:0|0:0,0:0:0:0:
431,183,71325,1,0,0:0:0:0:
333,126,71480,6,0,L|290:126,3,37.5,2|0|0|0,0:0|0:0|0:0|0:0,0:0:0:0:
264,95,71791,2,0,L|171:93,1,75,8|2,0:0|0:0,0:0:0:0:
154,217,72102,2,0,P|252:264|350:216,1,225,8|2,0:0|0:0,0:0:0:0:
403,135,72724,6,0,P|443:189|446:212,1,75,4|0,0:0|0:0,0:0:0:0:
392,277,73035,2,0,P|351:222|348:199,1,75,8|0,0:0|0:0,0:0:0:0:
225,138,73346,2,0,P|184:192|181:215,1,75,2|2,0:0|0:0,0:0:0:0:
236,280,73657,2,0,P|276:225|279:202,1,75,8|0,0:0|0:0,0:0:0:0:
315,130,73967,5,2,0:0:0:0:
315,130,74123,1,0,0:0:0:0:
255,53,74278,2,0,L|165:45,1,75,8|0,0:0|0:0,0:0:0:0:
91,127,74589,2,0,L|165:133,1,75,2|2,0:0|0:0,0:0:0:0:
236,229,74900,2,0,L|146:221,1,75,8|0,0:0|0:0,0:0:0:0:
193,314,75211,6,0,P|266:321|327:264,1,150,4|8,0:0|0:0,0:0:0:0:
378,194,75677,1,0,0:0:0:0:
366,97,75833,2,0,B|332:108|332:108|298:139,1,75,2|2,0:0|0:0,0:0:0:0:
378,194,76144,2,0,B|412:183|412:183|446:152,1,75,8|0,0:0|0:0,0:0:0:0:
449,60,76454,6,0,P|401:14|294:37,1,150,2|8,0:0|0:0,0:0:0:0:
243,76,76921,1,0,0:0:0:0:
164,133,77076,2,0,P|91:137|36:89,1,150,2|8,0:0|0:0,0:0:0:0:
185,216,77698,6,0,L|208:287,1,75,4|0,0:0|0:0,0:0:0:0:
306,286,78009,2,0,L|329:214,1,75,8|0,0:0|0:0,0:0:0:0:
379,94,78320,2,0,L|402:165,1,75,2|2,0:0|0:0,0:0:0:0:
258,164,78631,2,0,L|281:92,1,75,8|0,0:0|0:0,0:0:0:0:
332,9,78941,5,2,0:0:0:0:
427,31,79097,1,0,0:0:0:0:
461,121,79252,2,0,P|451:161|424:212,1,75,8|0,0:0|0:0,0:0:0:0:
398,281,79563,2,0,B|326:313|326:241|255:280,1,150,2|8,0:0|0:0,0:0:0:0:
72,346,80185,6,0,B|63:311|63:311|71:272,1,75,4|0,0:0|0:0,0:0:0:0:
149,214,80496,2,0,B|158:179|158:179|150:140,1,75,8|0,0:0|0:0,0:0:0:0:
90,63,80807,1,2,0:0:0:0:
170,8,80962,1,2,0:0:0:0:
231,83,81118,2,0,L|288:144,1,75,8|0,0:0|0:0,0:0:0:0:
342,215,81429,2,0,B|420:238|420:238|454:231|478:199,1,150,2|8,0:0|0:0,0:0:0:0:
302,290,82050,6,0,L|217:315,1,75,2|0,0:0|0:0,0:0:0:0:
140,350,82361,2,0,P|100:346|68:328,1,75,8|0,0:0|0:0,0:0:0:0:
36,237,82672,6,0,P|52:153|108:117,1,150,4|8,0:0|0:0,0:0:0:0:
129,212,83138,1,0,0:0:0:0:
208,269,83294,2,0,P|243:274|287:263,1,75,2|2,0:0|0:0,0:0:0:0:
346,338,83605,2,0,P|367:310|380:266,1,75,8|0,0:0|0:0,0:0:0:0:
476,255,83916,6,8,P|462:222|431:189,1,75,2|0,0:0|0:0,0:0:0:0:
469,101,84226,2,0,P|434:95|390:107,1,75,8|0,0:0|0:0,0:0:0:0:
317,163,84537,2,0,P|251:184|171:158,1,150,2|8,0:0|0:0,0:0:0:0:
36,23,85159,6,0,L|14:111,1,75,4|0,0:0|0:0,0:0:0:0:
80,198,85470,2,0,L|102:110,1,75,8|0,0:0|0:0,0:0:0:0:
199,60,85781,2,0,L|177:148,1,75,2|2,0:0|0:0,0:0:0:0:
243,235,86092,2,0,L|265:147,1,75,8|0,0:0|0:0,0:0:0:0:
286,67,86403,5,4,0:0:0:0:
390,231,86714,1,4,0:0:0:0:
222,328,87024,1,0,0:0:0:0:
116,164,87335,6,0,P|190:49|189:182,1,360
