osu file format v14

[General]
AudioFilename: dayxday.mp3
AudioLeadIn: 0
PreviewTime: 52750
Countdown: 0
SampleSet: Soft
StackLeniency: 0.5
Mode: 0
LetterboxInBreaks: 0
WidescreenStoryboard: 1

[Editor]
Bookmarks: 29842,42025
DistanceSpacing: 1
BeatDivisor: 4
GridSize: 4
TimelineZoom: 1.4

[Metadata]
Title:DAYxDAY (TV Size)
TitleUnicode:DAY☓DAY(TV Size)
Artist:BLUE ENCOUNT
ArtistUnicode:BLUE ENCOUNT
Creator:Atsuro
Version:Extra
Source:銀魂゜
Tags:Bandai Namco Pictures Opening Gintama゜(2015)
BeatmapID:680652
BeatmapSetID:303757

[Difficulty]
HPDrainRate:7
CircleSize:4.2
OverallDifficulty:8.5
ApproachRate:9.3
SliderMultiplier:1.75
SliderTickRate:1

[Events]
//Background and Video events
Video,90,"vid.avi"
0,0,"bg.jpeg",0,0
//Break Periods
2,7017,8750
//Storyboard Layer 0 (Background)
//Storyboard Layer 1 (Fail)
//Storyboard Layer 2 (Pass)
//Storyboard Layer 3 (Foreground)
//Storyboard Sound Samples

[TimingPoints]
600,310.880829015544,4,1,1,65,1,0
600,-125,4,2,1,65,0,0
3087,-90.9090909090909,4,2,1,65,0,0
3397,-90.9090909090909,4,2,1,35,0,0
3708,-90.9090909090909,4,2,1,40,0,0
4019,-90.9090909090909,4,2,1,50,0,0
4330,-90.9090909090909,4,2,1,60,0,0
9304,-90.9090909090909,4,2,1,65,0,0
19952,-90.9090909090909,4,2,1,40,0,0
20496,-111.111111111111,4,2,1,50,0,0
30444,-100,4,2,1,50,0,0
39926,-100,4,2,1,40,0,0
40392,-111.111111111111,4,2,1,50,0,0
45366,-100,4,2,1,50,0,0
47387,-100,4,2,1,40,0,0
47853,-90.9090909090908,4,2,1,65,0,0
51273,-90.9090909090908,4,2,1,45,0,0
51584,-90.9090909090908,4,2,1,65,0,0
52827,-83.3333333333333,4,2,1,70,0,1
72102,-83.3333333333333,4,2,1,45,0,1
72413,-83.3333333333333,4,2,1,45,0,0
72724,-83.3333333333333,4,2,1,70,0,1
85470,-83.3333333333333,4,2,1,50,0,1
86403,-83.3333333333333,4,2,1,70,0,0
87024,-100,4,2,1,40,0,0
87335,-125,4,2,1,25,0,0

[Colours]
Combo1 : 18,124,255
Combo2 : 180,202,214

[HitObjects]
448,28,600,6,0,B|464:89|464:89|425:166,1,140,4|0,0:1|0:0,0:0:0:0:
146,328,1221,2,0,P|88:294|85:227,1,140,4|0,0:1|0:0,0:0:0:0:
428,227,1843,6,0,P|425:294|366:328,1,140,4|0,0:1|0:0,0:0:0:0:
82,157,2465,2,0,B|47:89|47:89|64:28,1,140,4|0,0:1|0:0,0:0:0:0:
256,214,3087,5,4,0:1:0:0:
174,355,3242,1,2,0:0:0:0:
337,355,3397,2,0,L|392:354,3,48.1250014686585,2|2|2|2,0:0|0:0|0:0|0:0,0:0:0:0:
412,342,3708,1,2,0:0:0:0:
432,316,3786,1,2,0:0:0:0:
448,287,3864,1,2,0:0:0:0:
458,256,3941,1,2,0:0:0:0:
461,223,4019,1,8,0:0:0:0:
455,190,4097,1,8,0:0:0:0:
443,160,4175,1,8,0:0:0:0:
427,131,4252,1,8,0:0:0:0:
402,108,4330,5,2,0:0:0:0:
362,134,4408,1,2,0:0:0:0:
317,151,4486,1,2,0:0:0:0:
269,157,4563,1,2,0:0:0:0:
221,151,4641,1,8,0:0:0:0:
176,134,4719,1,8,0:0:0:0:
137,106,4796,1,8,0:0:0:0:
52,220,4952,5,0,0:0:0:0:
256,192,5030,12,0,6817,0:0:0:0:
256,192,9304,5,8,0:0:0:0:
303,107,9460,2,0,P|257:95|211:107,1,96.250002937317
256,316,9770,1,8,0:0:0:0:
336,184,9926,1,8,0:0:0:0:
176,184,10081,1,8,0:0:0:0:
420,276,10392,6,0,P|444:183|408:92,1,192.500005874634,4|2,0:0|0:0,0:0:0:0:
291,73,10859,2,0,L|199:117,1,96.250002937317,8|0,0:0|0:0,0:0:0:0:
62,186,11169,1,2,0:0:0:0:
88,345,11325,1,2,0:0:0:0:
240,268,11480,2,0,P|300:280|332:296,1,96.250002937317,8|0,0:0|0:0,0:0:0:0:
480,208,11791,6,0,P|420:220|388:236,1,96.250002937317,2|0,0:0|0:0,0:0:0:0:
256,344,12102,1,8,0:0:0:0:
288,184,12258,1,0,0:0:0:0:
352,328,12413,1,2,0:0:0:0:
172,292,12568,1,2,0:0:0:0:
208,104,12724,1,8,0:0:0:0:
328,272,12879,6,0,P|412:272|492:192,1,192.500005874634,4|0,0:0|0:0,0:0:0:0:
408,60,13346,2,0,L|292:24,1,96.250002937317,8|0,0:0|0:0,0:0:0:0:
220,144,13656,2,0,P|172:168|128:172,1,96.250002937317,2|2,0:0|0:0,0:0:0:0:
124,8,13967,2,0,P|168:37|194:73,1,96.250002937317,8|0,0:0|0:0,0:0:0:0:
188,284,14278,5,2,0:0:0:0:
71,162,14434,1,0,0:0:0:0:
189,165,14589,1,8,0:0:0:0:
70,284,14745,1,0,0:0:0:0:
131,105,14900,1,2,0:0:0:0:
229,224,15055,1,2,0:0:0:0:
31,223,15211,1,8,0:0:0:0:
141,363,15366,6,0,P|241:347|257:227,1,192.500005874634,4|0,0:0|0:0,0:0:0:0:
208,104,15833,2,0,P|160:152|148:192,1,96.250002937317,8|0,0:0|0:0,0:0:0:0:
361,177,16144,2,0,P|340:134|304:104,1,96.250002937317,2|2,0:0|0:0,0:0:0:0:
375,314,16454,2,0,B|417:293|417:293|451:254,1,96.250002937317,8|0,0:0|0:0,0:0:0:0:
464,64,16765,5,2,0:0:0:0:
361,177,16921,1,0,0:0:0:0:
256,64,17076,1,8,0:0:0:0:
151,177,17232,1,0,0:0:0:0:
48,64,17387,2,0,P|23:108|10:162,1,96.250002937317,2|2,0:0|0:0,0:0:0:0:
80,352,17698,2,0,L|188:296,1,96.250002937317,8|0,0:0|0:0,0:0:0:0:
323,219,18009,5,12,0:0:0:0:
421,327,18164,1,2,0:0:0:0:
276,359,18320,1,0,0:0:0:0:
388,144,18475,1,12,0:0:0:0:
498,265,18631,1,2,0:0:0:0:
337,300,18786,1,0,0:0:0:0:
456,64,18941,1,12,0:0:0:0:
323,219,19097,6,8,P|236:255|149:219,1,192.500005874634,12|12,0:0|0:0,0:0:0:0:
114,67,19563,1,12,0:0:0:0:
236,169,19719,1,0,0:0:0:0:
367,67,19874,1,8,0:0:0:0:
411,50,19951,1,2,0:0:0:0:
456,64,20029,1,2,0:0:0:0:
483,102,20107,1,2,0:0:0:0:
481,149,20185,1,2,0:0:0:0:
462,193,20262,1,2,0:0:0:0:
436,234,20340,1,2,0:0:0:0:
403,269,20418,1,2,0:0:0:0:
365,299,20496,6,0,P|291:320|205:293,1,157.499995193482,4|8,0:0|0:0,0:0:0:0:
104,184,20962,1,0,0:0:0:0:
198,152,21118,2,0,P|202:188|178:256,1,78.7499975967408,2|2,0:0|0:0,0:0:0:0:
10,216,21429,2,0,P|6:180|30:112,1,78.7499975967408,8|0,0:0|0:0,0:0:0:0:
182,28,21739,5,2,0:0:0:0:
127,123,21895,1,0,0:0:0:0:
72,28,22050,1,8,0:0:0:0:
208,108,22206,1,0,0:0:0:0:
344,28,22361,1,2,0:0:0:0:
344,28,22517,1,2,0:0:0:0:
476,108,22672,2,0,P|484:148|472:196,1,78.7499975967408,8|0,0:0|0:0,0:0:0:0:
364,316,22983,6,0,B|288:352|288:280|212:316,1,157.499995193482,2|8,0:0|0:0,0:0:0:0:
80,368,23449,2,0,P|110:309|116:276,1,78.7499975967408,0|2,0:0|0:0,0:0:0:0:
152,176,23760,1,2,0:0:0:0:
8,148,23916,2,0,P|43:203|69:225,1,78.7499975967408,8|0,0:0|0:0,0:0:0:0:
212,260,24226,6,0,P|256:184|240:120,1,157.499995193482,2|8,0:0|0:0,0:0:0:0:
152,176,24693,1,0,0:0:0:0:
337,213,24848,1,2,0:0:0:0:
337,213,25004,1,2,0:0:0:0:
372,116,25159,2,0,L|274:94,1,78.7499975967408,8|0,0:0|0:0,0:0:0:0:
298,283,25470,6,0,P|374:285|416:223,1,157.499995193482,2|8,0:0|0:0,0:0:0:0:
256,156,25936,1,0,0:0:0:0:
160,276,26092,2,0,L|96:360,1,78.7499975967408,2|2,0:0|0:0,0:0:0:0:
116,208,26403,1,8,0:0:0:0:
228,316,26558,1,0,0:0:0:0:
256,156,26713,6,0,P|204:96|116:76,1,157.499995193482,2|8,0:0|0:0,0:0:0:0:
21,194,27180,1,0,0:0:0:0:
128,252,27335,2,0,L|232:252,1,78.7499975967408,2|2,0:0|0:0,0:0:0:0:
321,358,27646,2,0,P|284:326|267:286,1,78.7499975967408,8|0,0:0|0:0,0:0:0:0:
396,220,27957,6,0,P|419:146|395:72,1,157.499995193482,2|8,0:0|0:0,0:0:0:0:
256,21,28423,1,0,0:0:0:0:
256,176,28579,1,2,0:0:0:0:
256,176,28734,1,2,0:0:0:0:
164,100,28890,1,8,0:0:0:0:
347,100,29045,1,0,0:0:0:0:
256,328,29201,5,2,0:0:0:0:
167,173,29356,1,2,0:0:0:0:
345,173,29511,1,8,0:0:0:0:
152,288,29667,1,4,0:0:0:0:
152,288,29978,5,8,0:0:0:0:
256,104,30133,1,8,0:0:0:0:
360,288,30289,1,8,0:0:0:0:
152,288,30444,6,0,P|104:257|82:221,1,87.5,4|0,0:0|0:0,0:0:0:0:
141,49,30755,2,0,P|189:80|211:116,1,87.5,8|0,0:0|0:0,0:0:0:0:
312,256,31066,2,0,P|264:225|242:189,1,87.5,2|2,0:0|0:0,0:0:0:0:
301,17,31377,2,0,P|349:48|371:84,1,87.5,8|0,0:0|0:0,0:0:0:0:
411,305,31688,5,2,0:0:0:0:
255,305,31843,1,2,0:0:0:0:
332,131,31998,1,8,0:0:0:0:
335,279,32154,1,0,0:0:0:0:
208,204,32309,2,0,L|396:204,1,175,2|8,0:0|0:0,0:0:0:0:
280,88,32776,1,0,0:0:0:0:
132,204,32931,6,0,B|81:226|81:226|26:217,1,87.5,2|0,0:0|0:0,0:0:0:0:
119,112,33242,1,8,0:0:0:0:
273,140,33397,2,0,P|332:121|359:85,1,87.5,0|2,0:0|0:0,0:0:0:0:
205,67,33708,1,2,0:0:0:0:
226,224,33864,2,0,P|251:257|294:279,1,87.5,8|0,0:0|0:0,0:0:0:0:
418,149,34175,6,0,P|375:153|335:180,1,87.5,2|0,0:0|0:0,0:0:0:0:
277,355,34486,1,8,0:0:0:0:
373,266,34641,1,0,0:0:0:0:
268,152,34796,1,2,0:0:0:0:
297,279,34952,1,2,0:0:0:0:
418,149,35107,2,0,P|375:153|335:180,1,87.5,8|0,0:0|0:0,0:0:0:0:
184,325,35418,6,0,P|103:312|65:218,1,175,4|8,0:0|0:0,0:0:0:0:
180,112,35884,1,0,0:0:0:0:
248,207,36040,2,0,L|157:231,1,87.5,2|2,0:0|0:0,0:0:0:0:
290,99,36351,2,0,P|326:124|355:169,1,87.5,8|0,0:0|0:0,0:0:0:0:
304,332,36662,6,0,L|108:296,1,175,2|8,0:0|0:0,0:0:0:0:
124,140,37128,1,0,0:0:0:0:
284,252,37283,2,0,L|192:236,1,87.5,2|2,0:0|0:0,0:0:0:0:
96,60,37594,2,0,L|188:76,1,87.5,8|0,0:0|0:0,0:0:0:0:
400,124,37905,6,0,P|329:168|259:123,1,175,2|8,0:0|0:0,0:0:0:0:
332,16,38372,1,0,0:0:0:0:
479,136,38527,2,0,P|486:189|465:242,1,87.5,2|2,0:0|0:0,0:0:0:0:
358,347,38838,2,0,L|279:312,1,87.5,8|0,0:0|0:0,0:0:0:0:
124,220,39149,5,2,0:0:0:0:
124,220,39304,1,2,0:0:0:0:
290,146,39460,2,0,P|307:230|279:311,1,175,4|0,0:0|0:0,0:0:0:0:
113,344,39926,1,8,0:0:0:0:
77,319,40003,1,8,0:0:0:0:
50,284,40081,1,8,0:0:0:0:
34,244,40159,1,8,0:0:0:0:
32,200,40236,1,8,0:0:0:0:
42,158,40314,1,8,0:0:0:0:
66,122,40392,6,0,P|103:82|151:62,1,78.7499975967408,6|2,0:0|0:0,0:0:0:0:
264,172,40703,6,0,P|210:159|169:128,1,78.7499975967408,8|0,0:0|0:0,0:0:0:0:
357,72,41014,1,2,0:0:0:0:
411,180,41169,1,2,0:0:0:0:
269,250,41325,1,0,0:0:0:0:
338,143,41480,1,8,0:0:0:0:
472,228,41636,5,2,0:0:0:0:
347,221,41791,1,2,0:0:0:0:
357,72,41947,2,0,P|439:100|458:113,1,78.7499975967408,8|0,0:0|0:0,0:0:0:0:
435,260,42258,2,0,P|398:275|360:283,1,78.7499975967408,2|2,0:0|0:0,0:0:0:0:
277,136,42568,2,0,P|282:188|267:239,1,78.7499975967408,8|0,0:0|0:0,0:0:0:0:
101,346,42879,6,4,P|96:294|111:243,1,78.7499975967408,4|2,0:0|0:0,0:0:0:0:
190,111,43190,1,8,0:0:0:0:
304,227,43346,1,0,0:0:0:0:
304,111,43501,1,2,0:0:0:0:
190,227,43656,1,2,0:0:0:0:
246,40,43812,1,0,0:0:0:0:
304,227,43967,1,8,0:0:0:0:
153,115,44123,5,2,0:0:0:0:
338,115,44278,1,2,0:0:0:0:
190,227,44434,2,0,P|134:243|90:243,1,78.7499975967408,8|0,0:0|0:0,0:0:0:0:
22,128,44745,1,2,0:0:0:0:
29,95,44822,1,2,0:0:0:0:
47,68,44900,1,2,0:0:0:0:
73,47,44978,1,2,0:0:0:0:
104,36,45055,1,8,0:0:0:0:
104,36,45366,6,0,L|168:120,1,87.5,4|0,0:0|0:0,0:0:0:0:
354,105,45677,2,0,L|408:36,1,87.5,8|0,0:0|0:0,0:0:0:0:
176,180,45988,2,0,P|255:212|334:178,1,175,2|8,0:0|0:0,0:0:0:0:
256,132,46454,1,0,0:0:0:0:
177,267,46610,5,2,0:0:0:0:
333,270,46765,1,0,0:0:0:0:
201,364,46921,1,8,0:0:0:0:
256,202,47076,1,0,0:0:0:0:
306,366,47232,1,2,0:0:0:0:
116,354,47387,1,8,0:0:0:0:
89,331,47465,1,2,0:0:0:0:
71,301,47543,1,2,0:0:0:0:
64,267,47620,1,2,0:0:0:0:
67,232,47698,1,2,0:0:0:0:
81,200,47776,1,2,0:0:0:0:
111,176,47853,6,0,P|152:148|204:152,1,96.250002937317,4|0,0:0|0:0,0:0:0:0:
401,208,48164,2,0,P|360:236|308:232,1,96.250002937317,8|0,0:0|0:0,0:0:0:0:
188,38,48475,2,0,P|239:62|265:116,1,96.250002937317,8|0,0:0|0:0,0:0:0:0:
322,344,48786,2,0,P|271:320|245:266,1,96.250002937317,8|0,0:0|0:0,0:0:0:0:
367,38,49097,6,0,P|373:102|334:158,1,96.250002937317,8|0,0:0|0:0,0:0:0:0:
143,344,49408,2,0,P|137:280|176:224,1,96.250002937317,8|0,0:0|0:0,0:0:0:0:
464,188,49719,1,8,0:0:0:0:
402,363,49874,1,0,0:0:0:0:
344,188,50030,1,8,0:0:0:0:
494,296,50185,1,0,0:0:0:0:
308,296,50340,6,0,P|228:252|236:148,1,192.500005874634,6|8,0:0|0:0,0:0:0:0:
376,161,50807,1,2,0:0:0:0:
166,320,50962,2,0,B|62:320|62:320|14:232,1,192.500005874634,6|8,0:0|0:0,0:0:0:0:
22,212,51351,1,8,0:0:0:0:
24,183,51429,1,8,0:0:0:0:
26,154,51506,1,8,0:0:0:0:
28,125,51584,5,6,0:0:0:0:
188,212,51739,1,2,0:0:0:0:
256,40,51895,1,8,0:0:0:0:
324,212,52050,5,2,0:0:0:0:
484,125,52206,1,6,0:0:0:0:
64,52,52827,6,0,P|30:102|38:145,1,104.999996795654,4|0,0:0|0:0,0:0:0:0:
125,322,53138,2,0,L|226:250,1,104.999996795654,8|0,0:0|0:0,0:0:0:0:
315,55,53449,2,0,P|281:105|289:148,1,104.999996795654,2|2,0:0|0:0,0:0:0:0:
382,322,53760,2,0,L|483:250,1,104.999996795654,8|0,0:0|0:0,0:0:0:0:
500,80,54071,5,2,0:0:0:0:
332,135,54226,1,0,0:0:0:0:
448,196,54382,5,8,0:0:0:0:
393,28,54537,1,0,0:0:0:0:
264,172,54693,2,0,P|215:172|155:131,1,104.999996795654,2|2,0:0|0:0,0:0:0:0:
309,70,55004,1,8,0:0:0:0:
353,216,55159,1,0,0:0:0:0:
154,232,55315,6,0,P|94:190|73:148,1,104.999996795654,4|0,0:0|0:0,0:0:0:0:
200,41,55625,1,8,0:0:0:0:
272,194,55781,1,0,0:0:0:0:
272,194,55859,1,8,0:0:0:0:
272,194,55936,1,2,0:0:0:0:
327,66,56092,1,2,0:0:0:0:
132,157,56247,2,0,P|99:203|92:270,1,104.999996795654,8|0,0:0|0:0,0:0:0:0:
282,353,56558,6,0,P|329:322|347:174,1,209.999993591309,2|8,0:0|0:0,0:0:0:0:
259,32,57024,1,0,0:0:0:0:
259,32,57102,1,8,0:0:0:0:
259,32,57180,1,2,0:0:0:0:
176,164,57335,1,0,0:0:0:0:
336,164,57491,2,0,P|380:108|392:76,1,104.999996795654,8|0,0:0|0:0,0:0:0:0:
296,276,57802,6,0,L|400:344,1,104.999996795654,4|0,0:0|0:0,0:0:0:0:
216,108,58112,2,0,L|112:40,1,104.999996795654,8|0,0:0|0:0,0:0:0:0:
160,320,58423,2,0,P|200:280|220:208,1,104.999996795654,2|2,0:0|0:0,0:0:0:0:
352,64,58734,2,0,P|312:104|292:176,1,104.999996795654,8|0,0:0|0:0,0:0:0:0:
361,348,59045,5,2,0:0:0:0:
436,218,59200,1,2,0:0:0:0:
286,218,59356,1,8,0:0:0:0:
440,306,59511,1,0,0:0:0:0:
440,306,59589,1,8,0:0:0:0:
440,306,59667,1,2,0:0:0:0:
260,204,59822,1,0,0:0:0:0:
458,203,59977,1,8,0:0:0:0:
361,375,60133,1,2,0:0:0:0:
248,196,60289,6,0,P|315:156|349:156,1,104.999996795654,4|0,0:0|0:0,0:0:0:0:
506,307,60599,2,0,P|438:268|421:239,1,104.999996795654,8|0,0:0|0:0,0:0:0:0:
472,32,60910,2,0,L|455:140,1,104.999996795654,2|2,0:0|0:0,0:0:0:0:
358,321,61221,2,0,L|341:212,1,104.999996795654,8|0,0:0|0:0,0:0:0:0:
244,24,61532,6,0,B|199:127|283:127|243:227,1,209.999993591309,2|8,0:0|0:0,0:0:0:0:
192,368,61998,1,0,0:0:0:0:
192,368,62076,1,8,0:0:0:0:
192,368,62154,1,2,0:0:0:0:
144,224,62309,1,2,0:0:0:0:
316,328,62465,2,0,P|365:306|396:252,1,104.999996795654,8|0,0:0|0:0,0:0:0:0:
455,37,62776,6,0,L|386:116,1,104.999996795654,4|0,0:0|0:0,0:0:0:0:
260,266,63087,1,8,0:0:0:0:
293,106,63242,1,0,0:0:0:0:
293,106,63320,1,8,0:0:0:0:
293,106,63397,1,2,0:0:0:0:
414,208,63553,1,2,0:0:0:0:
244,316,63708,2,0,P|176:318|132:294,1,104.999996795654,8|0,0:0|0:0,0:0:0:0:
14,111,64019,6,0,B|81:29|81:29|209:15,1,209.999993591309,2|8,0:0|0:0,0:0:0:0:
312,108,64486,1,0,0:0:0:0:
312,108,64563,1,8,0:0:0:0:
312,108,64641,1,2,0:0:0:0:
161,218,64796,1,2,0:0:0:0:
348,218,64952,1,8,0:0:0:0:
197,108,65107,1,0,0:0:0:0:
256,286,65263,6,0,P|328:320|368:320,1,104.999996795654,4|0,0:0|0:0,0:0:0:0:
256,98,65574,2,0,P|184:64|143:64,1,104.999996795654,8|0,0:0|0:0,0:0:0:0:
336,192,65884,2,0,L|392:88,1,104.999996795654,2|2,0:0|0:0,0:0:0:0:
176,192,66195,2,0,L|120:296,1,104.999996795654,8|0,0:0|0:0,0:0:0:0:
256,98,66506,6,0,P|184:64|64:100,1,209.999993591309,2|8,0:0|0:0,0:0:0:0:
8,300,66973,1,0,0:0:0:0:
8,300,67050,1,8,0:0:0:0:
8,300,67128,2,0,L|112:328,1,104.999996795654,2|0,0:0|0:0,0:0:0:0:
288,360,67439,2,0,P|331:321|352:257,1,104.999996795654,8|0,0:0|0:0,0:0:0:0:
292,52,67750,5,4,0:0:0:0:
252,205,67905,1,0,0:0:0:0:
404,164,68061,1,8,0:0:0:0:
227,116,68216,1,0,0:0:0:0:
227,116,68294,1,8,0:0:0:0:
227,116,68372,1,2,0:0:0:0:
340,225,68527,1,2,0:0:0:0:
404,64,68682,1,8,0:0:0:0:
503,204,68838,1,0,0:0:0:0:
276,328,68993,6,0,P|208:292|188:224,1,104.999996795654,2|0,0:0|0:0,0:0:0:0:
32,225,69304,2,0,P|100:189|120:121,1,104.999996795654,8|0,0:0|0:0,0:0:0:0:
278,136,69615,2,0,B|194:120|198:56|198:56|278:8,1,209.999993591309,2|8,0:0|0:0,0:0:0:0:
357,124,70081,1,0,0:0:0:0:
184,244,70237,6,0,P|132:236|60:212,1,104.999996795654,6|0,0:0|0:0,0:0:0:0:
224,340,70548,2,0,P|276:332|348:308,1,104.999996795654,8|0,0:0|0:0,0:0:0:0:
348,308,70781,1,8,0:0:0:0:
364,296,70859,1,2,0:0:0:0:
364,115,71014,1,2,0:0:0:0:
273,211,71169,1,8,0:0:0:0:
452,196,71325,1,0,0:0:0:0:
333,41,71480,6,0,L|225:65,1,104.999996795654,6|0,0:0|0:0,0:0:0:0:
132,91,71713,1,0,0:0:0:0:
132,91,71791,2,0,P|77:143|71:194,1,104.999996795654,8|2,0:0|0:0,0:0:0:0:
160,328,72102,1,8,0:0:0:0:
208,350,72180,1,8,0:0:0:0:
259,351,72258,1,8,0:0:0:0:
306,326,72335,1,8,0:0:0:0:
352,302,72413,1,8,0:0:0:0:
403,303,72491,1,8,0:0:0:0:
450,326,72568,1,10,0:0:0:0:
220,224,72724,6,0,P|204:168|220:124,1,104.999996795654,4|0,0:0|0:0,0:0:0:0:
196,336,73035,2,0,L|84:362,1,104.999996795654,8|0,0:0|0:0,0:0:0:0:
292,224,73346,2,0,P|308:168|292:124,1,104.999996795654,2|2,0:0|0:0,0:0:0:0:
316,336,73656,2,0,L|428:362,1,104.999996795654,8|0,0:0|0:0,0:0:0:0:
500,168,73967,5,2,0:0:0:0:
395,264,74123,1,0,0:0:0:0:
324,128,74278,1,8,0:0:0:0:
429,32,74434,1,0,0:0:0:0:
395,264,74589,2,0,P|345:276|289:279,1,104.999996795654,2|2,0:0|0:0,0:0:0:0:
113,191,74900,2,0,P|163:203|219:206,1,104.999996795654,8|0,0:0|0:0,0:0:0:0:
340,98,75211,5,4,0:0:0:0:
172,95,75366,1,0,0:0:0:0:
303,198,75522,1,8,0:0:0:0:
255,38,75677,1,0,0:0:0:0:
255,38,75755,1,8,0:0:0:0:
255,38,75833,1,2,0:0:0:0:
310,221,75988,1,2,0:0:0:0:
159,103,76144,1,8,0:0:0:0:
352,106,76299,1,0,0:0:0:0:
202,221,76454,6,0,P|111:265|20:221,1,209.999993591309,2|8,0:0|0:0,0:0:0:0:
110,141,76921,1,0,0:0:0:0:
244,284,77076,2,0,P|296:308|376:308,1,104.999996795654,2|2,0:0|0:0,0:0:0:0:
300,108,77387,2,0,P|253:141|213:210,1,104.999996795654,8|0,0:0|0:0,0:0:0:0:
446,294,77698,6,0,P|460:236|436:167,1,104.999996795654,4|0,0:0|0:0,0:0:0:0:
308,32,78009,2,0,P|244:19|183:49,1,104.999996795654,8|0,0:0|0:0,0:0:0:0:
206,252,78320,2,0,P|256:264|306:250,1,104.999996795654,2|2,0:0|0:0,0:0:0:0:
61,192,78631,2,0,P|52:243|66:294,1,104.999996795654,8|0,0:0|0:0,0:0:0:0:
256,372,78941,5,2,0:0:0:0:
256,183,79097,1,0,0:0:0:0:
161,278,79252,1,8,0:0:0:0:
350,278,79408,1,0,0:0:0:0:
350,278,79486,1,8,0:0:0:0:
350,278,79563,1,0,0:0:0:0:
161,278,79719,1,2,0:0:0:0:
256,111,79874,1,8,0:0:0:0:
350,278,80030,1,0,0:0:0:0:
152,332,80185,6,0,P|96:309|73:253,1,104.999996795654,4|0,0:0|0:0,0:0:0:0:
137,40,80496,2,0,P|183:63|225:100,1,104.999996795654,8|0,0:0|0:0,0:0:0:0:
360,332,80807,2,0,P|416:309|439:253,1,104.999996795654,2|2,0:0|0:0,0:0:0:0:
375,40,81118,2,0,P|329:63|287:100,1,104.999996795654,8|0,0:0|0:0,0:0:0:0:
228,336,81429,6,2,P|326:323|343:226,1,209.999993591309,2|8,0:0|0:0,0:0:0:0:
256,100,81895,1,0,0:0:0:0:
256,100,81973,1,8,0:0:0:0:
256,100,82050,1,2,0:0:0:0:
178,225,82206,1,0,0:0:0:0:
256,68,82361,1,8,0:0:0:0:
333,225,82517,1,2,0:0:0:0:
258,39,82672,6,0,P|205:13|143:18,1,104.999996795654,4|0,0:0|0:0,0:0:0:0:
327,133,82983,2,0,P|379:158|441:153,1,104.999996795654,8|0,0:0|0:0,0:0:0:0:
454,152,83216,1,8,0:0:0:0:
482,139,83294,1,2,0:0:0:0:
405,42,83449,1,2,0:0:0:0:
244,173,83605,2,0,L|160:244,1,104.999996795654,8|0,0:0|0:0,0:0:0:0:
263,362,83916,6,0,P|275:302|259:258,1,104.999996795654,2|0,0:0|0:0,0:0:0:0:
131,113,84226,1,8,0:0:0:0:
61,309,84382,1,0,0:0:0:0:
61,309,84460,1,8,0:0:0:0:
61,309,84537,2,0,P|114:322|178:303,1,104.999996795654,2|0,0:0|0:0,0:0:0:0:
272,104,84848,2,0,P|234:143|218:208,1,104.999996795654,8|0,0:0|0:0,0:0:0:0:
388,352,85159,6,0,P|418:281|386:212,1,157.499995193482,4|0,0:0|0:0,0:0:0:0:
352,180,85470,2,0,L|288:180,3,52.4999983978272,8|8|0|0,0:0|0:0|0:0|0:0,0:0:0:0:
264,180,85781,1,2,0:0:0:0:
227,179,85858,1,2,0:0:0:0:
194,163,85936,1,2,0:0:0:0:
171,134,86014,1,2,0:0:0:0:
162,99,86091,1,8,0:0:0:0:
141,51,86169,1,8,0:0:0:0:
93,32,86247,1,8,0:0:0:0:
47,51,86325,1,8,0:0:0:0:
26,97,86403,5,4,0:0:0:0:
256,304,86713,1,4,0:0:0:0:
484,96,87024,1,0,0:0:0:0:
253,31,87335,6,0,B|195:45|175:117|204:168|256:192|256:192|308:216|332:266|313:337|255:352,1,420
