osu file format v14

[General]
AudioFilename: dayxday.mp3
AudioLeadIn: 0
PreviewTime: 52750
Countdown: 0
SampleSet: Soft
StackLeniency: 0.7
Mode: 0
LetterboxInBreaks: 0
WidescreenStoryboard: 0

[Editor]
Bookmarks: 25242,53836
DistanceSpacing: 1
BeatDivisor: 4
GridSize: 4
TimelineZoom: 1

[Metadata]
Title:DAYxDAY (TV Size)
TitleUnicode:DAY☓DAY(TV Size)
Artist:BLUE ENCOUNT
ArtistUnicode:BLUE ENCOUNT
Creator:Atsuro
Version:Easy
Source:銀魂゜
Tags:Bandai Namco Pictures Opening Gintama゜(2015)
BeatmapID:680650
BeatmapSetID:303757

[Difficulty]
HPDrainRate:2
CircleSize:2
OverallDifficulty:2
ApproachRate:3
SliderMultiplier:1
SliderTickRate:1

[Events]
//Background and Video events
Video,90,"vid.avi"
0,0,"bg.jpeg",0,0
//Break Periods
2,7017,7864
//Storyboard Layer 0 (Background)
//Storyboard Layer 1 (Fail)
//Storyboard Layer 2 (Pass)
//Storyboard Layer 3 (Foreground)
//Storyboard Sound Samples

[TimingPoints]
600,310.880829015544,4,2,1,65,1,0
20496,-100,4,2,1,50,0,0
47853,-100,4,2,1,65,0,0
52827,-100,4,2,1,70,0,1
72413,-100,4,2,1,70,0,0
72724,-100,4,2,1,70,0,1
86403,-100,4,2,1,70,0,0
87024,-100,4,2,1,40,0,0
87335,-100,4,2,1,25,0,0

[Colours]
Combo1 : 18,124,255
Combo2 : 180,202,214

[HitObjects]
196,312,600,6,0,P|156:264|160:128,1,200,4|4,0:1|0:1,0:0:0:0:
354,132,1843,2,0,P|368:229|316:312,1,200,4|4,0:1|0:1,0:0:0:0:
256,120,3087,6,0,L|256:8,2,100,4|8|8,0:1|0:0|0:0,0:0:0:0:
208,208,4019,2,0,P|256:220|304:207,1,100,8|8,0:0|0:0,0:0:0:0:
256,192,4641,12,0,6817,0:0:0:0:
72,236,9304,6,0,B|111:284|111:284|216:284,1,150,8|8,0:0|0:0,0:0:0:0:
400,268,10392,6,0,P|452:216|464:132,1,150,4|8,0:0|0:0,0:0:0:0:
384,84,11169,2,0,L|284:120,1,100,2|8,0:0|0:0,0:0:0:0:
280,216,11791,2,0,L|180:252,1,100,2|8,0:0|0:0,0:0:0:0:
92,280,12413,2,0,P|96:204|150:158,2,150,2|4|8,0:0|0:0|0:0,0:0:0:0:
171,340,13656,5,2,0:0:0:0:
271,340,13967,2,0,L|375:340,1,100,8|2,0:0|0:0,0:0:0:0:
445,279,14589,1,8,0:0:0:0:
490,190,14900,2,0,P|418:181|354:235,2,150,2|4|8,0:0|0:0|0:0,0:0:0:0:
480,90,16144,6,0,L|377:51,1,100,2|8,0:0|0:0,0:0:0:0:
292,28,16765,2,0,L|196:68,1,100,2|8,0:0|0:0,0:0:0:0:
112,116,17387,2,0,P|80:152|56:212,1,100,2|8,0:0|0:0,0:0:0:0:
80,296,18009,2,0,B|224:360|224:232|368:296,2,300,12|12|8,0:0|0:0|0:0,0:0:0:0:
36,100,20496,6,0,B|56:36|164:36|164:36|224:36,1,200,4|2,0:0|0:0,0:0:0:0:
312,36,21429,1,8,0:0:0:0:
408,68,21739,2,0,P|420:116|407:164,1,100,2|8,0:0|0:0,0:0:0:0:
376,260,22361,2,0,L|264:260,1,100,2|8,0:0|0:0,0:0:0:0:
203,192,22983,6,0,P|176:259|203:327,2,150,2|0|8,0:0|0:0|0:0,0:0:0:0:
256,104,24226,2,0,L|144:104,1,100,2|8,0:0|0:0,0:0:0:0:
108,16,24848,2,0,L|220:16,1,100,2|8,0:0|0:0,0:0:0:0:
308,24,25470,6,0,P|352:108|296:192,1,200,2|2,0:0|0:0,0:0:0:0:
205,231,26403,1,8,0:0:0:0:
285,290,26713,2,0,L|402:290,1,100,2|8,0:0|0:0,0:0:0:0:
474,246,27335,2,0,P|484:197|474:149,1,100,2|8,0:0|0:0,0:0:0:0:
372,133,27957,6,0,P|289:179|206:133,1,200,2|0,0:0|0:0,0:0:0:0:
290,79,28890,1,8,0:0:0:0:
385,44,29201,2,0,P|447:82|455:168,2,150,2|4|8,0:0|0:0|0:0,0:0:0:0:
290,79,30444,6,0,B|196:115|196:115|103:79,1,200,4|2,0:0|0:0,0:0:0:0:
16,28,31377,1,8,0:0:0:0:
16,128,31688,2,0,L|16:236,1,100,2|8,0:0|0:0,0:0:0:0:
104,276,32309,2,0,L|104:160,1,100,2|8,0:0|0:0,0:0:0:0:
200,152,32931,6,0,P|216:224|201:297,2,150,2|0|8,0:0|0:0|0:0,0:0:0:0:
152,64,34175,2,0,L|272:64,1,100,2|8,0:0|0:0,0:0:0:0:
352,64,34796,2,0,P|360:112|348:164,1,100,2|8,0:0|0:0,0:0:0:0:
300,248,35418,6,0,B|204:292|204:200|108:248,1,200,4|2,0:0|0:0,0:0:0:0:
28,308,36351,1,8,0:0:0:0:
12,208,36662,2,0,P|16:152|36:96,1,100,2|8,0:0|0:0,0:0:0:0:
104,44,37283,2,0,P|144:76|196:96,1,100,2|8,0:0|0:0,0:0:0:0:
276,144,37905,6,0,P|289:100|279:48,2,100,2|8|2,0:0|0:0|0:0,0:0:0:0:
224,228,38838,1,8,0:0:0:0:
280,312,39149,2,0,P|376:321|451:213,2,200,2|2|6,0:0|0:0|0:0,0:0:0:0:
116,192,41014,5,2,0:0:0:0:
276,72,41636,2,0,L|384:72,1,100,2|8,0:0|0:0,0:0:0:0:
356,172,42258,2,0,L|248:172,1,100,2|8,0:0|0:0,0:0:0:0:
155,172,42879,5,6,0:0:0:0:
256,344,43501,1,2,0:0:0:0:
356,172,44123,2,0,P|365:123|350:77,2,100,2|8|2,0:0|0:0|0:0,0:0:0:0:
281,238,45055,1,8,0:0:0:0:
186,271,45366,6,0,P|139:254|106:218,1,100,4|8,0:0|0:0,0:0:0:0:
107,117,45988,2,0,P|144:84|192:74,1,100,2|8,0:0|0:0,0:0:0:0:
278,125,46610,2,0,L|276:227,1,100,2|8,0:0|0:0,0:0:0:0:
357,283,47232,2,0,P|405:272|442:240,1,100,2|8,0:0|0:0,0:0:0:0:
471,138,47853,6,0,P|445:95|401:72,1,100,6|8,0:0|0:0,0:0:0:0:
301,81,48475,2,0,L|189:67,1,100,8|8,0:0|0:0,0:0:0:0:
223,167,49097,2,0,L|109:186,1,100,8|8,0:0|0:0,0:0:0:0:
24,192,49719,2,0,P|38:240|76:273,1,100,8|8,0:0|0:0,0:0:0:0:
156,332,50340,6,0,B|256:344|256:344|356:332,2,200,6|6|6,0:0|0:0|0:0,0:0:0:0:
204,244,51895,2,0,L|324:244,1,100,8|12,0:0|0:0,0:0:0:0:
436,92,52827,6,0,P|365:59|329:59,1,100,4|8,0:0|0:0,0:0:0:0:
260,116,53449,2,0,P|189:149|153:149,1,100,2|8,0:0|0:0,0:0:0:0:
72,120,54071,2,0,L|52:17,2,100,2|8|2,0:0|0:0|0:0,0:0:0:0:
92,216,55004,1,8,0:0:0:0:
148,299,55315,6,0,P|200:336|244:345,1,100,4|8,0:0|0:0,0:0:0:0:
334,346,55936,2,0,P|381:331|420:300,1,100,2|8,0:0|0:0,0:0:0:0:
480,219,56558,2,0,P|491:123|432:45,2,200,2|2|4,0:0|0:0|0:0,0:0:0:0:
386,182,58112,5,8,0:0:0:0:
298,133,58423,2,0,P|239:108|197:100,1,100,2|8,0:0|0:0,0:0:0:0:
108,131,59045,2,0,L|109:31,2,100,2|8|2,0:0|0:0|0:0,0:0:0:0:
108,231,59978,1,8,0:0:0:0:
149,321,60289,6,0,P|186:290|206:233,1,100,4|8,0:0|0:0,0:0:0:0:
305,243,60910,2,0,P|323:288|361:321,1,100,2|8,0:0|0:0,0:0:0:0:
458,297,61532,2,0,L|495:97,1,200,2|2,0:0|0:0,0:0:0:0:
423,30,62465,1,8,0:0:0:0:
343,91,62776,6,0,P|275:121|245:117,1,100,4|8,0:0|0:0,0:0:0:0:
172,57,63397,2,0,P|104:27|74:31,1,100,2|8,0:0|0:0,0:0:0:0:
18,109,64019,2,0,P|23:208|65:298,1,200,2|2,0:0|0:0,0:0:0:0:
153,346,64952,1,8,0:0:0:0:
240,298,65263,6,0,P|282:208|287:175,1,100,4|8,0:0|0:0,0:0:0:0:
373,165,65884,2,0,P|383:218|418:255,1,100,2|8,0:0|0:0,0:0:0:0:
473,171,66506,2,0,P|433:83|334:71,1,200,2|2,0:0|0:0,0:0:0:0:
256,128,67439,1,8,0:0:0:0:
173,69,67750,6,0,P|124:68|76:92,1,100,4|8,0:0|0:0,0:0:0:0:
32,180,68372,2,0,L|56:288,1,100,2|8,0:0|0:0,0:0:0:0:
128,344,68993,2,0,L|244:320,1,100,2|8,0:0|0:0,0:0:0:0:
320,288,69615,2,0,P|356:196|324:100,1,200,2|4,0:0|0:0,0:0:0:0:
256,32,70548,5,8,0:0:0:0:
185,103,70859,2,0,P|156:196|192:288,1,200,2|2,0:0|0:0,0:0:0:0:
256,364,71791,1,8,0:0:0:0:
320,288,72102,2,0,L|404:212,1,100,8|0,0:0|0:0,0:0:0:0:
488,184,72724,6,0,P|440:132|404:120,1,100,4|8,0:0|0:0,0:0:0:0:
432,24,73346,2,0,P|362:39|334:64,1,100,2|8,0:0|0:0,0:0:0:0:
260,112,73967,2,0,P|190:96|162:71,1,100,2|8,0:0|0:0,0:0:0:0:
92,143,74589,2,0,P|70:75|78:38,2,100,2|8|4,0:0|0:0|0:0,0:0:0:0:
134,233,75522,5,8,0:0:0:0:
207,300,75833,2,0,P|255:312|303:300,1,100,2|8,0:0|0:0,0:0:0:0:
384,239,76454,2,0,P|416:147|385:53,1,200,2|2,0:0|0:0,0:0:0:0:
292,16,77387,1,8,0:0:0:0:
220,84,77698,6,0,L|136:152,1,100,4|8,0:0|0:0,0:0:0:0:
80,224,78320,2,0,P|108:296|140:316,1,100,2|8,0:0|0:0,0:0:0:0:
216,344,78941,2,0,P|264:356|312:343,1,100,2|8,0:0|0:0,0:0:0:0:
264,256,79563,2,0,B|212:156|312:156|264:64,1,200,2|4,0:0|0:0,0:0:0:0:
172,32,80496,5,8,0:0:0:0:
128,124,80807,2,0,L|88:232,1,100,2|8,0:0|0:0,0:0:0:0:
100,320,81429,2,0,P|192:328|264:256,1,200,2|2,0:0|0:0,0:0:0:0:
312,168,82361,1,8,0:0:0:0:
360,256,82672,6,0,P|427:325|471:331,1,100,4|8,0:0|0:0,0:0:0:0:
500,256,83294,2,0,L|480:136,1,100,2|8,0:0|0:0,0:0:0:0:
444,64,83916,2,0,P|384:28|352:28,1,100,2|8,0:0|0:0,0:0:0:0:
272,84,84537,2,0,L|288:182,1,100,2|8,0:0|0:0,0:0:0:0:
200,228,85159,6,0,L|183:129,2,100,4|8|2,0:0|0:0|0:0,0:0:0:0:
220,328,86092,1,8,0:0:0:0:
320,328,86403,2,0,P|360:288|372:240,2,100,4|4|0,0:0|0:0|0:0,0:0:0:0:
220,328,87335,6,0,B|136:328|96:216|176:216|120:100|44:100,1,300
