osu file format v14

[General]
AudioFilename: 04 S.O.P.H.I.A.mp3
AudioLeadIn: 0
PreviewTime: 74182
Countdown: 0
SampleSet: Normal
StackLeniency: 0.7
Mode: 1
LetterboxInBreaks: 0
WidescreenStoryboard: 0

[Editor]
DistanceSpacing: 0.5
BeatDivisor: 4
GridSize: 32
TimelineZoom: 2.1

[Metadata]
Title:S.O.P.H.I.A
TitleUnicode:S.O.P.H.I.A
Artist:BLOOD STAIN CHILD
ArtistUnicode:BLOOD STAIN CHILD
Creator:game rock
Version:Oni
Source:
Tags:Epsilon Death Metal
BeatmapID:1182394
BeatmapSetID:559059

[Difficulty]
HPDrainRate:5
CircleSize:2
OverallDifficulty:5
ApproachRate:5
SliderMultiplier:1.4
SliderTickRate:1

[Events]
//Background and Video events
0,0,"Background1.jpg",0,100
//Break Periods
//Storyboard Layer 0 (Background)
//Storyboard Layer 1 (Fail)
//Storyboard Layer 2 (Pass)
//Storyboard Layer 3 (Foreground)
//Storyboard Sound Samples

[TimingPoints]
680,333.333333333333,4,1,0,50,1,0
12604,315.789473684211,4,1,0,80,1,0
42919,-100,4,1,0,80,0,1
53025,-100,4,1,0,80,0,0
74498,-100,4,1,0,80,0,1
94709,-100,4,1,0,80,0,0
125025,-100,4,1,0,40,0,0
134498,-100,4,1,0,80,0,0
135130,-100,4,1,0,80,0,1
142709,-100,4,1,0,80,0,0
145235,-100,4,1,0,80,0,1
164182,-100,4,1,0,80,0,0
168604,-100,4,1,0,40,0,0

[HitObjects]
256,192,678,5,0,0:0:0:0:
256,192,1179,1,0,0:0:0:0:
256,192,1346,1,8,0:0:0:0:
256,192,1679,1,8,0:0:0:0:
256,192,1846,1,0,0:0:0:0:
256,192,2013,1,8,0:0:0:0:
256,192,2346,1,0,0:0:0:0:
256,192,2513,1,8,0:0:0:0:
256,192,2846,1,0,0:0:0:0:
256,192,3013,1,8,0:0:0:0:
256,192,3179,1,8,0:0:0:0:
256,192,3346,1,0,0:0:0:0:
256,192,3679,1,0,0:0:0:0:
256,192,3846,1,8,0:0:0:0:
256,192,4013,1,8,0:0:0:0:
256,192,4346,1,0,0:0:0:0:
256,192,4513,1,0,0:0:0:0:
256,192,4679,1,8,0:0:0:0:
256,192,5013,1,8,0:0:0:0:
256,192,5179,1,0,0:0:0:0:
256,192,5346,1,8,0:0:0:0:
256,192,5513,1,8,0:0:0:0:
256,192,5679,1,0,0:0:0:0:
256,192,5846,1,8,0:0:0:0:
256,192,6013,1,0,0:0:0:0:
256,192,6346,1,0,0:0:0:0:
256,192,6513,1,0,0:0:0:0:
256,192,6679,1,8,0:0:0:0:
256,192,7013,1,8,0:0:0:0:
256,192,7179,1,0,0:0:0:0:
256,192,7346,1,8,0:0:0:0:
256,192,7679,1,0,0:0:0:0:
256,192,7846,1,8,0:0:0:0:
256,192,8179,1,0,0:0:0:0:
256,192,8346,1,8,0:0:0:0:
256,192,8513,1,8,0:0:0:0:
256,192,8679,1,8,0:0:0:0:
256,192,9013,1,0,0:0:0:0:
256,192,9179,1,8,0:0:0:0:
256,192,9513,1,0,0:0:0:0:
256,192,9679,1,8,0:0:0:0:
256,192,9846,1,0,0:0:0:0:
256,192,10013,1,8,0:0:0:0:
256,192,10346,1,0,0:0:0:0:
256,192,10513,1,8,0:0:0:0:
256,192,10846,1,0,0:0:0:0:
256,192,11013,1,8,0:0:0:0:
256,192,11179,1,8,0:0:0:0:
256,192,12596,5,4,0:0:0:0:
256,192,12761,1,0,0:0:0:0:
256,192,13077,1,0,0:0:0:0:
256,192,13235,1,8,0:0:0:0:
256,192,13551,1,0,0:0:0:0:
256,192,13709,1,0,0:0:0:0:
256,192,14025,1,0,0:0:0:0:
256,192,14340,1,0,0:0:0:0:
256,192,14498,1,8,0:0:0:0:
256,192,14814,1,0,0:0:0:0:
256,192,14972,1,8,0:0:0:0:
256,192,15130,1,0,0:0:0:0:
256,192,15288,1,0,0:0:0:0:
256,192,15604,1,0,0:0:0:0:
256,192,15761,1,8,0:0:0:0:
256,192,16077,1,0,0:0:0:0:
256,192,16235,1,0,0:0:0:0:
256,192,16551,1,8,0:0:0:0:
256,192,16867,1,0,0:0:0:0:
256,192,17025,1,8,0:0:0:0:
256,192,17182,1,0,0:0:0:0:
256,192,17261,1,0,0:0:0:0:
256,192,17340,1,8,0:0:0:0:
256,192,17498,1,8,0:0:0:0:
256,192,17656,1,0,0:0:0:0:
256,192,17814,1,0,0:0:0:0:
256,192,18130,1,0,0:0:0:0:
256,192,18288,1,8,0:0:0:0:
256,192,18604,1,0,0:0:0:0:
256,192,18761,1,0,0:0:0:0:
256,192,19077,1,0,0:0:0:0:
256,192,19393,1,0,0:0:0:0:
256,192,19551,1,8,0:0:0:0:
256,192,19867,1,0,0:0:0:0:
256,192,20025,1,8,0:0:0:0:
256,192,20182,1,0,0:0:0:0:
256,192,20340,1,0,0:0:0:0:
256,192,20656,1,0,0:0:0:0:
256,192,20814,1,8,0:0:0:0:
256,192,21130,1,0,0:0:0:0:
256,192,21288,1,0,0:0:0:0:
256,192,21604,1,8,0:0:0:0:
256,192,21919,1,0,0:0:0:0:
256,192,22077,1,8,0:0:0:0:
256,192,22235,1,0,0:0:0:0:
256,192,22314,1,0,0:0:0:0:
256,192,22393,1,8,0:0:0:0:
256,192,22551,1,8,0:0:0:0:
256,192,22709,1,4,0:0:0:0:
256,192,22867,1,4,0:0:0:0:
256,192,23025,1,4,0:0:0:0:
256,192,23340,1,0,0:0:0:0:
256,192,23656,1,0,0:0:0:0:
256,192,23972,1,8,0:0:0:0:
256,192,24288,1,0,0:0:0:0:
256,192,24604,1,0,0:0:0:0:
256,192,24919,1,0,0:0:0:0:
256,192,25077,1,0,0:0:0:0:
256,192,25235,1,8,0:0:0:0:
256,192,25551,1,0,0:0:0:0:
256,192,25867,1,0,0:0:0:0:
256,192,26182,1,0,0:0:0:0:
256,192,26498,1,8,0:0:0:0:
256,192,26814,1,0,0:0:0:0:
256,192,27130,1,0,0:0:0:0:
256,192,27446,1,8,0:0:0:0:
256,192,27761,1,4,0:0:0:0:
256,192,27919,1,4,0:0:0:0:
256,192,28077,1,4,0:0:0:0:
256,192,28393,1,0,0:0:0:0:
256,192,28709,1,0,0:0:0:0:
256,192,29025,1,8,0:0:0:0:
256,192,29340,1,0,0:0:0:0:
256,192,29656,1,0,0:0:0:0:
256,192,29972,1,0,0:0:0:0:
256,192,30130,1,0,0:0:0:0:
256,192,30288,1,8,0:0:0:0:
256,192,30604,1,0,0:0:0:0:
256,192,30919,1,0,0:0:0:0:
256,192,31235,1,0,0:0:0:0:
256,192,31551,1,8,0:0:0:0:
256,192,31867,1,0,0:0:0:0:
256,192,32025,1,0,0:0:0:0:
256,192,32104,1,0,0:0:0:0:
256,192,32182,1,8,0:0:0:0:
256,192,32340,1,0,0:0:0:0:
256,192,32498,1,8,0:0:0:0:
256,192,32814,1,4,0:0:0:0:
256,192,32972,1,8,0:0:0:0:
256,192,33130,1,0,0:0:0:0:
256,192,33288,1,0,0:0:0:0:
256,192,33446,1,8,0:0:0:0:
256,192,33761,1,0,0:0:0:0:
256,192,33919,1,8,0:0:0:0:
256,192,34235,1,0,0:0:0:0:
256,192,34393,1,8,0:0:0:0:
256,192,34551,1,0,0:0:0:0:
256,192,34709,1,8,0:0:0:0:
256,192,34788,1,8,0:0:0:0:
256,192,34867,1,0,0:0:0:0:
256,192,35025,1,0,0:0:0:0:
256,192,35182,1,8,0:0:0:0:
256,192,35340,1,0,0:0:0:0:
256,192,35419,1,0,0:0:0:0:
256,192,35498,1,0,0:0:0:0:
256,192,35656,1,8,0:0:0:0:
256,192,35814,1,0,0:0:0:0:
256,192,35972,1,8,0:0:0:0:
256,192,36288,1,0,0:0:0:0:
256,192,36446,1,8,0:0:0:0:
256,192,36604,1,0,0:0:0:0:
256,192,36761,1,8,0:0:0:0:
256,192,36919,1,8,0:0:0:0:
256,192,37077,1,0,0:0:0:0:
256,192,37235,1,8,0:0:0:0:
256,192,37314,1,8,0:0:0:0:
256,192,37393,1,0,0:0:0:0:
256,192,37551,1,8,0:0:0:0:
256,192,37709,1,8,0:0:0:0:
256,192,37867,1,0,0:0:0:0:
256,192,38025,1,8,0:0:0:0:
256,192,38182,1,0,0:0:0:0:
256,192,38340,1,0,0:0:0:0:
256,192,38498,1,8,0:0:0:0:
256,192,38814,1,0,0:0:0:0:
256,192,38972,1,8,0:0:0:0:
256,192,39288,1,0,0:0:0:0:
256,192,39446,1,8,0:0:0:0:
256,192,39604,1,0,0:0:0:0:
256,192,39761,1,8,0:0:0:0:
256,192,39840,1,8,0:0:0:0:
256,192,39919,1,0,0:0:0:0:
256,192,40077,1,0,0:0:0:0:
256,192,40235,1,8,0:0:0:0:
256,192,40393,1,0,0:0:0:0:
256,192,40472,1,0,0:0:0:0:
256,192,40551,1,0,0:0:0:0:
256,192,40709,1,8,0:0:0:0:
256,192,40867,1,0,0:0:0:0:
256,192,41025,1,8,0:0:0:0:
256,192,41340,1,8,0:0:0:0:
256,192,41498,1,0,0:0:0:0:
256,192,41814,1,8,0:0:0:0:
256,192,41972,1,8,0:0:0:0:
256,192,42130,1,0,0:0:0:0:
256,192,42288,1,0,0:0:0:0:
256,192,42446,1,0,0:0:0:0:
256,192,42919,1,12,0:0:0:0:
256,192,43235,1,0,0:0:0:0:
256,192,43551,1,8,0:0:0:0:
256,192,43867,1,0,0:0:0:0:
256,192,44025,1,0,0:0:0:0:
256,192,44182,1,0,0:0:0:0:
256,192,44340,1,8,0:0:0:0:
256,192,44656,1,0,0:0:0:0:
256,192,44814,1,8,0:0:0:0:
256,192,44972,1,0,0:0:0:0:
256,192,45051,1,0,0:0:0:0:
256,192,45130,1,0,0:0:0:0:
256,192,45288,1,8,0:0:0:0:
256,192,45446,1,0,0:0:0:0:
256,192,45761,1,0,0:0:0:0:
256,192,45919,1,0,0:0:0:0:
256,192,46077,1,8,0:0:0:0:
256,192,46393,1,0,0:0:0:0:
256,192,46551,1,8,0:0:0:0:
256,192,46709,1,0,0:0:0:0:
256,192,46867,1,8,0:0:0:0:
256,192,47025,1,0,0:0:0:0:
256,192,47182,1,8,0:0:0:0:
256,192,47340,1,8,0:0:0:0:
256,192,47498,1,0,0:0:0:0:
256,192,47577,1,0,0:0:0:0:
256,192,47656,1,8,0:0:0:0:
256,192,47814,1,8,0:0:0:0:
256,192,47972,1,4,0:0:0:0:
256,192,48288,1,0,0:0:0:0:
256,192,48604,1,8,0:0:0:0:
256,192,48919,1,0,0:0:0:0:
256,192,49077,1,0,0:0:0:0:
256,192,49235,1,0,0:0:0:0:
256,192,49393,1,8,0:0:0:0:
256,192,49709,1,0,0:0:0:0:
256,192,49867,1,8,0:0:0:0:
256,192,50025,1,0,0:0:0:0:
256,192,50104,1,0,0:0:0:0:
256,192,50182,1,0,0:0:0:0:
256,192,50340,1,8,0:0:0:0:
256,192,50498,1,0,0:0:0:0:
256,192,50814,1,0,0:0:0:0:
256,192,50972,1,0,0:0:0:0:
256,192,51130,1,8,0:0:0:0:
256,192,51446,1,0,0:0:0:0:
256,192,51604,1,8,0:0:0:0:
256,192,51761,1,0,0:0:0:0:
256,192,51919,1,8,0:0:0:0:
256,192,52077,1,8,0:0:0:0:
256,192,52235,1,0,0:0:0:0:
256,192,52393,1,8,0:0:0:0:
256,192,52551,1,0,0:0:0:0:
256,192,52630,1,0,0:0:0:0:
256,192,52709,1,8,0:0:0:0:
256,192,52867,1,8,0:0:0:0:
256,192,53025,1,4,0:0:0:0:
256,192,53182,1,4,0:0:0:0:
256,192,53340,1,4,0:0:0:0:
256,192,53656,1,0,0:0:0:0:
256,192,53972,1,0,0:0:0:0:
256,192,54288,1,8,0:0:0:0:
256,192,54604,1,0,0:0:0:0:
256,192,54919,1,0,0:0:0:0:
256,192,55235,1,0,0:0:0:0:
256,192,55393,1,0,0:0:0:0:
256,192,55551,1,8,0:0:0:0:
256,192,55867,1,0,0:0:0:0:
256,192,56182,1,0,0:0:0:0:
256,192,56498,1,0,0:0:0:0:
256,192,56814,1,8,0:0:0:0:
256,192,57130,1,0,0:0:0:0:
256,192,57446,1,0,0:0:0:0:
256,192,57761,1,8,0:0:0:0:
256,192,58077,1,4,0:0:0:0:
256,192,58235,1,4,0:0:0:0:
256,192,58393,1,4,0:0:0:0:
256,192,58709,1,0,0:0:0:0:
256,192,59025,1,0,0:0:0:0:
256,192,59340,1,8,0:0:0:0:
256,192,59656,1,0,0:0:0:0:
256,192,59972,1,0,0:0:0:0:
256,192,60288,1,0,0:0:0:0:
256,192,60446,1,0,0:0:0:0:
256,192,60604,1,8,0:0:0:0:
256,192,60919,1,0,0:0:0:0:
256,192,61235,1,0,0:0:0:0:
256,192,61551,1,0,0:0:0:0:
256,192,61867,1,8,0:0:0:0:
256,192,62182,1,0,0:0:0:0:
256,192,62498,1,8,0:0:0:0:
256,192,62656,1,0,0:0:0:0:
256,192,62814,1,8,0:0:0:0:
256,192,63130,1,4,0:0:0:0:
256,192,63288,1,0,0:0:0:0:
256,192,63604,1,0,0:0:0:0:
256,192,63761,1,8,0:0:0:0:
256,192,63919,1,0,0:0:0:0:
256,192,64077,1,0,0:0:0:0:
256,192,64235,1,8,0:0:0:0:
256,192,64551,1,0,0:0:0:0:
256,192,64709,1,8,0:0:0:0:
256,192,64867,1,0,0:0:0:0:
256,192,65025,1,8,0:0:0:0:
256,192,65104,1,8,0:0:0:0:
256,192,65182,1,0,0:0:0:0:
256,192,65340,1,8,0:0:0:0:
256,192,65498,1,8,0:0:0:0:
256,192,65656,1,0,0:0:0:0:
256,192,65814,1,0,0:0:0:0:
256,192,66130,1,0,0:0:0:0:
256,192,66288,1,8,0:0:0:0:
256,192,66604,1,0,0:0:0:0:
256,192,66761,1,0,0:0:0:0:
256,192,67077,1,0,0:0:0:0:
256,192,67235,1,8,0:0:0:0:
256,192,67393,1,0,0:0:0:0:
256,192,67551,1,8,0:0:0:0:
256,192,67630,1,8,0:0:0:0:
256,192,67709,1,0,0:0:0:0:
256,192,67788,1,0,0:0:0:0:
256,192,67867,1,8,0:0:0:0:
256,192,68025,1,8,0:0:0:0:
256,192,68182,1,4,0:0:0:0:
256,192,68340,1,0,0:0:0:0:
256,192,68656,1,0,0:0:0:0:
256,192,68814,1,8,0:0:0:0:
256,192,68972,1,0,0:0:0:0:
256,192,69130,1,0,0:0:0:0:
256,192,69288,1,8,0:0:0:0:
256,192,69604,1,0,0:0:0:0:
256,192,69761,1,8,0:0:0:0:
256,192,69919,1,0,0:0:0:0:
256,192,70077,1,8,0:0:0:0:
256,192,70156,1,8,0:0:0:0:
256,192,70235,1,0,0:0:0:0:
256,192,70393,1,8,0:0:0:0:
256,192,70551,1,8,0:0:0:0:
256,192,70709,1,0,0:0:0:0:
256,192,70867,1,0,0:0:0:0:
256,192,71182,1,0,0:0:0:0:
256,192,71340,1,8,0:0:0:0:
256,192,71656,1,8,0:0:0:0:
256,192,71814,1,0,0:0:0:0:
256,192,72130,1,0,0:0:0:0:
256,192,72288,1,8,0:0:0:0:
256,192,72446,1,0,0:0:0:0:
256,192,72604,1,8,0:0:0:0:
256,192,72761,1,8,0:0:0:0:
256,192,72919,1,8,0:0:0:0:
256,192,73077,1,8,0:0:0:0:
256,192,73867,1,8,0:0:0:0:
256,192,74498,1,12,0:0:0:0:
256,192,74814,1,0,0:0:0:0:
256,192,74972,1,0,0:0:0:0:
256,192,75130,1,8,0:0:0:0:
256,192,75446,1,0,0:0:0:0:
256,192,75604,1,0,0:0:0:0:
256,192,75761,1,0,0:0:0:0:
256,192,75919,1,8,0:0:0:0:
256,192,76077,1,0,0:0:0:0:
256,192,76235,1,0,0:0:0:0:
256,192,76393,1,8,0:0:0:0:
256,192,76551,1,0,0:0:0:0:
256,192,76630,1,0,0:0:0:0:
256,192,76709,1,0,0:0:0:0:
256,192,76867,1,8,0:0:0:0:
256,192,77025,1,0,0:0:0:0:
256,192,77340,1,0,0:0:0:0:
256,192,77498,1,0,0:0:0:0:
256,192,77656,1,8,0:0:0:0:
256,192,77972,1,0,0:0:0:0:
256,192,78130,1,8,0:0:0:0:
256,192,78288,1,0,0:0:0:0:
256,192,78446,1,8,0:0:0:0:
256,192,78604,1,8,0:0:0:0:
256,192,78761,1,0,0:0:0:0:
256,192,78919,1,8,0:0:0:0:
256,192,79077,1,0,0:0:0:0:
256,192,79156,1,0,0:0:0:0:
256,192,79235,1,8,0:0:0:0:
256,192,79393,1,8,0:0:0:0:
256,192,79551,1,0,0:0:0:0:
256,192,79867,1,0,0:0:0:0:
256,192,80025,1,0,0:0:0:0:
256,192,80182,1,8,0:0:0:0:
256,192,80498,1,0,0:0:0:0:
256,192,80656,1,0,0:0:0:0:
256,192,80814,1,0,0:0:0:0:
256,192,80972,1,8,0:0:0:0:
256,192,81130,1,0,0:0:0:0:
256,192,81288,1,0,0:0:0:0:
256,192,81446,1,8,0:0:0:0:
256,192,81604,1,0,0:0:0:0:
256,192,81682,1,0,0:0:0:0:
256,192,81761,1,0,0:0:0:0:
256,192,81919,1,8,0:0:0:0:
256,192,82077,1,0,0:0:0:0:
256,192,82393,1,0,0:0:0:0:
256,192,82551,1,0,0:0:0:0:
256,192,82709,1,8,0:0:0:0:
256,192,83025,1,0,0:0:0:0:
256,192,83182,1,8,0:0:0:0:
256,192,83340,1,0,0:0:0:0:
256,192,83498,1,8,0:0:0:0:
256,192,83656,1,8,0:0:0:0:
256,192,83814,1,0,0:0:0:0:
256,192,83972,1,8,0:0:0:0:
256,192,84130,1,0,0:0:0:0:
256,192,84209,1,0,0:0:0:0:
256,192,84288,1,8,0:0:0:0:
256,192,84446,1,8,0:0:0:0:
256,192,84604,1,12,0:0:0:0:
256,192,84761,1,0,0:0:0:0:
256,192,84840,1,0,0:0:0:0:
256,192,84919,1,8,0:0:0:0:
256,192,85077,1,0,0:0:0:0:
256,192,85235,1,8,0:0:0:0:
256,192,85393,1,8,0:0:0:0:
256,192,85551,1,0,0:0:0:0:
256,192,85630,1,0,0:0:0:0:
256,192,85709,1,8,0:0:0:0:
256,192,85867,1,8,0:0:0:0:
256,192,86025,1,0,0:0:0:0:
256,192,86104,1,0,0:0:0:0:
256,192,86182,1,8,0:0:0:0:
256,192,86340,1,0,0:0:0:0:
256,192,86498,1,8,0:0:0:0:
256,192,86656,1,0,0:0:0:0:
256,192,86814,1,8,0:0:0:0:
256,192,86893,1,8,0:0:0:0:
256,192,86972,1,0,0:0:0:0:
256,192,87051,1,0,0:0:0:0:
256,192,87130,1,8,0:0:0:0:
256,192,87288,1,0,0:0:0:0:
256,192,87367,1,0,0:0:0:0:
256,192,87446,1,8,0:0:0:0:
256,192,87604,1,0,0:0:0:0:
256,192,87761,1,8,0:0:0:0:
256,192,87919,1,8,0:0:0:0:
256,192,88077,1,0,0:0:0:0:
256,192,88156,1,0,0:0:0:0:
256,192,88235,1,8,0:0:0:0:
256,192,88393,1,8,0:0:0:0:
256,192,88551,1,0,0:0:0:0:
256,192,88630,1,0,0:0:0:0:
256,192,88709,1,8,0:0:0:0:
256,192,88867,1,0,0:0:0:0:
256,192,89025,1,8,0:0:0:0:
256,192,89182,1,0,0:0:0:0:
256,192,89340,1,8,0:0:0:0:
256,192,89419,1,8,0:0:0:0:
256,192,89498,1,0,0:0:0:0:
256,192,89577,1,0,0:0:0:0:
256,192,89656,1,8,0:0:0:0:
256,192,89814,1,0,0:0:0:0:
256,192,89893,1,0,0:0:0:0:
256,192,89972,1,8,0:0:0:0:
256,192,90051,1,0,0:0:0:0:
256,192,90130,1,0,0:0:0:0:
256,192,90288,1,8,0:0:0:0:
256,192,90446,1,0,0:0:0:0:
256,192,90525,1,0,0:0:0:0:
256,192,90604,1,8,0:0:0:0:
256,192,90761,1,0,0:0:0:0:
256,192,90919,1,0,0:0:0:0:
256,192,91077,1,8,0:0:0:0:
256,192,91235,1,8,0:0:0:0:
256,192,91314,1,0,0:0:0:0:
256,192,91393,1,0,0:0:0:0:
256,192,91472,1,0,0:0:0:0:
256,192,91551,1,8,0:0:0:0:
256,192,91709,1,0,0:0:0:0:
256,192,91867,1,8,0:0:0:0:
256,192,91946,1,8,0:0:0:0:
256,192,92025,1,0,0:0:0:0:
256,192,92182,1,0,0:0:0:0:
256,192,92340,1,8,0:0:0:0:
256,192,92498,1,0,0:0:0:0:
256,192,92656,1,0,0:0:0:0:
256,192,92814,1,8,0:0:0:0:
256,192,93130,1,8,0:0:0:0:
256,192,93288,1,8,0:0:0:0:
256,192,93604,1,0,0:0:0:0:
256,192,93761,1,8,0:0:0:0:
256,192,93919,1,0,0:0:0:0:
256,192,94077,1,8,0:0:0:0:
256,192,94235,1,8,0:0:0:0:
256,192,94393,1,8,0:0:0:0:
256,192,94551,1,8,0:0:0:0:
256,192,94709,1,0,0:0:0:0:
256,192,94867,1,0,0:0:0:0:
256,192,97235,1,0,0:0:0:0:
256,192,97393,1,0,0:0:0:0:
256,192,99288,1,0,0:0:0:0:
256,192,99367,1,0,0:0:0:0:
256,192,99446,1,8,0:0:0:0:
256,192,99604,1,0,0:0:0:0:
256,192,99761,1,8,0:0:0:0:
256,192,99919,1,0,0:0:0:0:
256,192,100235,1,0,0:0:0:0:
256,192,100393,1,8,0:0:0:0:
256,192,100709,1,8,0:0:0:0:
256,192,100867,1,0,0:0:0:0:
256,192,101182,1,8,0:0:0:0:
256,192,101498,1,0,0:0:0:0:
256,192,101656,1,8,0:0:0:0:
256,192,101972,1,0,0:0:0:0:
256,192,102130,1,8,0:0:0:0:
256,192,102288,1,0,0:0:0:0:
256,192,102446,1,0,0:0:0:0:
256,192,102761,1,0,0:0:0:0:
256,192,102919,1,8,0:0:0:0:
256,192,103235,1,8,0:0:0:0:
256,192,103393,1,0,0:0:0:0:
256,192,103709,1,8,0:0:0:0:
256,192,104025,1,0,0:0:0:0:
256,192,104182,1,8,0:0:0:0:
256,192,104340,1,0,0:0:0:0:
256,192,104498,1,8,0:0:0:0:
256,192,104656,1,8,0:0:0:0:
256,192,104814,1,0,0:0:0:0:
256,192,104972,1,0,0:0:0:0:
256,192,105288,1,0,0:0:0:0:
256,192,105446,1,8,0:0:0:0:
256,192,105604,1,0,0:0:0:0:
256,192,105761,1,8,0:0:0:0:
256,192,105919,1,0,0:0:0:0:
256,192,106235,1,8,0:0:0:0:
256,192,106551,1,0,0:0:0:0:
256,192,106709,1,8,0:0:0:0:
256,192,106867,1,0,0:0:0:0:
256,192,107025,1,0,0:0:0:0:
256,192,107182,1,8,0:0:0:0:
256,192,107340,1,0,0:0:0:0:
256,192,107498,1,0,0:0:0:0:
256,192,107814,1,0,0:0:0:0:
256,192,107972,1,8,0:0:0:0:
256,192,108130,1,0,0:0:0:0:
256,192,108288,1,0,0:0:0:0:
256,192,108446,1,8,0:0:0:0:
256,192,108761,1,8,0:0:0:0:
256,192,109077,1,0,0:0:0:0:
256,192,109235,1,8,0:0:0:0:
256,192,109393,1,0,0:0:0:0:
256,192,109472,1,0,0:0:0:0:
256,192,109551,1,0,0:0:0:0:
256,192,109709,1,8,0:0:0:0:
256,192,109867,1,0,0:0:0:0:
256,192,110025,1,0,0:0:0:0:
256,192,110340,1,0,0:0:0:0:
256,192,110498,1,8,0:0:0:0:
256,192,110656,1,0,0:0:0:0:
256,192,110814,1,0,0:0:0:0:
256,192,110972,1,8,0:0:0:0:
256,192,111288,1,8,0:0:0:0:
256,192,111604,1,0,0:0:0:0:
256,192,111761,1,8,0:0:0:0:
256,192,111919,1,0,0:0:0:0:
256,192,112077,1,0,0:0:0:0:
256,192,112235,1,8,0:0:0:0:
256,192,112393,1,0,0:0:0:0:
256,192,112551,1,0,0:0:0:0:
256,192,112867,1,0,0:0:0:0:
256,192,113025,1,8,0:0:0:0:
256,192,113182,1,8,0:0:0:0:
256,192,113340,1,8,0:0:0:0:
256,192,113498,1,0,0:0:0:0:
256,192,113814,1,8,0:0:0:0:
256,192,113972,1,0,0:0:0:0:
256,192,114051,1,0,0:0:0:0:
256,192,114130,1,0,0:0:0:0:
256,192,114209,1,0,0:0:0:0:
256,192,114288,1,8,0:0:0:0:
256,192,114446,1,8,0:0:0:0:
256,192,114604,1,8,0:0:0:0:
256,192,114761,1,8,0:0:0:0:
256,192,114919,1,0,0:0:0:0:
256,192,115077,1,0,0:0:0:0:
256,192,115393,1,0,0:0:0:0:
256,192,115551,1,8,0:0:0:0:
256,192,115709,1,0,0:0:0:0:
256,192,115867,1,8,0:0:0:0:
256,192,116025,1,0,0:0:0:0:
256,192,116340,1,8,0:0:0:0:
256,192,116656,1,0,0:0:0:0:
256,192,116814,1,8,0:0:0:0:
256,192,116972,1,0,0:0:0:0:
256,192,117130,1,0,0:0:0:0:
256,192,117288,1,8,0:0:0:0:
256,192,117446,1,0,0:0:0:0:
256,192,117604,1,0,0:0:0:0:
256,192,117919,1,0,0:0:0:0:
256,192,118077,1,8,0:0:0:0:
256,192,118235,1,0,0:0:0:0:
256,192,118393,1,0,0:0:0:0:
256,192,118551,1,8,0:0:0:0:
256,192,118867,1,8,0:0:0:0:
256,192,119182,1,0,0:0:0:0:
256,192,119340,1,8,0:0:0:0:
256,192,119498,1,0,0:0:0:0:
256,192,119577,1,0,0:0:0:0:
256,192,119656,1,0,0:0:0:0:
256,192,119814,1,8,0:0:0:0:
256,192,119972,1,0,0:0:0:0:
256,192,120130,1,0,0:0:0:0:
256,192,120446,1,0,0:0:0:0:
256,192,120604,1,8,0:0:0:0:
256,192,120761,1,0,0:0:0:0:
256,192,120919,1,8,0:0:0:0:
256,192,121077,1,0,0:0:0:0:
256,192,121393,1,8,0:0:0:0:
256,192,121709,1,0,0:0:0:0:
256,192,121867,1,8,0:0:0:0:
256,192,122025,1,0,0:0:0:0:
256,192,122182,1,0,0:0:0:0:
256,192,122340,1,8,0:0:0:0:
256,192,122498,1,0,0:0:0:0:
256,192,122656,1,0,0:0:0:0:
256,192,122972,1,0,0:0:0:0:
256,192,123130,1,8,0:0:0:0:
256,192,123288,1,0,0:0:0:0:
256,192,123446,1,0,0:0:0:0:
256,192,123604,1,8,0:0:0:0:
256,192,123919,1,8,0:0:0:0:
256,192,124077,1,8,0:0:0:0:
256,192,124156,1,8,0:0:0:0:
256,192,124235,1,0,0:0:0:0:
256,192,124314,1,0,0:0:0:0:
256,192,124393,1,8,0:0:0:0:
256,192,124551,1,8,0:0:0:0:
256,192,124709,1,8,0:0:0:0:
256,192,124867,1,8,0:0:0:0:
256,192,125025,1,4,0:0:0:0:
256,192,125340,1,8,0:0:0:0:
256,192,125656,1,8,0:0:0:0:
256,192,125814,1,0,0:0:0:0:
256,192,126130,1,8,0:0:0:0:
256,192,126604,1,8,0:0:0:0:
256,192,126761,1,0,0:0:0:0:
256,192,126919,1,8,0:0:0:0:
256,192,127077,1,8,0:0:0:0:
256,192,127393,1,8,0:0:0:0:
256,192,127867,1,8,0:0:0:0:
256,192,128182,1,8,0:0:0:0:
256,192,128340,1,0,0:0:0:0:
256,192,128656,1,8,0:0:0:0:
256,192,128972,1,8,0:0:0:0:
256,192,129288,1,0,0:0:0:0:
256,192,129446,1,8,0:0:0:0:
256,192,129604,1,0,0:0:0:0:
256,192,129761,1,8,0:0:0:0:
256,192,129919,1,8,0:0:0:0:
256,192,130077,1,0,0:0:0:0:
256,192,130393,1,8,0:0:0:0:
256,192,130709,1,8,0:0:0:0:
256,192,130867,1,0,0:0:0:0:
256,192,131182,1,8,0:0:0:0:
256,192,131498,1,0,0:0:0:0:
256,192,131656,1,8,0:0:0:0:
256,192,131972,1,8,0:0:0:0:
256,192,132130,1,8,0:0:0:0:
256,192,132446,1,8,0:0:0:0:
256,192,132919,1,8,0:0:0:0:
256,192,133235,1,8,0:0:0:0:
256,192,133393,1,0,0:0:0:0:
256,192,133709,1,8,0:0:0:0:
256,192,134025,1,8,0:0:0:0:
256,192,134340,1,8,0:0:0:0:
256,192,134498,1,4,0:0:0:0:
256,192,135130,1,12,0:0:0:0:
256,192,135446,1,0,0:0:0:0:
256,192,135761,1,8,0:0:0:0:
256,192,135919,1,0,0:0:0:0:
256,192,136235,1,0,0:0:0:0:
256,192,136393,1,8,0:0:0:0:
256,192,136709,1,8,0:0:0:0:
256,192,137025,1,8,0:0:0:0:
256,192,137182,1,0,0:0:0:0:
256,192,137340,1,0,0:0:0:0:
256,192,137498,1,8,0:0:0:0:
256,192,137656,1,0,0:0:0:0:
256,192,137972,1,8,0:0:0:0:
256,192,138288,1,8,0:0:0:0:
256,192,138446,1,8,0:0:0:0:
256,192,138604,1,0,0:0:0:0:
256,192,138761,1,8,0:0:0:0:
256,192,139077,1,8,0:0:0:0:
256,192,139393,1,8,0:0:0:0:
256,192,139551,1,8,0:0:0:0:
256,192,139709,1,0,0:0:0:0:
256,192,139788,1,0,0:0:0:0:
256,192,139867,1,8,0:0:0:0:
256,192,140025,1,8,0:0:0:0:
256,192,140182,1,0,0:0:0:0:
256,192,140498,1,8,0:0:0:0:
256,192,140814,1,8,0:0:0:0:
256,192,140972,1,0,0:0:0:0:
256,192,141288,1,0,0:0:0:0:
256,192,141446,1,8,0:0:0:0:
256,192,141761,1,8,0:0:0:0:
256,192,142077,1,8,0:0:0:0:
256,192,142235,1,8,0:0:0:0:
256,192,142393,1,8,0:0:0:0:
256,192,142551,1,8,0:0:0:0:
256,192,142709,1,4,0:0:0:0:
256,192,144604,1,8,0:0:0:0:
256,192,145235,1,12,0:0:0:0:
256,192,145551,1,0,0:0:0:0:
256,192,145709,1,0,0:0:0:0:
256,192,145867,1,8,0:0:0:0:
256,192,146025,1,0,0:0:0:0:
256,192,146104,1,0,0:0:0:0:
256,192,146182,1,0,0:0:0:0:
256,192,146340,1,0,0:0:0:0:
256,192,146498,1,0,0:0:0:0:
256,192,146577,1,0,0:0:0:0:
256,192,146656,1,8,0:0:0:0:
256,192,146814,1,0,0:0:0:0:
256,192,146972,1,0,0:0:0:0:
256,192,147130,1,8,0:0:0:0:
256,192,147288,1,0,0:0:0:0:
256,192,147367,1,0,0:0:0:0:
256,192,147446,1,0,0:0:0:0:
256,192,147604,1,8,0:0:0:0:
256,192,147761,1,0,0:0:0:0:
256,192,148077,1,8,0:0:0:0:
256,192,148235,1,0,0:0:0:0:
256,192,148393,1,8,0:0:0:0:
256,192,148472,1,8,0:0:0:0:
256,192,148551,1,0,0:0:0:0:
256,192,148709,1,0,0:0:0:0:
256,192,148867,1,8,0:0:0:0:
256,192,149025,1,0,0:0:0:0:
256,192,149104,1,0,0:0:0:0:
256,192,149182,1,8,0:0:0:0:
256,192,149340,1,8,0:0:0:0:
256,192,149498,1,0,0:0:0:0:
256,192,149656,1,8,0:0:0:0:
256,192,149814,1,0,0:0:0:0:
256,192,149893,1,0,0:0:0:0:
256,192,149972,1,8,0:0:0:0:
256,192,150051,1,8,0:0:0:0:
256,192,150130,1,8,0:0:0:0:
256,192,150288,1,0,0:0:0:0:
256,192,150604,1,0,0:0:0:0:
256,192,150761,1,0,0:0:0:0:
256,192,150919,1,8,0:0:0:0:
256,192,151077,1,0,0:0:0:0:
256,192,151156,1,0,0:0:0:0:
256,192,151235,1,0,0:0:0:0:
256,192,151393,1,0,0:0:0:0:
256,192,151551,1,0,0:0:0:0:
256,192,151630,1,0,0:0:0:0:
256,192,151709,1,8,0:0:0:0:
256,192,151867,1,0,0:0:0:0:
256,192,152025,1,0,0:0:0:0:
256,192,152182,1,8,0:0:0:0:
256,192,152340,1,0,0:0:0:0:
256,192,152419,1,0,0:0:0:0:
256,192,152498,1,0,0:0:0:0:
256,192,152656,1,8,0:0:0:0:
256,192,152814,1,0,0:0:0:0:
256,192,153130,1,8,0:0:0:0:
256,192,153288,1,0,0:0:0:0:
256,192,153446,1,8,0:0:0:0:
256,192,153525,1,8,0:0:0:0:
256,192,153604,1,0,0:0:0:0:
256,192,153761,1,0,0:0:0:0:
256,192,153919,1,8,0:0:0:0:
256,192,154077,1,0,0:0:0:0:
256,192,154156,1,0,0:0:0:0:
256,192,154235,1,8,0:0:0:0:
256,192,154393,1,8,0:0:0:0:
256,192,154551,1,0,0:0:0:0:
256,192,154709,1,8,0:0:0:0:
256,192,154867,1,8,0:0:0:0:
256,192,154946,1,0,0:0:0:0:
256,192,155025,1,8,0:0:0:0:
256,192,155104,1,0,0:0:0:0:
256,192,155182,1,8,0:0:0:0:
256,192,155340,1,12,0:0:0:0:
256,192,155498,1,0,0:0:0:0:
256,192,155577,1,0,0:0:0:0:
256,192,155656,1,8,0:0:0:0:
256,192,155814,1,8,0:0:0:0:
256,192,155972,1,8,0:0:0:0:
256,192,156051,1,8,0:0:0:0:
256,192,156130,1,0,0:0:0:0:
256,192,156288,1,8,0:0:0:0:
256,192,156446,1,0,0:0:0:0:
256,192,156525,1,0,0:0:0:0:
256,192,156604,1,8,0:0:0:0:
256,192,156761,1,8,0:0:0:0:
256,192,156919,1,0,0:0:0:0:
256,192,156998,1,0,0:0:0:0:
256,192,157077,1,8,0:0:0:0:
256,192,157235,1,8,0:0:0:0:
256,192,157314,1,8,0:0:0:0:
256,192,157393,1,0,0:0:0:0:
256,192,157472,1,0,0:0:0:0:
256,192,157551,1,8,0:0:0:0:
256,192,157709,1,8,0:0:0:0:
256,192,157867,1,8,0:0:0:0:
256,192,158025,1,0,0:0:0:0:
256,192,158104,1,0,0:0:0:0:
256,192,158182,1,8,0:0:0:0:
256,192,158340,1,8,0:0:0:0:
256,192,158498,1,8,0:0:0:0:
256,192,158577,1,8,0:0:0:0:
256,192,158656,1,0,0:0:0:0:
256,192,158814,1,8,0:0:0:0:
256,192,158972,1,0,0:0:0:0:
256,192,159051,1,0,0:0:0:0:
256,192,159130,1,8,0:0:0:0:
256,192,159288,1,8,0:0:0:0:
256,192,159446,1,0,0:0:0:0:
256,192,159525,1,0,0:0:0:0:
256,192,159604,1,8,0:0:0:0:
256,192,159761,1,8,0:0:0:0:
256,192,159840,1,8,0:0:0:0:
256,192,159919,1,0,0:0:0:0:
256,192,160077,1,8,0:0:0:0:
256,192,160156,1,8,0:0:0:0:
256,192,160235,1,0,0:0:0:0:
256,192,160314,1,0,0:0:0:0:
256,192,160393,1,8,0:0:0:0:
256,192,160551,1,0,0:0:0:0:
256,192,160630,1,0,0:0:0:0:
256,192,160709,1,8,0:0:0:0:
256,192,160867,1,0,0:0:0:0:
256,192,161025,1,8,0:0:0:0:
256,192,161104,1,8,0:0:0:0:
256,192,161182,1,8,0:0:0:0:
256,192,161261,1,8,0:0:0:0:
256,192,161340,1,8,0:0:0:0:
256,192,161498,1,0,0:0:0:0:
256,192,161814,1,8,0:0:0:0:
256,192,161972,1,8,0:0:0:0:
256,192,162051,1,0,0:0:0:0:
256,192,162130,1,0,0:0:0:0:
256,192,162209,1,0,0:0:0:0:
256,192,162288,1,8,0:0:0:0:
256,192,162446,1,0,0:0:0:0:
256,192,162525,1,0,0:0:0:0:
256,192,162604,1,8,0:0:0:0:
256,192,162761,1,0,0:0:0:0:
256,192,162919,1,8,0:0:0:0:
256,192,163235,1,8,0:0:0:0:
256,192,163393,1,8,0:0:0:0:
256,192,163709,1,8,0:0:0:0:
256,192,163867,1,8,0:0:0:0:
256,192,164025,1,0,0:0:0:0:
256,192,164182,1,12,0:0:0:0:
256,192,164340,12,0,167972,0:0:0:0:
256,192,168604,5,8,0:0:0:0:
256,192,169235,1,8,0:0:0:0:
