osu file format v12

[General]
AudioFilename: 02 OVER THE GALAXY.mp3
AudioLeadIn: 0
PreviewTime: -1
Countdown: 1
SampleSet: None
StackLeniency: 0.7
Mode: 0
LetterboxInBreaks: 1
WidescreenStoryboard: 0

[Editor]
DistanceSpacing: 0.8
BeatDivisor: 4
GridSize: 8

[Metadata]
Title:OVER THE GALAXY previ.
TitleUnicode:OVER THE GALAXY previ.
Artist:BLOOD STAIN CHILD
ArtistUnicode:BLOOD STAIN CHILD
Creator:vioLinAngel
Version:High
Source:
Tags:
BeatmapID:363915
BeatmapSetID:146911

[Difficulty]
HPDrainRate:5
CircleSize:5
OverallDifficulty:5
ApproachRate:5
SliderMultiplier:1.4
SliderTickRate:1

[Events]
//Background and Video events
0,0,"X-Galaxy-Wallpaper-1.png",0,0
//Break Periods
2,15637,27852
//Storyboard Layer 0 (Background)
//Storyboard Layer 1 (Fail)
//Storyboard Layer 2 (Pass)
//Storyboard Layer 3 (Foreground)
//Storyboard Sound Samples
//Background Colour Transformations
3,100,163,162,255

[TimingPoints]
23847.0825198784,400.453847694053,4,1,0,77,1,0

[Colours]
Combo1 : 255,255,255
Combo2 : 64,0,64
Combo3 : 128,0,64
Combo4 : 0,64,128

[HitObjects]
256,192,14636,1,2,0:0:0:0:
256,192,14836,1,2,0:0:0:0:
256,192,15237,1,2,0:0:0:0:
256,192,15437,1,2,0:0:0:0:
256,168,29052,5,0,0:0:0:0:
256,168,29353,1,0,0:0:0:0:
304,192,29653,2,0,L|304:296,1,105
352,208,30554,2,0,L|352:312,1,105
232,272,31255,5,0,0:0:0:0:
232,272,31455,1,0,0:0:0:0:
256,168,35460,5,0,0:0:0:0:
256,168,35660,1,0,0:0:0:0:
256,168,36060,1,0,0:0:0:0:
256,168,36261,1,0,0:0:0:0:
128,216,36961,6,0,B|144:256|176:208|176:232|192:208|200:232|224:208|224:240|240:208|248:240|280:208|280:232|288:208|304:240|320:216|336:232,1,210
256,192,37862,12,0,38363,0:0:0:0:
40,48,42167,5,0,0:0:0:0:
72,72,42368,1,0,0:0:0:0:
104,96,42568,1,0,0:0:0:0:
136,120,42768,1,0,0:0:0:0:
160,144,42968,1,0,0:0:0:0:
184,168,43168,1,0,0:0:0:0:
72,32,43569,5,0,0:0:0:0:
104,56,43769,1,0,0:0:0:0:
136,72,43969,1,0,0:0:0:0:
168,96,44170,1,0,0:0:0:0:
200,120,44370,1,0,0:0:0:0:
232,144,44570,1,0,0:0:0:0:
264,168,44770,1,0,0:0:0:0:
448,64,45171,5,0,0:0:0:0:
448,96,45371,1,0,0:0:0:0:
448,136,45571,1,0,0:0:0:0:
448,168,45771,1,0,0:0:0:0:
448,208,45972,1,0,0:0:0:0:
448,240,46172,1,0,0:0:0:0:
448,280,46372,1,0,0:0:0:0:
392,280,46873,5,0,0:0:0:0:
392,248,47073,1,0,0:0:0:0:
392,216,47273,1,0,0:0:0:0:
392,184,47473,1,0,0:0:0:0:
392,152,47674,1,0,0:0:0:0:
392,120,47874,1,0,0:0:0:0:
392,88,48074,1,0,0:0:0:0:
256,304,48474,5,0,0:0:0:0:
224,304,48675,1,0,0:0:0:0:
192,304,48875,1,0,0:0:0:0:
160,304,49075,1,0,0:0:0:0:
128,304,49275,1,0,0:0:0:0:
136,160,49776,5,0,0:0:0:0:
136,160,50176,1,0,0:0:0:0:
192,160,50577,5,0,0:0:0:0:
192,160,50977,1,0,0:0:0:0:
256,192,51378,12,0,52879,0:0:0:0:
256,192,53981,5,0,0:0:0:0:
256,192,54181,1,0,0:0:0:0:
256,192,54381,1,0,0:0:0:0:
256,192,54581,12,0,55783,0:0:0:0:
256,192,55983,12,0,56884,0:0:0:0:
256,200,57184,5,0,0:0:0:0:
256,200,57385,1,0,0:0:0:0:
256,200,57585,1,0,0:0:0:0:
256,192,57885,12,0,58986,0:0:0:0:
256,192,59187,12,0,60088,0:0:0:0:
256,64,60388,5,0,0:0:0:0:
256,64,60588,1,0,0:0:0:0:
256,64,60788,1,0,0:0:0:0:
256,192,60989,12,0,62190,0:0:0:0:
256,192,62490,12,0,63291,0:0:0:0:
256,152,63692,5,0,0:0:0:0:
256,152,63892,1,0,0:0:0:0:
192,176,64092,6,0,L|192:232,5,35
224,232,64693,2,0,P|288:240|408:120,1,245
256,192,67296,5,0,0:0:0:0:
256,152,67796,1,0,0:0:0:0:
304,160,67997,2,0,B|368:152|384:144|432:120|448:72|448:32|440:32,1,210
256,184,68898,5,0,0:0:0:0:
256,104,69398,1,0,0:0:0:0:
280,144,69598,2,0,B|336:144|368:176|376:208|376:240|384:272|384:304|384:280,1,175
256,168,70600,5,0,0:0:0:0:
256,136,71000,1,0,0:0:0:0:
224,152,71200,2,0,B|160:128|136:96|152:48|152:16|152:8,1,175
256,136,72001,5,0,0:0:0:0:
256,176,72402,1,0,0:0:0:0:
256,192,72802,12,0,73503,0:0:0:0:
136,192,73803,5,0,0:0:0:0:
184,192,74204,1,0,0:0:0:0:
256,192,74504,12,0,77007,0:0:0:0:
256,192,80210,5,0,0:0:0:0:
256,120,83314,1,0,0:0:0:0:
256,120,83714,1,0,0:0:0:0:
256,120,84015,1,0,0:0:0:0:
256,88,84415,2,0,B|192:56|288:16|176:120,1,105
256,176,85016,5,0,0:0:0:0:
256,176,85316,1,0,0:0:0:0:
256,176,85617,1,0,0:0:0:0:
200,176,85917,6,0,B|200:136|216:112|240:112|264:112|280:112|296:112|304:112|312:136|320:152|320:176|328:192|320:184,1,210
256,192,89821,12,0,91523,0:0:0:0:
