osu file format v9

[General]
AudioFilename: 1-01 Get Down.mp3
AudioLeadIn: 1000
PreviewTime: 52216
Countdown: 1
SampleSet: Soft
StackLeniency: 0.2
Mode: 0
LetterboxInBreaks: 1

[Editor]
Bookmarks: 34919,52216,109694
DistanceSpacing: 1
BeatDivisor: 4
GridSize: 8

[Metadata]
Title:Get Down
Artist:BJJ
Creator:LaunchedthousandShip
Version:NM
Source:DJMAX
Tags:DMP black square portable technika

[Difficulty]
HPDrainRate:3
CircleSize:4
OverallDifficulty:4
ApproachRate:5
SliderMultiplier:1.6
SliderTickRate:0.5

[Events]
//Background and Video events
0,0,"Get_Down_TechnikaEyecatch.jpg"
//Break Periods
2,79465,83449
//Storyboard Layer 0 (Background)
//Storyboard Layer 1 (Fail)
//Storyboard Layer 2 (Pass)
//Storyboard Layer 3 (Foreground)
//Storyboard Sound Samples
//Background Colour Transformations
3,100,0,0,0

[TimingPoints]
347,540.540540540541,4,2,0,100,1,0
103319,-100,4,2,0,65,0,0
103725,-200,4,2,0,50,0,0
103995,-200,4,2,0,10,0,0

[Colours]
Combo1 : 192,192,192
Combo2 : 255,255,255
Combo3 : 0,0,0

[HitObjects]
400,88,347,37,0
400,88,887,1,8
352,152,1157,2,0,B|304:152,1,40
232,128,1563,2,0,B|192:128,3,40,0|0|0|8
56,216,2509,1,0
200,296,3049,21,8
200,216,3319,1,0
272,256,3590,2,0,B|352:256,1,80
384,184,4130,2,0,B|304:184,1,80,8|0
264,120,4671,1,0
400,40,5211,5,8
456,96,5482,2,0,B|456:144,1,40
400,192,5887,2,0,B|400:232,3,40,0|0|0|8
248,192,6833,1,0
184,144,7103,2,0,B|144:160,6,40,2|0|2|0|2|0|2
160,64,8184,2,0,B|112:72,2,40
240,48,8725,1,0
320,32,8995,6,0,B|376:88|344:192,1,160,0|8
272,152,9806,2,0,B|232:152,1,40
168,208,10211,2,0,B|128:208,1,40
80,144,10617,1,8
80,144,10887,1,0
128,80,11157,6,0,B|184:136|288:104,1,160,0|8
336,160,11968,1,0
392,216,12238,2,0,B|360:248,1,40
280,248,12644,2,0,B|248:280,1,40,0|8
184,320,13049,1,0
128,264,13319,1,0
32,136,13860,5,8
104,96,14130,2,0,B|104:56,1,40
176,96,14536,2,0,B|176:136,1,40
248,176,14941,1,8
312,136,15211,1,0
392,136,15482,5,2
440,248,15887,2,0,B|400:248,1,40,2|0
320,248,16292,1,2
160,248,16833,2,0,B|208:248,1,40,2|2
400,248,17644,1,0
272,152,18184,5,8
224,216,18455,2,0,B|184:216,1,40
144,280,18860,2,0,B|96:280,1,40
56,216,19265,1,8
56,216,19536,1,0
96,144,19806,6,0,B|64:120,4,40,0|0|0|0|8
168,120,20617,2,0,B|208:152,1,40
272,112,21022,2,0,B|232:80,1,40
304,40,21428,1,8
384,40,21698,1,0
464,40,21968,2,0,B|488:88|456:128,1,80,0|0
464,200,22509,5,8
464,280,22779,2,0,B|424:280,1,40
344,280,23184,2,0,B|304:280,3,40,0|0|0|8
144,280,24130,2,0,B|184:280,1,40,2|0
144,208,24536,2,0,B|104:208,1,40,2|0
144,136,24941,2,0,B|192:136,2,40,2|0|0
176,64,25482,1,0
248,104,25752,1,2
328,80,26022,2,0,B|376:56|416:88,1,80,0|0
432,152,26563,6,0,B|448:192,1,40
368,192,26968,2,0,B|352:232,1,40
272,232,27374,2,0,B|288:272,4,40,0|0|0|0|8
192,232,28184,1,0
128,280,28455,6,0,B|96:256|96:208,1,80
160,160,28995,1,8
224,112,29265,2,0,B|256:88|256:40,1,80
336,40,29806,1,0
400,88,30076,2,0,B|400:168,1,80,8|0
328,208,30617,2,0,B|328:288,1,80
256,248,31157,5,8
192,288,31428,2,0,B|152:288,6,40,0|0|0|0|0|0|8
192,208,32509,1,0
192,128,32779,1,0
336,192,33319,6,0,B|256:192,1,80
176,192,33860,2,0,B|256:192,1,80
256,192,34401,1,0
144,72,34941,6,0,B|224:72,1,80
288,120,35482,2,0,B|368:120,2,80,8|0|0
408,224,36563,1,8
352,280,36833,1,0
280,304,37103,1,0
200,304,37374,1,0
120,288,37644,1,8
168,224,37914,1,0
112,168,38184,1,0
168,112,38455,1,0
248,112,38725,2,0,B|328:112,1,80,8|0
408,112,39265,6,0,B|424:152|408:192,1,80
376,264,39806,1,8
376,264,40076,1,0
304,224,40347,1,0
240,272,40617,1,0
176,320,40887,1,8
64,208,41428,5,2
96,96,41833,1,2
144,160,42103,2,0,B|192:160,1,40,2|2
384,288,43049,5,8
432,224,43319,1,0
408,144,43590,2,0,B|328:144,1,80
248,144,44130,1,8
168,144,44401,1,0
88,144,44671,1,0
208,40,45211,5,8
288,40,45482,2,0,B|360:80|384:168,1,160
384,240,46292,2,0,B|336:304|240:312,1,160,8|0
200,248,47103,5,0
168,176,47374,2,0,B|88:176,1,80,8|0
48,104,47914,1,0
208,104,48455,2,0,B|288:104,1,80,8|0
312,176,48995,1,0
392,176,49265,1,0
392,176,49536,1,8
256,264,50076,6,0,B|176:264,1,80
216,192,50617,2,0,B|136:192,1,80
176,120,51157,2,0,B|256:120,1,80
216,48,51698,2,0,B|296:48,1,80
376,48,52238,5,0
376,48,52509,1,0
424,112,52779,2,0,B|448:152,2,40,8|0|0
360,160,53319,1,0
200,160,53860,5,8
120,160,54130,1,0
40,160,54401,2,0,B|40:240,2,80,0|0|8
40,160,55482,1,0
200,136,56022,5,8
264,88,56292,1,0
344,88,56563,2,0,B|424:88,1,80
464,160,57103,2,0,B|424:160,1,40,8|0
384,232,57509,2,0,B|344:232,1,40
264,232,57914,1,0
200,288,58184,5,8
120,288,58455,1,0
40,288,58725,2,0,B|40:208,1,80
104,160,59265,2,0,B|104:72,1,80
184,104,59806,2,0,B|184:184,1,80
184,264,60347,1,0
344,264,60887,5,0
400,208,61157,1,0
320,192,61428,2,0,B|280:192,2,40,8|0|0
400,208,61968,1,0
248,256,62509,1,8
168,256,62779,1,0
88,256,63049,2,0,B|56:176|64:96,2,160,0|8|0
88,256,64671,1,8
168,120,65211,5,0
240,160,65482,1,0
240,160,65752,1,8
320,136,66022,1,0
384,184,66292,2,0,B|464:184,1,80
464,184,66833,1,8
336,280,67374,5,4
176,264,67914,1,4
200,104,68455,1,4
360,112,68995,1,4
256,192,69536,5,0
256,192,69806,1,0
192,240,70076,1,8
192,240,70347,1,0
128,192,70617,1,0
128,192,70887,1,0
72,136,71157,1,8
72,136,71428,1,0
128,80,71698,1,0
208,80,71968,2,0,B|248:80,2,40,0|0|8
128,80,72509,1,0
200,176,72914,6,0,B|200:216,1,40
256,272,73319,2,0,B|288:248|336:248,1,80
392,192,73860,2,0,B|360:168|312:168,1,80
240,168,74401,1,8
160,168,74671,1,0
160,88,74941,1,0
80,88,75211,1,0
80,168,75482,2,0,B|96:248|184:280,1,160,8|0
344,280,76563,2,0,B|424:280,1,80,8|0
472,216,77103,5,2
472,136,77374,1,0
400,176,77644,5,2
320,176,77914,1,0
248,208,78184,5,2
248,288,78455,1,0
176,256,78725,5,2
176,176,78995,1,0
176,96,79265,1,2
256,192,84671,12,0,86292
216,216,86833,6,0,B|136:216,1,80
72,160,87374,1,8
128,104,87644,2,0,B|168:104,2,40
48,88,88184,1,0
104,32,88455,5,8
184,32,88725,1,0
264,32,88995,2,0,B|304:104,1,80
336,176,89536,1,8
256,176,89806,2,0,B|248:216,2,40
176,200,90347,2,0,B|184:240,2,40,0|0|8
80,72,91157,21,0
112,144,91428,2,0,B|152:112,2,40,0|0|8
96,224,91968,2,0,B|48:216,2,40
176,200,92509,2,0,B|208:224,2,40,0|0|8
224,136,93049,21,0
256,64,93319,1,2
288,136,93590,1,0
336,200,93860,2,0,B|304:224,2,40,2|0|0
408,240,94401,1,2
480,272,94671,2,0,B|416:328,2,80,0|2|0
472,192,95482,5,4
408,240,95752,1,0
352,184,96022,2,0,B|312:184,2,40,8|0|0
320,256,96563,1,0
248,216,96833,1,0
168,216,97103,2,0,B|128:216,2,40,8|0|0
128,144,97644,5,0
72,88,97914,2,0,B|88:48,2,40,0|0|8
152,80,98455,2,0,B|192:64,2,40
208,136,98995,2,0,B|248:136,2,40,0|0|8
128,144,99536,5,0
128,144,99806,1,0
72,200,100076,2,0,B|88:240|136:256,1,80,0|8
208,248,100617,1,0
208,248,100887,1,0
272,208,101157,2,0,B|320:208,2,40,0|0|8
240,136,101698,2,0,B|200:136,2,40
272,64,102238,1,0
272,64,102509,1,0
128,128,103049,5,0
240,240,103590,5,0
296,184,103860,6,0,B|376:184,1,80
