osu file format v6

[General]
AudioFilename: First Kiss.mp3
AudioLeadIn: 0
PreviewTime: 44855
Countdown: 0
SampleSet: Normal
StackLeniency: 0.7
Mode: 0
LetterboxInBreaks: 1
StoryFireInFront: 0

[Editor]
DistanceSpacing: 0.800000011920929
BeatDivisor: 4
GridSize: 8

[Metadata]
Title:First Kiss
Artist:BJJ
Creator:bakaPK
Version:Popular
Source:DJMAX
Tags:DJMAX BJJ

[Difficulty]
HPDrainRate:5
CircleSize:7
OverallDifficulty:5
SliderMultiplier:1
SliderTickRate:2

[Events]
//Background and Video events
Video,0,"Umile_21160250.avi"
0,0,"first-kiss-1024x768.jpg"
//Break Periods
//Storyboard Layer 0 (Background)
//Storyboard Layer 1 (Fail)
//Storyboard Layer 2 (Pass)
//Storyboard Layer 3 (Foreground)
//Storyboard Sound Samples
//Background Colour Transformations
3,100,163,162,255

[TimingPoints]
4482,560.747663551402,4,2,0,85,1,0
35607,-100,4,1,0,85,0,0
52710,-100,4,2,0,85,0,0
77943,-100,4,1,0,85,0,0
80743,-100,4,2,0,85,0,0
98426,-100,4,1,0,85,0,0

[Colours]
Combo1 : 1,209,254
Combo2 : 255,128,128
Combo3 : 0,255,128
Combo4 : 255,204,0

[HitObjects]
329,144,2239,5,12
427,48,3360,1,12
447,294,4481,5,0
341,235,5603,1,0
208,300,6724,1,0
110,236,7846,1,0
155,105,10089,5,8
405,103,12332,1,8
381,268,14575,1,8
104,271,16818,1,8
56,78,17939,5,0
156,153,19061,1,8
209,61,19622,1,0
280,127,20182,1,0
406,98,21304,1,8
469,40,21865,1,0
452,245,22425,5,0
369,307,23547,1,8
286,236,24108,1,0
212,300,24668,1,0
133,264,25790,1,0
59,230,26351,1,0
39,129,26911,5,0
91,131,27472,1,0
148,133,28033,1,0
211,134,28594,1,0
275,80,29154,1,0
398,35,30276,1,0
477,286,31397,5,0
415,289,31958,1,0
353,291,32519,1,0
294,290,33080,1,0
210,234,33640,1,0
164,257,34201,1,0
113,288,34762,1,0
64,308,35042,1,0
35,111,35883,5,0
93,113,36444,1,8
144,115,37005,1,0
206,116,37566,1,8
318,78,38126,1,0
430,46,39248,1,0
485,271,40369,5,0
417,274,40930,1,8
358,276,41491,1,0
297,276,42052,1,8
204,226,42612,1,12
163,262,43173,1,12
119,294,43734,1,12
56,310,44014,1,8
73,103,44855,5,8
73,103,45416,1,8
73,103,45977,1,8
73,103,46538,1,8
73,104,47098,1,8
73,103,47659,1,8
73,104,48220,1,8
410,52,48781,1,8
420,272,49341,5,8
420,272,49902,1,8
420,272,50463,1,8
420,272,51024,1,8
420,272,51584,1,8
146,296,52145,1,8
88,253,52706,1,8
48,228,53267,1,8
56,89,53827,5,12
56,89,54388,1,12
56,89,54949,1,12
56,89,55510,1,12
56,89,56070,1,12
56,89,56631,1,12
56,89,57192,1,12
56,89,57753,1,12
454,250,58313,5,12
454,250,58874,1,12
454,250,59435,1,12
454,250,59996,1,12
218,229,60556,5,12
172,256,61117,1,12
138,280,61678,1,12
92,309,62239,1,12
46,50,62799,5,12
104,100,63220,1,12
163,151,63640,1,12
306,44,65042,1,12
360,94,65463,1,12
417,140,65883,1,12
421,230,67285,5,12
377,256,67706,1,12
341,282,68126,1,12
214,303,69528,5,12
214,303,69809,1,12
214,303,70089,1,12
214,303,70369,1,12
214,303,70650,1,12
214,303,70930,1,12
214,303,71210,1,12
214,303,71491,1,12
64,133,71771,5,12
103,133,72052,1,12
160,135,72332,1,12
298,75,74014,5,12
340,76,74295,1,12
408,144,74855,1,12
468,234,76257,5,12
408,236,76678,1,12
353,237,77098,1,12
222,220,78500,1,12
177,252,79061,1,12
109,280,79622,1,12
63,314,79902,1,12
69,72,80743,5,12
69,72,81304,1,12
69,72,81865,1,12
69,72,82425,1,12
304,152,82986,5,12
304,152,83547,1,12
304,152,84108,1,12
444,46,84668,1,12
430,246,85229,5,12
430,246,85790,1,12
430,246,86351,1,12
430,246,86911,1,12
430,246,87472,1,12
161,298,88033,1,12
99,257,88594,1,12
63,229,88874,1,12
58,107,89715,5,12
58,107,90276,1,12
58,107,90837,1,12
58,107,91397,1,12
308,141,91958,1,12
308,141,92519,1,12
308,141,93080,1,12
308,141,93640,1,12
474,244,94201,5,12
474,244,94762,1,12
474,244,95323,1,12
474,244,95883,1,12
220,224,96444,1,12
173,250,97005,1,12
120,282,97566,1,12
73,310,98126,1,12
