osu file format v6

[General]
AudioFilename: First Kiss.mp3
AudioLeadIn: 0
PreviewTime: 44855
Countdown: 0
SampleSet: Soft
StackLeniency: 0.7
Mode: 0
LetterboxInBreaks: 1
StoryFireInFront: 0

[Editor]
DistanceSpacing: 0.800000011920929
BeatDivisor: 4
GridSize: 8

[Metadata]
Title:First Kiss
Artist:BJJ
Creator:bakaPK
Version:Lite
Source:DJMAX
Tags:DJMAX BJJ

[Difficulty]
HPDrainRate:3
CircleSize:6
OverallDifficulty:3
SliderMultiplier:1
SliderTickRate:2

[Events]
//Background and Video events
Video,0,"Umile_21160250.avi"
0,0,"first-kiss-1024x768.jpg"
//Break Periods
//Storyboard Layer 0 (Background)
//Storyboard Layer 1 (Fail)
//Storyboard Layer 2 (Pass)
//Storyboard Layer 3 (Foreground)
//Storyboard Sound Samples
//Background Colour Transformations
3,100,163,162,255

[TimingPoints]
4482,560.747663551402,4,2,0,85,1,0
35607,-100,4,1,0,85,0,0
52710,-100,4,2,0,85,0,0
77943,-100,4,1,0,85,0,0
80743,-100,4,2,0,85,0,0
98426,-100,4,1,0,85,0,0

[Colours]
Combo1 : 1,209,254
Combo2 : 255,128,128
Combo3 : 0,255,128
Combo4 : 255,204,0

[HitObjects]
447,294,4481,5,0
341,235,5603,1,0
208,300,6724,1,0
110,236,7846,1,0
155,105,10089,5,8
405,103,12332,1,8
381,268,14575,1,8
104,271,16818,1,8
56,78,17939,5,0
156,153,19061,1,8
280,127,20182,1,0
406,98,21304,1,8
452,245,22425,5,0
369,307,23547,1,8
212,300,24668,1,0
133,264,25790,1,0
59,230,26351,1,0
39,129,26911,5,0
91,131,27472,1,0
148,133,28033,1,0
211,134,28594,1,0
275,80,29154,1,0
398,35,30276,1,0
477,286,31397,5,0
415,289,31958,1,0
353,291,32519,1,0
294,290,33080,1,0
210,234,33640,1,0
164,257,34201,1,0
113,288,34762,1,0
35,111,35883,5,0
93,113,36444,1,8
144,115,37005,1,0
206,116,37566,1,8
318,78,38126,1,0
430,46,39248,1,0
485,271,40369,5,0
417,274,40930,1,8
358,276,41491,1,0
297,276,42052,1,8
204,226,42612,1,12
163,262,43173,1,12
119,294,43734,1,12
24,112,44855,5,8
88,112,45416,1,8
152,112,45977,1,8
216,112,46538,1,8
280,112,47098,1,8
344,112,47659,1,8
400,112,48220,1,8
456,48,48781,1,8
420,272,49341,5,8
360,272,49902,1,8
304,272,50463,1,8
248,272,51024,1,8
192,272,51584,1,8
88,253,52706,1,8
48,228,53267,1,8
56,89,53827,5,12
112,88,54388,1,8
168,88,54949,1,8
224,88,55510,1,8
280,88,56070,1,8
328,88,56631,1,8
384,88,57192,1,8
440,88,57753,1,8
454,250,58313,5,12
392,248,58874,1,8
336,256,59435,1,8
288,256,59996,1,8
218,229,60556,5,12
172,256,61117,1,12
138,280,61678,1,12
92,309,62239,1,12
46,50,62799,5,12
163,151,63640,1,12
306,44,65042,1,12
417,140,65883,1,12
421,230,67285,5,12
341,282,68126,1,12
64,133,71771,5,12
103,133,72052,1,12
160,135,72332,1,12
298,75,74014,5,12
340,76,74295,1,12
408,144,74855,1,12
468,234,76257,5,12
408,236,76678,1,12
353,237,77098,1,12
222,220,78500,1,12
177,252,79061,1,12
109,280,79622,1,12
63,314,79902,1,12
69,72,80743,5,12
120,72,81304,1,0
168,72,81865,1,0
224,72,82425,1,0
280,72,82986,1,0
336,72,83547,1,0
384,72,84108,1,0
444,46,84668,1,12
430,246,85229,5,12
368,248,85790,1,0
312,248,86351,1,0
256,248,86911,1,0
208,248,87472,1,12
161,298,88033,1,12
99,257,88594,1,12
63,229,88874,1,12
58,107,89715,5,12
112,104,90276,1,0
160,104,90837,1,0
208,104,91397,1,0
308,141,91958,1,12
352,144,92519,1,0
400,144,93080,1,0
456,144,93640,1,0
474,244,94201,5,12
416,248,94762,1,0
360,248,95323,1,0
304,248,95883,1,0
220,224,96444,1,12
173,250,97005,1,12
120,282,97566,1,12
73,310,98126,1,12
