osu file format v14

[General]
AudioFilename: BIGBANG&2NE1 - Lollipop.mp3
AudioLeadIn: 2000
PreviewTime: 58242
Countdown: 0
SampleSet: Normal
StackLeniency: 0.3
Mode: 0
LetterboxInBreaks: 0
WidescreenStoryboard: 1

[Editor]
Bookmarks: 367,82367,86367,138367,146367,150367,186367
DistanceSpacing: 1.2
BeatDivisor: 4
GridSize: 4
TimelineZoom: 1

[Metadata]
Title:Lollipop
TitleUnicode:Lollipop
Artist:BIGBANG&2NE1
ArtistUnicode:BIGBANG&2NE1
Creator:Gero
Version:Rainbow
Source:
Tags:2NEBANG To anyone Twenty one 투애니원 トゥエニィワン 21 New Evolution 빅뱅 BLACKJACK V.I.P CL 씨엘 Lee Chae Rin 이채린 Sandara Park 박산다라 Park Bom 박봄 Minzy 민지 Kong Min Ji 공민지 G-Dragon 지드래곤 Kwon Ji Yong 권지용 Seung Ri 승리 Lee Seung Hyun 이승현 Kang Dae Sung 강대성 T.O.P 탑 Choi Seung Hyun 최승현 Tae Yang 태양 Dong Young Bae 동영배 Kpop K-Pop 케이팝 Lollipop (Digital Single) Phone LG CYON YG Entertainment YG 엔터테인먼트 Euny Mao Desperate-kun eINess Sonnyc Nhawak Collab Collaboration
BeatmapID:732688
BeatmapSetID:330647

[Difficulty]
HPDrainRate:8
CircleSize:4
OverallDifficulty:8
ApproachRate:9
SliderMultiplier:1.6
SliderTickRate:2

[Events]
//Background and Video events
Video,-1115,"Video.avi"
0,0,"BackgroundLollipop.jpg",0,0
//Break Periods
2,82567,85767
2,138567,145767
2,146567,149767
//Storyboard Layer 0 (Background)
//Storyboard Layer 1 (Fail)
//Storyboard Layer 2 (Pass)
//Storyboard Layer 3 (Foreground)
//Storyboard Sound Samples

[TimingPoints]
367,500,4,1,0,60,1,0
8367,-200,4,2,0,50,0,0
8867,-200,4,2,0,40,0,0
9117,-200,4,2,0,30,0,0
9367,-200,4,2,0,20,0,0
9492,-200,4,2,0,10,0,0
9617,-200,4,2,0,20,0,0
9742,-200,4,2,0,30,0,0
9867,-200,4,2,0,40,0,0
9992,-200,4,2,0,50,0,0
10367,-100,4,1,0,70,0,0
26117,-50,4,1,0,60,0,0
33367,-100,4,2,0,80,0,0
33867,-66.6666666666667,4,2,0,80,0,0
34367,-50,4,1,0,60,0,0
42367,-50,4,1,0,70,0,0
48367,-100,4,2,0,80,0,0
50367,-50,4,1,0,70,0,0
56367,-100,4,1,0,70,0,0
58367,-90.9090909090909,4,1,0,80,0,1
74367,-100,4,1,0,70,0,0
82367,-100,4,3,0,50,0,0
89367,-200,4,2,0,20,0,0
89617,-200,4,2,0,30,0,0
89867,-200,4,2,0,35,0,0
90117,-200,4,2,0,40,0,0
90367,-100,4,2,0,60,0,0
93742,-100,4,2,0,40,0,0
93867,-100,4,2,0,60,0,0
96367,-100,4,1,0,60,0,0
97367,-100,4,1,0,70,0,0
98367,-50,4,1,0,70,0,0
104367,-100,4,2,0,80,0,0
106367,-50,4,1,0,70,0,0
112367,-100,4,1,0,70,0,0
114367,-90.9090909090909,4,1,0,80,0,1
130367,-100,4,1,0,70,0,0
138367,-125,4,2,0,80,0,0
150367,-100,4,1,0,70,0,0
154367,-90.9090909090909,4,1,0,80,0,1
170367,-100,4,1,0,70,0,0
186367,-100,4,1,0,20,0,0

[Colours]
Combo1 : 140,140,140
Combo2 : 255,255,94
Combo3 : 255,74,74
Combo4 : 81,147,227
Combo5 : 243,131,56
Combo6 : 123,217,137
Combo7 : 232,130,206
Combo8 : 196,176,111
SliderBorder : 228,22,136
SliderTrackOverride : 73,163,145

[HitObjects]
120,324,367,6,0,P|149:252|119:180,1,160,0|8,0:0|0:2,0:0:0:0:
44,123,1117,2,0,P|116:152|188:122,1,160,0|0,0:0|2:0,0:0:0:0:
256,56,1867,2,0,B|296:56|296:56|328:80,1,80,8|0,0:2|2:0,0:0:0:0:
395,12,2367,5,0,0:0:0:0:
462,79,2617,2,0,L|440:240,1,160
508,305,3367,1,0,0:0:0:0:
440,372,3617,2,0,P|401:364|362:371,1,80,0|8,0:0|0:2,0:0:0:0:
315,382,3992,1,0,0:0:0:0:
37,322,4367,6,0,P|109:351|182:321,1,160,0|8,0:0|0:2,0:0:0:0:
253,255,5117,2,0,P|181:226|109:257,1,160,0|0,0:0|2:0,0:0:0:0:
182,321,5867,1,8,0:2:0:0:
232,148,6117,6,0,L|256:64,1,80,0|0,2:0|0:0,0:0:0:0:
112,192,6617,2,0,L|91:115,1,80,0|8,0:0|0:2,0:0:0:0:
182,321,7117,1,0,2:0:0:0:
182,321,7367,2,0,L|204:244,1,80,12|0,0:2|2:0,0:0:0:0:
120,32,8367,6,2,B|192:64|248:36|256:32|264:28|320:0|392:32,1,280
464,176,10367,6,0,L|468:92,1,80,4|2,0:0|0:2,0:0:0:0:
376,232,10867,2,0,L|379:152,1,80,8|2,0:2|0:2,0:0:0:0:
292,280,11367,2,0,L|295:200,1,80,0|2,0:0|0:2,0:0:0:0:
220,336,11867,1,8,0:2:0:0:
220,336,12117,6,0,P|291:366|364:337,1,160,2|2,0:2|0:2,0:0:0:0:
292,202,12867,2,0,P|284:241|292:280,1,80,8|2,0:2|0:2,0:0:0:0:
378,152,13367,2,0,P|385:112|377:73,1,80,0|2,0:0|0:2,0:0:0:0:
302,16,13867,1,8,0:2:0:0:
302,16,13992,1,8,0:2:0:0:
302,16,14117,1,2,0:2:0:0:
48,176,14367,6,0,L|44:92,1,80,4|2,0:0|0:2,0:0:0:0:
136,232,14867,2,0,L|133:152,1,80,8|2,0:2|0:2,0:0:0:0:
220,280,15367,2,0,L|217:200,1,80,0|2,0:0|0:2,0:0:0:0:
292,336,15867,1,8,0:2:0:0:
292,336,16117,6,0,P|221:366|148:337,1,160,2|2,0:2|0:2,0:0:0:0:
220,202,16867,2,0,P|228:241|220:280,1,80,8|2,0:2|0:2,0:0:0:0:
132,150,17367,1,12,0:2:0:0:
120,138,17867,1,12,0:2:0:0:
108,126,18367,5,4,0:0:0:0:
15,34,18617,1,2,0:2:0:0:
120,138,18867,5,8,0:2:0:0:
103,8,19117,1,2,0:2:0:0:
132,150,19367,5,0,0:0:0:0:
190,32,19617,1,2,0:2:0:0:
144,162,19867,5,8,0:2:0:0:
256,95,20117,2,0,B|292:52|340:52|340:52|408:52,1,160,2|2,0:2|0:2,0:0:0:0:
488,8,20867,1,8,0:2:0:0:
402,130,21117,1,2,0:2:0:0:
402,130,21367,2,0,B|394:91|394:91|402:52,1,80,0|2,0:0|0:2,0:0:0:0:
488,192,21867,1,8,0:2:0:0:
488,192,21992,1,8,0:2:0:0:
488,192,22117,1,2,0:2:0:0:
108,258,22367,5,4,0:0:0:0:
15,350,22617,1,2,0:2:0:0:
120,246,22867,5,8,0:2:0:0:
103,376,23117,1,2,0:2:0:0:
132,234,23367,5,0,0:0:0:0:
190,352,23617,1,2,0:2:0:0:
144,222,23867,5,8,0:2:0:0:
256,289,24117,2,0,B|292:332|340:332|340:332|408:332,1,160,2|2,0:2|0:2,0:0:0:0:
410,340,24742,1,0,0:0:0:0:
418,348,24867,2,0,L|392:260,1,80,8|2,0:2|0:2,0:0:0:0:
438,82,25367,2,0,L|484:236,1,160,12|12,0:2|0:2,0:0:0:0:
256,128,26117,6,0,P|217:120|178:128,1,80
116,200,26367,2,0,P|145:128|116:56,1,160,2|2,0:3|0:0,0:0:0:0:
52,128,26742,1,0,0:0:0:0:
172,352,26867,2,0,L|180:272,1,80,8|2,0:2|0:2,0:0:0:0:
20,216,27117,2,0,L|28:296,1,80,2|0,0:0|0:0,0:0:0:0:
304,340,27367,6,0,B|341:360|373:344|381:340|389:336|421:320|458:340,1,160,2|0,0:3|0:0,0:0:0:0:
270,200,27742,2,0,B|233:180|201:196|193:200|185:204|153:220|116:200,1,160,2|0,0:3|0:0,0:0:0:0:
52,128,28117,1,2,0:3:0:0:
256,32,28367,6,0,B|296:32|296:32|324:4,1,80,2|0,0:3|0:0,0:0:0:0:
424,72,28617,2,0,B|384:72|384:72|356:100,1,80,2|2,0:0|0:2,0:0:0:0:
424,168,28867,2,0,L|496:24,1,160,8|2,0:2|0:0,0:0:0:0:
256,320,29367,6,0,B|200:320|200:320|140:320|116:268,1,160,2|0,0:3|0:0,0:0:0:0:
24,244,29742,2,0,L|176:192,1,160,2|0,0:3|0:0,0:0:0:0:
243,124,30117,1,2,0:3:0:0:
175,56,30242,1,0,0:0:0:0:
106,240,30367,6,0,B|98:279|98:279|106:318,1,80,2|0,0:3|0:0,0:0:0:0:
243,202,30617,2,0,B|251:163|251:163|243:124,1,80,2|0,0:0|0:0,0:0:0:0:
175,56,30867,2,0,L|340:80,1,160,8|2,0:2|0:0,0:0:0:0:
488,192,31367,5,2,0:3:0:0:
428,268,31492,2,0,P|360:268|304:336,1,160,2|2,0:3|0:3,0:0:0:0:
207,334,31867,2,0,P|161:272|84:268,1,160,8|0,0:2|0:0,0:0:0:0:
24,192,32242,1,0,0:0:0:0:
162,100,32367,6,0,L|84:117,1,80,2|0,0:3|0:0,0:0:0:0:
218,192,32617,2,0,L|296:208,1,80,2|0,0:0|0:0,0:0:0:0:
432,68,32867,2,0,L|275:100,1,160,8|2,0:2|0:0,0:0:0:0:
56,244,33367,6,0,P|38:293|56:342,1,106.666666666667,2|2,0:0|0:0,0:0:0:0:
188,280,33867,6,0,L|128:291,1,60.0000022888184,2|2,0:0|0:0,0:0:0:0:
256,360,34117,2,0,L|316:371,1,60.0000022888184,2|2,0:3|0:0,0:0:0:0:
440,264,34367,6,0,P|469:192|440:120,1,160,4|2,0:0|0:0,0:0:0:0:
372,192,34742,1,0,0:0:0:0:
480,40,34867,2,0,P|441:31|402:40,1,80,8|0,0:2|0:0,0:0:0:0:
256,108,35117,2,0,P|294:116|333:107,1,80,2|0,0:0|0:0,0:0:0:0:
176,49,35367,6,0,L|224:201,1,160,2|0,0:3|0:0,0:0:0:0:
148,368,35742,2,0,L|100:216,1,160,2|0,0:3|0:0,0:0:0:0:
31,147,36117,1,2,0:3:0:0:
4,240,36242,1,0,0:0:0:0:
124,124,36367,6,0,P|199:100|274:124,1,160,2|2,0:3|0:0,0:0:0:0:
344,192,36742,1,0,0:0:0:0:
416,132,36867,2,0,B|407:93|407:93|416:54,1,80,8|0,0:2|0:0,0:0:0:0:
488,192,37117,2,0,B|497:231|497:231|488:270,1,80,2|0,0:0|0:0,0:0:0:0:
312,308,37367,6,0,B|256:288|256:288|208:272|156:296,1,160,2|0,0:3|0:0,0:0:0:0:
84,356,37742,2,0,L|124:200,1,160,2|0,0:3|0:0,0:0:0:0:
59,78,38117,2,0,L|40:156,1,80,2|0,0:3|0:0,0:0:0:0:
180,92,38367,6,0,B|217:76|253:96|253:96|261:92|261:92|297:108|334:92,1,160,2|2,0:2|0:0,0:0:0:0:
297,3,38742,1,0,0:0:0:0:
438,157,38867,2,0,L|430:77,1,80,8|0,0:2|0:0,0:0:0:0:
256,244,39117,2,0,L|248:323,1,80,2|0,0:0|0:0,0:0:0:0:
327,178,39367,6,0,P|256:146|185:178,1,160,2|0,0:3|0:0,0:0:0:0:
20,280,39742,2,0,P|90:311|161:279,1,160,2|0,0:3|0:0,0:0:0:0:
83,134,40116,2,0,L|91:213,1,80,2|0,0:3|0:0,0:0:0:0:
257,369,40367,6,0,B|295:384|327:372|335:368|343:364|375:348|413:369,1,160,2|2,0:3|0:0,0:0:0:0:
480,300,40742,1,0,0:0:0:0:
413,232,40867,2,0,L|438:157,1,80,8|0,0:2|0:0,0:0:0:0:
310,99,41117,2,0,L|327:178,1,80,2|0,0:0|0:0,0:0:0:0:
364,20,41367,6,0,B|312:-12|256:20|256:20|208:20,1,160,2|0,0:3|0:0,0:0:0:0:
51,170,41742,2,0,B|103:202|159:170|159:170|207:170,1,160,2|0,0:3|0:0,0:0:0:0:
117,18,42117,2,0,L|106:97,1,80,2|0,0:3|0:0,0:0:0:0:
183,328,42367,6,0,L|205:169,1,160,4|2,0:0|0:2,0:0:0:0:
256,88,42742,1,0,0:0:0:0:
328,24,42867,2,0,P|367:15|406:24,1,80,8|0,0:2|0:0,0:0:0:0:
448,108,43117,2,0,P|409:117|370:108,1,80,2|0,0:2|0:0,0:0:0:0:
501,38,43367,6,0,P|534:108|501:178,1,160,0|2,0:0|0:2,0:0:0:0:
432,246,43742,1,0,0:0:0:0:
364,313,43867,2,0,B|336:313|336:313|328:317|328:317|328:309|328:309|320:313|320:313|292:313,1,80,8|0,0:2|0:0,0:0:0:0:
154,244,44117,2,0,B|181:244|181:244|189:240|189:240|189:248|189:248|197:244|197:244|225:244,1,80,2|0,0:2|0:0,0:0:0:0:
80,316,44367,6,0,B|80:268|52:244|52:244|80:220|80:172,1,160,4|2,0:0|0:2,0:0:0:0:
11,103,44742,1,0,0:0:0:0:
78,35,44867,2,0,B|110:79|162:79|162:79|230:79,1,160,8|2,0:2|0:2,0:0:0:0:
291,11,45242,1,0,0:0:0:0:
198,177,45367,6,0,L|154:244,1,80
314,177,45617,2,0,L|358:244,1,80,2|0,0:2|0:0,0:0:0:0:
208,312,45867,2,0,L|164:379,1,80,8|0,0:2|0:0,0:0:0:0:
304,312,46117,2,0,L|348:379,1,80,2|0,0:2|0:0,0:0:0:0:
460,264,46367,6,0,P|490:192|460:120,1,160,4|2,0:0|0:2,0:0:0:0:
392,52,46742,1,0,0:0:0:0:
460,120,46867,2,0,L|541:120,1,80,8|0,0:2|0:0,0:0:0:0:
392,192,47117,2,0,L|311:192,1,80,2|0,0:2|0:0,0:0:0:0:
188,96,47367,6,0,B|120:96|120:96|72:96|40:136,1,160,0|2,0:0|0:2,0:0:0:0:
116,192,47742,1,0,0:0:0:0:
40,248,47867,2,0,B|72:288|120:288|120:288|188:288,1,160,8|2,0:2|0:2,0:0:0:0:
256,352,48242,1,0,0:0:0:0:
325,288,48367,5,4,0:3:0:0:
256,24,48867,1,4,0:3:0:0:
187,288,49367,1,4,0:3:0:0:
256,352,49617,1,4,0:3:0:0:
325,288,49867,1,4,0:3:0:0:
256,220,50117,1,4,0:3:0:0:
256,220,50242,1,4,0:3:0:0:
256,220,50367,6,0,L|152:92,1,160,4|2,0:0|0:2,0:0:0:0:
86,27,50742,1,0,0:0:0:0:
155,95,50867,2,0,P|195:95|225:70,1,80,8|0,0:2|0:0,0:0:0:0:
360,104,51117,2,0,P|320:103|290:128,1,80,2|0,0:2|0:0,0:0:0:0:
350,188,51367,6,0,L|414:40,1,160,0|2,0:0|0:2,0:0:0:0:
500,4,51742,1,0,0:0:0:0:
321,53,51867,2,0,L|288:132,1,80,8|0,0:2|0:0,0:0:0:0:
376,324,52117,2,0,L|407:251,1,80,2|0,0:2|0:0,0:0:0:0:
256,268,52367,6,0,B|219:288|187:272|179:268|171:264|139:248|102:268,1,160,4|2,0:0|0:2,0:0:0:0:
32,336,52742,1,0,0:0:0:0:
101,268,52867,2,0,P|109:229|101:190,1,80,8|0,0:2|0:0,0:0:0:0:
22,68,53117,2,0,P|14:106|21:145,1,80,2|0,0:2|0:0,0:0:0:0:
109,104,53367,6,0,B|141:64|189:64|189:64|257:64,1,160,0|2,0:0|0:2,0:0:0:0:
324,132,53742,1,0,0:0:0:0:
391,64,53867,2,0,L|447:1,1,80,8|0,0:2|0:0,0:0:0:0:
456,136,54117,2,0,L|400:199,1,80,2|0,0:2|0:0,0:0:0:0:
332,308,54367,6,0,B|256:308|256:308|192:372,1,160,4|2,0:0|0:2,0:0:0:0:
128,299,54742,1,0,0:0:0:0:
195,231,54867,2,0,B|203:192|203:192|195:153,1,80,8|0,0:2|0:0,0:0:0:0:
264,8,55117,2,0,B|256:47|256:47|264:86,1,80,2|0,0:2|0:0,0:0:0:0:
352,47,55367,6,0,L|192:47,1,160,0|2,0:0|0:2,0:0:0:0:
116,104,55742,1,0,0:0:0:0:
195,153,55867,2,0,B|274:153,1,80,8|0,0:2|0:0,0:0:0:0:
397,231,56117,2,0,B|317:231,1,80,2|0,0:2|0:0,0:0:0:0:
40,348,56367,5,4,0:3:0:0:
472,348,56617,1,4,0:3:0:0:
100,212,56867,1,4,0:3:0:0:
412,212,57117,1,4,0:3:0:0:
156,80,57367,5,4,0:3:0:0:
174,57,57492,1,4,0:3:0:0:
198,39,57617,1,4,0:3:0:0:
225,28,57742,1,4,0:3:0:0:
254,24,57867,1,4,0:3:0:0:
287,28,57992,1,4,0:3:0:0:
314,39,58117,1,4,0:3:0:0:
338,57,58242,1,4,0:3:0:0:
356,80,58367,5,4,0:0:0:0:
256,264,58617,1,2,0:2:0:0:
156,80,58867,1,8,0:0:0:0:
412,212,59117,1,2,0:2:0:0:
100,212,59367,1,2,0:3:0:0:
356,80,59617,1,2,0:2:0:0:
256,264,59867,1,8,0:0:0:0:
200,176,60117,6,0,B|240:160|256:112|256:112|272:160|312:176,1,176.000005371094,2|2,0:2|0:2,0:0:0:0:
192,368,60867,1,8,0:0:0:0:
368,260,61117,1,2,0:2:0:0:
320,368,61367,1,2,0:3:0:0:
144,260,61617,1,2,0:2:0:0:
192,368,61867,1,8,0:0:0:0:
256,264,62117,1,2,0:2:0:0:
256,264,62242,1,8,0:0:0:0:
256,264,62367,6,0,B|256:236|256:236|252:228|252:228|260:228|260:228|256:220|256:220|256:186,1,88.000002685547,4|2,0:0|0:2,0:0:0:0:
184,112,62867,2,0,B|165:131|165:131|156:134|156:134|162:140|162:140|153:143|153:143|129:167,1,88.000002685547,8|2,0:0|0:2,0:0:0:0:
330,111,63367,2,0,B|350:130|350:130|359:133|359:133|353:139|353:139|362:142|362:142|386:166,1,88.000002685547,2|2,0:3|0:2,0:0:0:0:
460,240,63867,1,8,0:0:0:0:
332,324,64117,6,0,B|256:368|256:368|180:324,1,176.000005371094,2|2,0:2|0:2,0:0:0:0:
104,252,64867,1,8,0:0:0:0:
180,180,65117,2,0,B|180:156|196:140|196:140|180:124|180:100,1,88.000002685547,2|2,0:2|0:3,0:0:0:0:
82,62,65617,2,0,B|82:86|66:102|66:102|82:118|82:142,1,88.000002685547,2|8,0:2|0:0,0:0:0:0:
257,38,66118,1,2,0:2:0:0:
257,38,66243,1,8,0:0:0:0:
257,38,66368,6,0,L|345:50,1,88.000002685547,4|2,0:0|0:2,0:0:0:0:
180,180,66868,2,0,L|268:192,1,88.000002685547,8|2,0:0|0:2,0:0:0:0:
167,334,67367,2,0,L|255:346,1,88.000002685547,2|2,0:3|0:2,0:0:0:0:
332,276,67868,1,8,0:0:0:0:
412,192,68117,6,0,B|412:140|442:112|442:112|412:84|412:32,1,176.000005371094,2|2,0:2|0:2,0:0:0:0:
328,112,68867,1,8,0:0:0:0:
508,152,69117,2,0,P|520:110|508:68,1,88.000002685547,2|2,0:2|0:3,0:0:0:0:
332,192,69617,2,0,P|320:234|332:276,1,88.000002685547,2|8,0:2|0:0,0:0:0:0:
408,348,70117,1,2,0:2:0:0:
408,348,70242,1,8,0:0:0:0:
408,348,70367,5,4,0:0:0:0:
501,256,70617,1,2,0:2:0:0:
396,360,70867,5,8,0:0:0:0:
413,230,71117,1,2,0:2:0:0:
384,372,71367,5,2,0:3:0:0:
326,254,71617,1,2,0:2:0:0:
372,384,71867,5,8,0:0:0:0:
260,317,72117,2,0,B|224:274|176:274|176:274|97:274,1,176.000005371094,2|2,0:2|0:2,0:0:0:0:
22,348,72867,1,8,0:0:0:0:
200,235,73117,2,0,B|208:192|208:192|200:149,1,88.000002685547,2|2,0:2|0:3,0:0:0:0:
28,36,73617,2,0,B|20:79|20:79|28:122,1,88.000002685547,2|8,0:2|0:0,0:0:0:0:
200,61,74117,1,2,0:2:0:0:
200,61,74242,1,8,0:0:0:0:
200,61,74367,5,4,0:0:0:0:
256,229,74617,1,2,0:2:0:0:
312,61,74867,1,8,0:0:0:0:
160,153,75117,1,2,0:2:0:0:
352,153,75367,1,2,0:3:0:0:
200,61,75617,1,2,0:2:0:0:
256,229,75867,1,8,0:0:0:0:
312,61,76117,6,0,B|272:45|256:7|256:7|240:45|200:61,1,160,2|2,0:2|0:2,0:0:0:0:
160,153,76867,2,0,B|168:192|168:192|160:231,1,80,8|2,0:0|0:2,0:0:0:0:
256,309,77367,2,0,L|256:229,1,80,2|2,0:3|0:2,0:0:0:0:
352,153,77867,2,0,B|344:192|344:192|352:231,1,80,8|2,0:0|0:2,0:0:0:0:
460,360,78367,6,0,L|512:296,1,80,4|2,0:0|0:2,0:0:0:0:
392,112,78867,2,0,P|353:104|315:113,1,80,8|2,0:0|0:2,0:0:0:0:
314,270,79367,2,0,P|353:280|392:272,1,80,2|2,0:3|0:2,0:0:0:0:
510,86,79867,2,0,L|460:24,1,80,8|2,0:0|0:2,0:0:0:0:
332,64,80367,5,4,0:0:0:0:
256,124,80617,1,2,0:2:0:0:
180,64,80867,1,8,0:0:0:0:
256,4,81117,1,2,0:2:0:0:
328,192,81367,1,8,0:0:0:0:
328,192,81867,2,0,P|256:222|184:192,1,160,8|4,0:0|0:0,0:0:0:0:
324,260,86367,6,0,B|366:244|394:256|402:260|410:264|438:276|480:260,1,160,4|4,0:0|0:0,0:0:0:0:
188,124,87367,2,0,B|146:140|118:128|110:124|102:120|74:108|32:124,1,160,4|4,0:0|0:0,0:0:0:0:
256,192,88367,1,2,1:3:0:0:
452,343,89367,6,0,L|469:307,1,40,2|2,0:0|0:0,0:0:0:0:
342,236,89867,2,0,L|359:271,1,40,2|2,0:0|0:0,0:0:0:0:
446,192,90367,5,4,0:3:0:0:
508,119,90617,1,2,0:0:0:0:
446,46,90867,2,0,P|408:36|370:46,1,80,8|2,0:0|0:0,0:0:0:0:
218,119,91367,2,0,P|256:128|294:118,1,80,4|2,0:3|0:0,0:0:0:0:
144,45,91867,1,8,0:0:0:0:
70,118,92117,6,0,L|135:268,1,160,2|2,0:0|0:0,0:0:0:0:
186,345,92867,2,0,B|225:345|225:345|256:372,1,80,8|2,0:0|0:0,0:0:0:0:
343,336,93367,2,0,L|253:256,1,120,4|2,0:3|0:3,0:0:0:0:
219,224,93867,1,8,0:0:0:0:
151,156,94117,1,2,0:3:0:0:
218,88,94367,6,0,P|256:77|294:87,1,80,4|2,0:3|0:0,0:0:0:0:
151,156,94867,2,0,P|112:166|74:156,1,80,8|2,0:0|0:0,0:0:0:0:
6,88,95367,1,4,0:3:0:0:
73,20,95617,1,2,0:0:0:0:
73,20,95742,1,2,0:3:0:0:
73,19,95867,2,0,P|111:10|149:20,1,80,8|2,0:0|0:3,0:0:0:0:
361,156,96367,5,4,0:3:0:0:
304,232,96617,1,4,0:3:0:0:
208,232,96867,1,4,0:3:0:0:
151,156,97117,1,12,0:3:0:0:
364,316,97367,5,4,0:3:0:0:
338,330,97492,1,4,0:3:0:0:
312,343,97617,1,4,0:3:0:0:
285,356,97742,1,4,0:3:0:0:
259,370,97867,1,4,0:3:0:0:
227,356,97992,1,4,0:3:0:0:
200,343,98117,1,4,0:3:0:0:
174,330,98242,1,4,0:3:0:0:
148,316,98367,6,0,L|72:280,1,80,4|0,0:0|0:0,0:0:0:0:
208,232,98617,2,0,L|159:168,1,80,2|0,0:2|0:0,0:0:0:0:
304,232,98867,2,0,L|356:164,1,80,8|0,0:2|0:0,0:0:0:0:
364,316,99117,2,0,L|436:281,1,80,2|0,0:2|0:0,0:0:0:0:
324,72,99367,6,0,B|296:44|256:32|256:32|216:44|188:72,1,160,0|2,0:0|0:2,0:0:0:0:
119,3,99742,1,0,0:0:0:0:
51,70,99867,2,0,B|51:98|51:98|47:106|47:106|55:106|55:106|51:114|51:114|51:140,1,80,8|0,0:2|0:0,0:0:0:0:
119,279,100117,2,0,B|119:252|119:252|123:244|123:244|115:244|115:244|119:236|119:236|119:208,1,80,2|0,0:2|0:0,0:0:0:0:
46,344,100367,6,0,P|118:374|190:344,1,160,4|2,0:0|0:2,0:0:0:0:
256,272,100742,1,0,0:0:0:0:
312,192,100867,2,0,B|320:153|320:153|312:114,1,80,8|0,0:2|0:0,0:0:0:0:
364,272,101117,2,0,B|356:311|356:311|364:350,1,80,2|0,0:2|0:0,0:0:0:0:
448,308,101367,6,0,L|482:151,1,160,0|2,0:0|0:2,0:0:0:0:
444,64,101742,1,0,0:0:0:0:
404,150,101867,2,0,P|443:159|482:151,1,80,8|0,0:2|0:0,0:0:0:0:
352,76,102117,2,0,P|313:67|274:75,1,80,2|0,0:2|0:0,0:0:0:0:
64,76,102367,6,0,L|29:232,1,160,4|2,0:0|0:2,0:0:0:0:
68,320,102742,1,0,0:0:0:0:
107,233,102867,2,0,P|68:224|30:233,1,80,8|0,0:2|0:0,0:0:0:0:
160,308,103117,2,0,P|198:316|237:308,1,80,2|0,0:2|0:0,0:0:0:0:
368,208,103367,6,0,L|320:360,1,160,0|2,0:0|0:2,0:0:0:0:
276,192,103742,1,0,0:0:0:0:
421,303,103867,2,0,L|344:280,1,80,8|0,0:2|0:0,0:0:0:0:
199,216,104117,2,0,L|276:192,1,80,2|0,0:2|0:0,0:0:0:0:
416,16,104367,5,4,0:3:0:0:
256,307,104867,1,4,0:3:0:0:
96,16,105367,1,4,0:3:0:0:
352,87,105617,1,4,0:3:0:0:
160,87,105867,1,4,0:3:0:0:
256,20,106117,1,4,0:3:0:0:
256,20,106242,1,4,0:3:0:0:
256,20,106367,6,0,B|256:87|256:87|252:95|252:95|260:95|260:95|256:103|256:103|256:170,1,160,4|2,0:0|0:2,0:0:0:0:
187,238,106742,1,0,0:0:0:0:
256,307,106867,2,0,P|295:316|334:308,1,80,8|0,0:2|0:0,0:0:0:0:
480,240,107117,2,0,P|441:231|402:239,1,80,2|0,0:2|0:0,0:0:0:0:
440,326,107367,6,0,L|440:166,1,160,0|2,0:0|0:2,0:0:0:0:
504,92,107742,1,0,0:0:0:0:
440,166,107867,2,0,P|401:175|363:165,1,80,8|0,0:2|0:0,0:0:0:0:
218,92,108117,2,0,P|256:82|294:92,1,80,2|0,0:2|0:0,0:0:0:0:
156,160,108367,6,0,B|128:132|116:92|116:92|128:52|156:24,1,160,4|2,0:0|0:2,0:0:0:0:
218,92,108742,1,0,0:0:0:0:
31,133,108867,2,0,P|24:94|32:56,1,80,8|0,0:2|0:0,0:0:0:0:
156,160,109117,2,0,P|163:199|155:238,1,80,2|0,0:2|0:0,0:0:0:0:
108,324,109367,6,0,B|140:284|188:284|188:284|256:284,1,160,0|2,0:0|0:2,0:0:0:0:
323,351,109742,1,0,0:0:0:0:
390,283,109867,2,0,B|382:244|382:244|390:205,1,80,8|0,0:2|0:0,0:0:0:0:
457,58,110117,2,0,B|465:97|465:97|457:136,1,80,2|0,0:2|0:0,0:0:0:0:
368,96,110367,6,0,B|312:76|312:76|264:60|215:84,1,160,4|2,0:0|0:2,0:0:0:0:
146,15,110742,1,0,0:0:0:0:
78,82,110867,2,0,B|78:114|78:114|86:130|86:130|86:162,1,80,8|0,0:2|0:0,0:0:0:0:
140,314,111117,2,0,B|140:284|140:284|148:268|148:268|148:236,1,80,2|0,0:2|0:0,0:0:0:0:
64,376,111367,6,0,B|140:352|140:352|216:376,1,160,0|2,0:0|0:2,0:0:0:0:
284,308,111742,1,0,0:0:0:0:
218,236,111867,2,0,B|190:236|190:236|182:232|182:232|182:240|182:240|174:236|174:236|146:236,1,80,8|0,0:2|0:0,0:0:0:0:
284,308,112117,2,0,B|312:308|312:308|320:312|320:312|320:304|320:304|328:308|328:308|356:308,1,80,2|0,0:2|0:0,0:0:0:0:
472,348,112367,5,4,0:3:0:0:
40,348,112617,1,4,0:3:0:0:
412,212,112867,1,4,0:3:0:0:
100,212,113117,1,4,0:3:0:0:
356,80,113367,5,4,0:3:0:0:
338,57,113492,1,4,0:3:0:0:
314,39,113617,1,4,0:3:0:0:
287,28,113742,1,4,0:3:0:0:
258,24,113867,1,4,0:3:0:0:
225,28,113992,1,4,0:3:0:0:
198,39,114117,1,4,0:3:0:0:
174,57,114242,1,4,0:3:0:0:
156,80,114367,5,4,0:0:0:0:
256,264,114617,1,2,0:2:0:0:
356,80,114867,1,8,0:0:0:0:
100,212,115117,1,2,0:2:0:0:
412,212,115367,1,2,0:3:0:0:
156,80,115617,1,2,0:2:0:0:
256,264,115867,1,8,0:0:0:0:
312,176,116117,6,0,B|272:160|256:112|256:112|240:160|200:176,1,176.000005371094,2|2,0:2|0:2,0:0:0:0:
320,368,116867,1,8,0:0:0:0:
144,260,117117,1,2,0:2:0:0:
192,368,117367,1,2,0:3:0:0:
368,260,117617,1,2,0:2:0:0:
320,368,117867,1,8,0:0:0:0:
256,264,118117,1,2,0:2:0:0:
256,264,118242,1,8,0:0:0:0:
256,264,118367,6,0,B|256:236|256:236|260:228|260:228|252:228|252:228|256:220|256:220|256:186,1,88.000002685547,4|2,0:0|0:2,0:0:0:0:
328,112,118867,2,0,B|347:131|347:131|356:134|356:134|350:140|350:140|359:143|359:143|383:167,1,88.000002685547,8|2,0:0|0:2,0:0:0:0:
182,111,119367,2,0,B|162:130|162:130|153:133|153:133|159:139|159:139|150:142|150:142|126:166,1,88.000002685547,2|2,0:3|0:2,0:0:0:0:
52,240,119867,1,8,0:0:0:0:
180,324,120117,6,0,B|256:368|256:368|332:324,1,176.000005371094,2|2,0:2|0:2,0:0:0:0:
408,252,120867,1,8,0:0:0:0:
332,180,121117,2,0,B|332:156|316:140|316:140|332:124|332:100,1,88.000002685547,2|2,0:2|0:3,0:0:0:0:
430,62,121617,2,0,B|430:86|446:102|446:102|430:118|430:142,1,88.000002685547,2|8,0:2|0:0,0:0:0:0:
255,38,122118,1,2,0:2:0:0:
255,38,122243,1,8,0:0:0:0:
255,38,122368,6,0,L|167:50,1,88.000002685547,4|2,0:0|0:2,0:0:0:0:
332,180,122868,2,0,L|244:192,1,88.000002685547,8|2,0:0|0:2,0:0:0:0:
345,334,123367,2,0,L|257:346,1,88.000002685547,2|2,0:3|0:2,0:0:0:0:
180,276,123868,1,8,0:0:0:0:
100,192,124117,6,0,B|100:140|70:112|70:112|100:84|100:32,1,176.000005371094,2|2,0:2|0:2,0:0:0:0:
184,112,124867,1,8,0:0:0:0:
4,152,125117,2,0,P|-8:110|4:68,1,88.000002685547,2|2,0:2|0:3,0:0:0:0:
180,192,125617,2,0,P|192:234|180:276,1,88.000002685547,2|8,0:2|0:0,0:0:0:0:
104,348,126117,1,2,0:2:0:0:
104,348,126242,1,8,0:0:0:0:
104,348,126367,5,4,0:0:0:0:
11,256,126617,1,2,0:2:0:0:
116,360,126867,5,8,0:0:0:0:
99,230,127117,1,2,0:2:0:0:
128,372,127367,5,2,0:3:0:0:
186,254,127617,1,2,0:2:0:0:
140,384,127867,5,8,0:0:0:0:
252,317,128117,2,0,B|288:274|336:274|336:274|415:274,1,176.000005371094,2|2,0:2|0:2,0:0:0:0:
490,348,128867,1,8,0:0:0:0:
312,235,129117,2,0,B|304:192|304:192|312:149,1,88.000002685547,2|2,0:2|0:3,0:0:0:0:
484,36,129617,2,0,B|492:79|492:79|484:122,1,88.000002685547,2|8,0:2|0:0,0:0:0:0:
312,61,130117,1,2,0:2:0:0:
312,61,130242,1,8,0:0:0:0:
312,61,130367,5,4,0:0:0:0:
256,229,130617,1,2,0:2:0:0:
200,61,130867,1,8,0:0:0:0:
352,153,131117,1,2,0:2:0:0:
160,153,131367,1,2,0:3:0:0:
312,61,131617,1,2,0:2:0:0:
256,229,131867,1,8,0:0:0:0:
200,61,132117,6,0,B|240:45|256:7|256:7|272:45|312:61,1,160,2|2,0:2|0:2,0:0:0:0:
352,153,132867,2,0,B|344:192|344:192|352:231,1,80,8|2,0:0|0:2,0:0:0:0:
256,309,133367,2,0,L|256:229,1,80,2|2,0:3|0:2,0:0:0:0:
160,153,133867,2,0,B|168:192|168:192|160:231,1,80,8|2,0:0|0:2,0:0:0:0:
52,360,134367,6,0,L|0:296,1,80,4|2,0:0|0:2,0:0:0:0:
120,112,134867,2,0,P|159:104|197:113,1,80,8|2,0:0|0:2,0:0:0:0:
198,270,135367,2,0,P|159:280|120:272,1,80,2|2,0:3|0:2,0:0:0:0:
2,86,135867,2,0,L|52:24,1,80,8|2,0:0|0:2,0:0:0:0:
180,64,136367,5,4,0:0:0:0:
256,124,136617,1,2,0:2:0:0:
332,64,136867,1,8,0:0:0:0:
256,4,137117,1,2,0:2:0:0:
184,192,137367,1,8,0:0:0:0:
184,192,137867,2,0,P|256:222|328:192,1,160,8|4,0:0|0:0,0:0:0:0:
256,116,146367,5,4,0:0:0:0:
336,288,150367,6,0,P|408:288|408:360,1,160,4|4,0:3|0:3,0:0:0:0:
176,288,151367,2,0,P|104:288|104:360,1,160,4|4,0:3|0:3,0:0:0:0:
336,288,152367,5,4,0:3:0:0:
256,40,152617,1,4,0:3:0:0:
176,288,152867,1,4,0:3:0:0:
384,144,153117,1,4,0:3:0:0:
128,144,153367,5,4,0:3:0:0:
160,168,153492,1,4,0:3:0:0:
192,192,153617,1,4,0:3:0:0:
224,216,153742,1,4,0:3:0:0:
256,239,153867,1,4,0:3:0:0:
287,216,153992,1,4,0:3:0:0:
319,192,154117,1,4,0:3:0:0:
351,168,154242,1,4,0:3:0:0:
384,144,154367,6,0,P|393:101|384:58,1,88.000002685547,4|2,0:0|0:2,0:0:0:0:
319,192,154867,2,0,P|310:235|319:278,1,88.000002685547,8|2,0:0|0:2,0:0:0:0:
416,124,155367,2,0,P|425:81|416:38,1,88.000002685547,2|2,0:3|0:2,0:0:0:0:
328,82,155867,1,8,0:0:0:0:
328,82,156117,6,0,B|404:82|404:82|412:78|412:78|412:86|412:86|420:82|420:82|496:82,1,176.000005371094,2|2,0:2|0:2,0:0:0:0:
256,20,156867,2,0,L|192:84,1,88.000002685547,8|2,0:0|0:2,0:0:0:0:
92,112,157367,2,0,L|154:174,1,88.000002685547,2|2,0:3|0:2,0:0:0:0:
228,248,157867,1,8,0:0:0:0:
153,322,158117,1,2,0:2:0:0:
153,322,158242,1,8,0:0:0:0:
153,322,158367,6,0,B|125:322|125:322|117:318|117:318|117:326|117:326|109:322|109:322|75:322,1,88.000002685547,4|2,0:0|0:2,0:0:0:0:
228,248,158867,2,0,B|262:248|262:248|270:252|270:252|270:244|270:244|278:248|278:248|306:248,1,88.000002685547,8|2,0:0|0:2,0:0:0:0:
154,174,159367,2,0,B|126:174|126:174|118:170|118:170|118:178|118:178|110:174|110:174|76:174,1,88.000002685547,2|2,0:3|0:2,0:0:0:0:
4,96,159867,1,8,0:0:0:0:
72,16,160117,6,0,B|136:16|136:16|196:16|232:72,1,176.000005371094,2|2,0:2|0:2,0:0:0:0:
304,142,160867,1,8,0:0:0:0:
229,68,161117,2,0,B|290:5,1,88.000002685547,2|2,0:2|0:3,0:0:0:0:
304,142,161617,2,0,B|242:204,1,88.000002685547,2|8,0:2|0:0,0:0:0:0:
166,279,162118,1,2,0:2:0:0:
166,279,162243,1,8,0:0:0:0:
166,279,162367,6,0,P|124:287|81:279,1,88.000002685547,4|2,0:0|0:2,0:0:0:0:
256,228,162868,2,0,L|256:140,1,88.000002685547,8|2,0:0|0:2,0:0:0:0:
346,279,163367,2,0,P|388:287|431:279,1,88.000002685547,2|2,0:3|0:2,0:0:0:0:
256,324,163868,1,8,0:0:0:0:
176,148,164117,6,0,B|228:148|256:118|256:118|284:148|336:148,1,176.000005371094,2|2,0:2|0:2,0:0:0:0:
256,228,164867,1,8,0:0:0:0:
214,42,165117,2,0,P|256:30|298:42,1,88.000002685547,2|2,0:2|0:3,0:0:0:0:
176,148,165617,2,0,P|134:160|92:148,1,88.000002685547,2|8,0:2|0:0,0:0:0:0:
17,222,166117,1,2,0:2:0:0:
17,222,166242,1,8,0:0:0:0:
17,222,166367,6,0,B|17:246|1:262|1:262|17:278|17:302,1,88.000002685547,4|2,0:0|0:2,0:0:0:0:
92,148,166867,2,0,B|92:124|108:108|108:108|92:92|92:68,1,88.000002685547,8|2,0:0|0:2,0:0:0:0:
167,222,167367,2,0,B|167:246|151:262|151:262|167:278|167:302,1,88.000002685547,2|2,0:3|0:2,0:0:0:0:
92,376,167867,5,8,0:0:0:0:
167,302,168117,2,0,B|203:259|251:259|251:259|330:259,1,176.000005371094,2|2,0:2|0:2,0:0:0:0:
408,332,168867,1,8,0:0:0:0:
483,260,169117,2,0,B|468:216|430:192|430:192|468:168|483:124,1,176.000005371094,2|2,0:2|0:2,0:0:0:0:
408,52,169867,1,8,0:0:0:0:
329,125,170117,1,2,0:2:0:0:
329,125,170242,1,8,0:0:0:0:
329,125,170367,6,0,P|290:134|251:125,1,80,4|2,0:0|0:2,0:2:0:0:
106,192,170867,2,0,P|145:183|184:192,1,80,8|2,0:0|0:2,0:2:0:0:
333,255,171367,2,0,P|294:264|256:256,1,80,2|2,0:3|0:2,0:2:0:0:
420,192,171867,1,8,0:0:0:0:
420,192,172117,6,0,L|384:352,1,160,2|2,0:2|0:2,0:0:0:0:
296,384,172867,1,8,0:0:0:0:
480,308,173117,1,2,0:2:0:0:
295,248,173367,2,0,B|256:256|256:256|217:248,1,80,2|2,0:3|0:2,0:0:0:0:
32,308,173867,1,8,0:0:0:0:
216,384,174117,1,2,0:2:0:0:
360,152,174367,6,0,P|360:124|384:76,1,80,4|2,0:0|0:2,0:0:0:0:
256,116,174867,2,0,L|256:32,1,80,8|2,0:0|0:2,0:0:0:0:
152,152,175367,2,0,P|152:124|128:76,1,80,2|2,0:3|0:2,0:0:0:0:
256,304,175867,1,8,0:0:0:0:
324,228,176117,6,0,B|284:228|256:192|256:192|228:228|188:228,2,160,2|2|2,0:2|0:2|0:2,0:0:0:0:
391,295,177367,2,0,P|362:224|391:152,1,160,8|8,0:0|0:0,0:0:0:0:
393,151,178367,6,0,L|474:135,1,80,4|2,0:0|0:2,0:0:0:0:
256,52,178867,2,0,L|337:68,1,80,8|2,0:0|0:2,0:0:0:0:
176,171,179367,2,0,L|255:156,1,80,2|2,0:3|0:2,0:0:0:0:
37,71,179867,1,8,0:0:0:0:
37,71,180117,6,0,L|116:87,1,80,2|4,0:2|0:0,0:0:0:0:
176,171,180617,1,2,0:2:0:0:
168,12,180867,1,8,0:0:0:0:
92,212,181117,1,2,0:2:0:0:
256,52,181367,2,0,B|295:44|295:44|334:52,1,80,2|2,0:3|0:2,0:0:0:0:
404,126,181867,1,8,0:0:0:0:
404,126,181992,1,8,0:0:0:0:
404,126,182117,1,2,0:2:0:0:
119,233,182367,6,0,L|38:249,1,80,4|2,0:0|0:2,0:0:0:0:
256,332,182867,2,0,L|175:316,1,80,8|2,0:0|0:2,0:0:0:0:
336,213,183367,2,0,L|257:228,1,80,2|2,0:3|0:2,0:0:0:0:
475,313,183867,1,8,0:0:0:0:
475,313,184117,6,0,L|396:297,1,80,2|4,0:2|0:0,0:0:0:0:
336,213,184617,1,2,0:2:0:0:
344,372,184867,1,8,0:0:0:0:
420,172,185117,1,2,0:2:0:0:
256,332,185367,1,8,0:0:0:0:
256,332,185867,2,0,B|206:355|158:339|158:339|102:319,1,160,8|2,0:0|3:0,0:0:0:0:
