osu file format v12

[General]
AudioFilename: 07 Wings.mp3
AudioLeadIn: 2000
PreviewTime: 43843
Countdown: 0
SampleSet: Soft
StackLeniency: 0.7
Mode: 0
LetterboxInBreaks: 1

[Editor]
Bookmarks: 87573
DistanceSpacing: 1.2
BeatDivisor: 4
GridSize: 4

[Metadata]
Title:Wings
TitleUnicode:Wings
Artist:BIGBANG
ArtistUnicode:BIGBANG
Creator:Lissette
Version:Walking
Source:
Tags:alive kpop k-pop big bang mini album daesung solo nalgae
BeatmapID:207397
BeatmapSetID:70740

[Difficulty]
HPDrainRate:5
CircleSize:3
OverallDifficulty:5
ApproachRate:5
SliderMultiplier:1.2
SliderTickRate:1

[Events]
//Background and Video events
0,0,"3Iiuh - Copy.jpg",0,0
//Break Periods
2,73248,85321
2,145975,159121
//Storyboard Layer 0 (Background)
//Storyboard Layer 1 (Fail)
//Storyboard Layer 2 (Pass)
//Storyboard Layer 3 (Foreground)
//Storyboard Sound Samples
//Background Colour Transformations
3,100,0,0,0

[TimingPoints]
321,454.545454545455,4,2,1,40,1,0
43957,-100,4,2,1,40,0,1
58048,-100,4,2,1,40,0,0
58502,-100,4,2,1,40,0,1
73048,-100,4,2,1,40,0,0
116684,-100,4,2,1,40,0,1
130775,-100,4,2,1,40,0,0
131230,-100,4,2,1,40,0,1
145775,-100,4,2,1,40,0,0
160321,-100,4,2,1,20,0,0
167593,-100,4,2,1,30,0,0
168957,-100,4,2,1,35,0,0
170321,-100,4,2,1,40,0,0
174866,-100,4,2,1,40,0,1
188957,-100,4,2,1,40,0,0
189411,-100,4,2,1,40,0,1
203957,-100,4,2,1,40,0,0
216230,-100,4,2,1,40,0,0
217593,-100,4,2,1,35,0,0
217821,-100,4,2,1,30,0,0
218048,-100,4,2,1,25,0,0
218275,-100,4,2,1,20,0,0
218502,-100,4,2,1,15,0,0
218730,-100,4,2,1,10,0,0
218957,-100,4,2,1,5,0,0

[Colours]
Combo1 : 255,255,255
Combo2 : 255,255,55
Combo3 : 255,255,255
Combo4 : 255,255,155

[HitObjects]
68,320,321,2,0,B|137:320|152:250,1,120,2|0,0:0|0:0,0:0:0:0:
128,184,1002,2,0,B|143:114|215:114,1,120,2|0,0:0|0:0,0:0:0:0:
212,114,1684,1,2,0:0:0:0:
344,56,2139,5,0,0:0:0:0:
420,180,2593,1,2,0:0:0:0:
284,240,3048,1,0,0:0:0:0:
212,114,3502,1,2,0:0:0:0:
80,56,3957,6,0,L|16:184,1,120,2|0,0:0|0:0,0:0:0:0:
88,208,4639,2,0,L|24:336,1,120,2|0,0:0|0:0,0:0:0:0:
34,315,5321,1,2,0:0:0:0:
176,344,5775,5,0,0:0:0:0:
224,208,6230,1,2,0:0:0:0:
80,176,6684,1,0,0:0:0:0:
34,315,7139,1,2,0:0:0:0:
176,344,7593,6,0,P|224:320|304:328,1,120,2|0,0:0|0:0,0:0:0:0:
352,352,8275,2,0,P|417:354|465:330,1,120,2|0,0:0|0:0,0:0:0:0:
465,330,8957,1,2,0:0:0:0:
488,192,9411,5,0,0:0:0:0:
344,168,9866,1,2,0:0:0:0:
320,312,10321,1,0,0:0:0:0:
465,330,10775,1,2,0:0:0:0:
488,192,11230,6,0,P|488:136|448:88,1,120,2|0,0:0|0:0,0:0:0:0:
392,136,11911,2,0,P|352:88|352:32,1,120,2|0,0:0|0:0,0:0:0:0:
351,32,12593,1,2,0:0:0:0:
208,32,13048,6,0,P|128:64|104:168,2,180,2|2|0,0:0|0:0|0:0,0:0:0:0:
352,64,14866,6,0,L|408:184,1,120,4|0,0:0|0:0,0:0:0:0:
480,172,15548,2,0,P|456:232|400:252,1,120,2|0,0:0|0:0,0:0:0:0:
407,252,16230,1,2,0:0:0:0:
272,216,16684,5,2,0:0:0:0:
144,288,17139,1,0,0:0:0:0:
144,288,17366,1,2,0:0:0:0:
40,184,17821,1,0,0:0:0:0:
40,184,18048,1,2,0:0:0:0:
160,112,18502,6,0,L|304:80,1,120,2|0,0:0|0:0,0:0:0:0:
264,8,19184,2,0,L|120:40,1,120,2|0,0:0|0:0,0:0:0:0:
146,34,19866,1,2,0:0:0:0:
64,152,20321,5,2,0:0:0:0:
144,272,20775,1,0,0:0:0:0:
144,272,21002,1,2,0:0:0:0:
232,152,21457,1,0,0:0:0:0:
232,152,21684,1,2,0:0:0:0:
304,272,22139,6,0,P|360:304|416:280,1,120,2|0,0:0|0:0,0:0:0:0:
364,224,22821,2,0,L|388:104,1,120,2|0,0:0|0:0,0:0:0:0:
387,106,23502,1,2,0:0:0:0:
256,168,23957,5,2,0:0:0:0:
140,84,24411,1,0,0:0:0:0:
140,84,24639,1,2,0:0:0:0:
20,164,25093,1,0,0:0:0:0:
20,164,25321,1,2,0:0:0:0:
64,300,25775,6,0,L|184:276,1,120,2|0,0:0|0:0,0:0:0:0:
228,332,26457,2,0,L|360:356,1,120,2|0,0:0|0:0,0:0:0:0:
346,353,27139,1,2,0:0:0:0:
392,216,27593,6,0,P|380:132|408:84,1,120,2|0,0:0|0:0,0:0:0:0:
464,124,28275,2,0,P|476:40|462:10,1,120,2|0,0:0|0:0,0:0:0:0:
462,10,28957,1,2,0:0:0:0:
324,48,29411,5,4,0:0:0:0:
180,24,29866,1,8,0:0:0:0:
108,148,30321,1,0,0:0:0:0:
200,256,30775,1,8,0:0:0:0:
336,208,31230,6,0,P|400:212|448:252,1,120,2|8,0:0|0:0,0:0:0:0:
368,288,31911,2,0,P|304:284|256:244,1,120,2|0,0:0|0:0,0:0:0:0:
260,251,32593,1,8,0:0:0:0:
260,108,33048,5,2,0:0:0:0:
148,16,33502,1,8,0:0:0:0:
32,104,33957,1,0,0:0:0:0:
68,244,34411,1,8,0:0:0:0:
212,248,34866,6,0,L|328:284,1,120,2|8,0:0|0:0,0:0:0:0:
340,212,35548,2,0,L|456:248,1,120,2|0,0:0|0:0,0:0:0:0:
454,247,36230,1,8,0:0:0:0:
460,104,36684,5,2,0:0:0:0:
328,44,37139,1,8,0:0:0:0:
192,96,37593,1,0,0:0:0:0:
56,52,38048,1,8,0:0:0:0:
92,192,38502,6,0,P|64:248|80:304,1,120,2|8,0:0|0:0,0:0:0:0:
144,256,39184,2,0,L|284:248,1,120,2|0,0:0|0:0,0:0:0:0:
263,249,39866,1,8,0:0:0:0:
392,316,40321,5,2,0:0:0:0:
476,200,40775,1,8,0:0:0:0:
348,132,41230,1,0,0:0:0:0:
263,249,41684,1,8,0:0:0:0:
96,48,43502,5,0,1:0:0:0:
96,48,43957,6,0,P|56:92|72:168,1,120,4|0,1:0|1:0,0:0:0:0:
104,284,44866,2,0,P|144:332|216:328,2,120,2|0|2,0:0|1:0|0:0,0:0:0:0:
224,204,46230,5,0,1:0:0:0:
224,204,46684,1,0,0:0:0:0:
224,204,47139,1,0,1:0:0:0:
356,148,47593,6,0,P|352:88|304:48,1,120,2|0,0:0|1:0,0:0:0:0:
168,16,48502,2,0,P|104:24|68:68,2,120,2|0|2,0:0|1:0|0:0,0:0:0:0:
172,160,49866,5,0,1:0:0:0:
60,248,50321,1,0,0:0:0:0:
160,352,50775,1,0,1:0:0:0:
272,260,51230,6,0,L|412:248,2,120,0|0|0,0:0|1:0|0:0,0:0:0:0:
184,148,52593,2,0,L|44:160,2,120,0|0|0,1:0|0:0|1:0,0:0:0:0:
304,68,53957,5,0,0:0:0:0:
440,108,54411,1,0,1:0:0:0:
444,252,54866,2,0,L|456:372,1,120,0|0,0:0|1:0,0:0:0:0:
312,348,55775,2,0,L|300:228,1,120,0|0,0:0|1:0,0:0:0:0:
160,196,56684,2,0,L|172:316,1,120,0|0,0:0|1:0,0:0:0:0:
171,315,57593,5,0,1:0:0:0:
32,352,58048,1,0,1:0:0:0:
172,316,58502,6,0,P|225:349|289:333,1,120,4|0,1:0|1:0,0:0:0:0:
384,240,59411,2,0,P|412:192|396:124,2,120,2|0|2,0:0|1:0|0:0,0:0:0:0:
244,204,60775,5,0,1:0:0:0:
244,204,61230,1,0,0:0:0:0:
244,204,61684,1,0,1:0:0:0:
228,60,62139,6,0,P|296:60|332:100,1,120,2|0,0:0|1:0,0:0:0:0:
372,232,63048,2,0,P|372:296|316:340,2,120,2|0|2,0:0|1:0|0:0,0:0:0:0:
240,176,64411,5,0,1:0:0:0:
104,128,64866,1,0,0:0:0:0:
40,252,65321,1,0,1:0:0:0:
172,308,65775,6,0,L|312:352,2,120,0|0|0,0:0|1:0|0:0,0:0:0:0:
196,164,67139,2,0,L|56:120,2,120,0|0|0,1:0|0:0|1:0,0:0:0:0:
312,80,68502,5,0,0:0:0:0:
420,172,68957,1,0,1:0:0:0:
308,264,69411,2,0,P|264:304|192:288,1,120,0|0,0:0|1:0,0:0:0:0:
116,188,70321,2,0,P|160:148|232:164,1,120,0|0,0:0|1:0,0:0:0:0:
360,132,71230,1,0,0:0:0:0:
256,192,71343,12,4,73048,1:0:0:0:
88,84,87593,6,0,L|208:56,1,120,6|0,0:0|1:0,0:0:0:0:
236,124,88275,2,0,L|356:96,1,120,2|0,0:0|0:0,0:0:0:0:
352,96,88957,1,0,1:0:0:0:
444,208,89411,5,2,0:0:0:0:
344,312,89866,1,0,1:0:0:0:
344,312,90093,1,2,0:0:0:0:
208,268,90548,1,0,0:0:0:0:
208,268,90775,1,0,1:0:0:0:
72,316,91230,1,2,0:0:0:0:
72,316,91684,2,0,L|64:168,2,120,0|0|0,1:0|0:0|1:0,0:0:0:0:
212,276,93048,5,2,0:0:0:0:
352,316,93502,1,0,1:0:0:0:
352,316,93730,1,2,0:0:0:0:
464,224,94184,1,0,0:0:0:0:
464,224,94411,1,0,1:0:0:0:
332,168,94866,6,0,P|268:172|216:140,1,120,2|0,0:0|1:0,0:0:0:0:
232,72,95548,2,0,P|184:45|120:49,1,120,2|0,0:0|0:0,0:0:0:0:
120,49,96230,1,0,1:0:0:0:
76,184,96684,5,2,0:0:0:0:
144,312,97139,1,0,1:0:0:0:
144,312,97366,1,2,0:0:0:0:
260,224,97821,1,0,0:0:0:0:
260,224,98048,1,0,1:0:0:0:
352,336,98502,6,0,L|444:244,1,120,2|0,0:0|1:0,0:0:0:0:
400,188,99184,2,0,L|492:96,1,120,2|0,0:0|0:0,0:0:0:0:
484,103,99866,1,0,1:0:0:0:
352,52,100321,6,0,P|296:28|240:48,1,120,2|0,0:0|1:0,0:0:0:0:
212,112,101002,2,0,P|158:130|102:106,1,120,2|0,0:0|0:0,0:0:0:0:
68,44,101684,2,0,L|8:40,2,60,0|4|0,1:0|0:0|0:0,0:0:0:0:
8,176,102593,5,0,1:0:0:0:
36,316,103048,1,0,0:0:0:0:
176,288,103502,1,0,1:0:0:0:
148,148,103957,6,0,L|196:36,1,120,2|0,0:0|1:0,0:0:0:0:
284,36,104639,2,0,L|236:148,1,120,2|0,0:0|0:0,0:0:0:0:
236,146,105321,1,0,1:0:0:0:
380,148,105775,5,2,0:0:0:0:
416,288,106230,1,0,1:0:0:0:
300,372,106684,1,0,0:0:0:0:
184,284,107139,1,0,1:0:0:0:
236,146,107593,6,0,P|180:96|136:92,1,120,2|0,0:0|1:0,0:0:0:0:
152,176,108275,2,0,P|88:172|32:192,1,120,2|0,0:0|0:0,0:0:0:0:
35,189,108957,1,0,1:0:0:0:
104,316,109411,6,0,L|248:324,1,120,2|0,0:0|1:0,0:0:0:0:
352,256,110321,1,0,0:0:0:0:
484,316,110775,1,0,1:0:0:0:
464,172,111230,2,0,L|480:48,1,120,2|0,0:0|1:0,0:0:0:0:
336,76,112139,5,2,0:0:0:0:
196,36,112593,1,0,1:0:0:0:
64,92,113048,1,0,0:0:0:0:
48,236,113502,1,0,1:0:0:0:
96,288,113730,6,0,L|184:288,1,60
224,304,114184,2,0,L|312:304,1,60,0|0,0:0|1:0,0:0:0:0:
344,356,114639,6,0,P|360:296|332:244,1,120
396,80,116230,5,0,1:0:0:0:
396,80,116684,6,0,P|424:144|396:204,1,120,4|0,1:0|1:0,0:0:0:0:
316,300,117593,2,0,P|288:236|316:176,2,120,2|0|2,0:0|1:0|0:0,0:0:0:0:
176,332,118957,5,0,1:0:0:0:
48,268,119411,1,0,0:0:0:0:
176,332,119866,1,0,1:0:0:0:
160,188,120321,6,0,L|132:52,1,120,2|0,0:0|1:0,0:0:0:0:
276,108,121230,2,0,L|300:225,2,120,2|0|2,0:0|1:0|0:0,0:0:0:0:
404,44,122593,5,0,1:0:0:0:
476,168,123048,1,0,0:0:0:0:
380,276,123502,1,0,1:0:0:0:
300,156,123957,6,0,P|236:128|184:144,2,120,0|0|0,0:0|1:0|0:0,0:0:0:0:
380,276,125321,2,0,P|444:304|496:288,2,120,0|0|0,1:0|0:0|1:0,0:0:0:0:
460,156,126684,5,0,0:0:0:0:
384,32,127139,1,0,1:0:0:0:
248,76,127593,2,0,L|120:60,1,120,0|0,0:0|1:0,0:0:0:0:
64,192,128502,2,0,L|192:208,1,120,0|0,0:0|1:0,0:0:0:0:
216,348,129411,2,0,L|88:332,1,120,0|0,0:0|1:0,0:0:0:0:
64,192,130321,5,0,1:0:0:0:
96,333,130775,1,0,1:0:0:0:
64,192,131230,6,0,P|104:148|176:152,1,120,4|0,1:0|1:0,0:0:0:0:
296,192,132139,2,0,P|353:189|393:145,2,120,2|0|2,0:0|1:0|0:0,0:0:0:0:
260,52,133502,5,0,1:0:0:0:
296,192,133957,1,0,0:0:0:0:
260,52,134411,1,0,1:0:0:0:
260,52,134866,6,0,L|136:36,1,120,2|0,0:0|1:0,0:0:0:0:
56,152,135775,2,0,L|175:167,2,120,2|0|2,0:0|1:0|0:0,0:0:0:0:
28,292,137139,5,0,1:0:0:0:
160,348,137593,1,0,0:0:0:0:
300,308,138048,1,0,1:0:0:0:
352,176,138502,6,0,P|404:156|480:192,2,120,0|0|0,0:0|1:0|0:0,0:0:0:0:
224,112,139866,2,0,P|164:130|112:110,2,120,0|0|0,1:0|0:0|1:0,0:0:0:0:
344,36,141230,5,0,0:0:0:0:
460,120,141684,1,0,1:0:0:0:
372,236,142139,6,0,L|384:312,1,60,0|0,1:0|1:0,0:0:0:0:
204,172,143048,2,0,L|192:96,1,60,0|0,1:0|1:0,0:0:0:0:
88,300,143957,1,0,1:0:0:0:
256,192,144071,12,4,145775,2:0:0:0:
140,52,160321,6,0,L|268:52,3,120,12|8|8|8,0:0|0:0|0:0|0:0,0:0:0:0:
404,60,162139,6,0,P|472:84|484:136,1,120,8|8,0:0|0:0,0:0:0:0:
512,284,163048,5,8,0:0:0:0:
368,284,163502,1,8,0:0:0:0:
224,284,163957,6,0,L|100:284,3,120,8|8|8|8,0:0|0:0|0:0|0:0,0:0:0:0:
40,156,165775,6,0,P|64:88|116:76,1,120,8|8,0:0|0:0,0:0:0:0:
216,168,166684,5,8,0:0:0:0:
360,168,167139,1,8,0:0:0:0:
288,44,167593,6,0,L|420:44,2,120,8|8|8,0:0|0:0|0:0,0:0:0:0:
284,176,168957,2,0,L|152:176,2,120,8|8|8,0:0|0:0|0:0,0:0:0:0:
428,176,170321,5,0,1:0:0:0:
372,308,170775,1,0,1:0:0:0:
228,304,171230,6,0,L|148:316,1,60,0|0,1:0|1:0,0:0:0:0:
84,196,171911,2,0,L|164:184,1,60,0|0,1:0|1:0,0:0:0:0:
148,44,172593,1,0,1:0:0:0:
256,192,172821,12,0,174411,1:0:0:0:
95,186,174866,6,0,P|104:123|155:93,1,120,4|0,1:0|1:0,0:0:0:0:
286,55,175775,2,0,P|348:59|385:101,2,120,2|0|2,0:0|1:0|0:0,0:0:0:0:
244,192,177139,5,0,1:0:0:0:
100,176,177593,1,0,0:0:0:0:
68,316,178048,1,0,1:0:0:0:
208,340,178502,6,0,L|336:368,1,120,2|0,0:0|1:0,0:0:0:0:
292,224,179411,2,0,L|164:196,2,120,2|0|2,0:0|1:0|0:0,0:0:0:0:
400,320,180775,5,0,1:0:0:0:
492,208,181230,1,0,0:0:0:0:
384,112,181684,1,0,1:0:0:0:
292,224,182139,6,0,L|172:200,2,120,0|0|0,0:0|1:0|0:0,0:0:0:0:
376,108,183502,2,0,L|496:132,2,120,0|0|0,1:0|0:0|1:0,0:0:0:0:
240,56,184866,5,0,0:0:0:0:
96,72,185321,1,0,1:0:0:0:
64,212,185775,2,0,P|32:264|48:320,1,120,0|0,0:0|1:0,0:0:0:0:
188,292,186684,2,0,P|208:340|272:352,1,120,0|0,0:0|1:0,0:0:0:0:
332,224,187593,2,0,P|384:244|440:188,1,120,0|0,0:0|1:0,0:0:0:0:
452,68,188502,5,0,1:0:0:0:
432,212,188957,1,0,1:0:0:0:
452,68,189411,6,0,P|392:48|320:72,1,120,4|0,1:0|1:0,0:0:0:0:
216,136,190321,2,0,P|162:148|102:128,2,120,2|0|2,0:0|1:0|0:0,0:0:0:0:
348,196,191684,5,0,1:0:0:0:
480,256,192139,1,0,0:0:0:0:
368,348,192593,1,0,1:0:0:0:
232,296,193048,6,0,L|112:288,1,120,2|0,0:0|1:0,0:0:0:0:
40,164,193957,2,0,L|160:172,2,120,2|0|2,0:0|1:0|0:0,0:0:0:0:
80,24,195321,5,0,1:0:0:0:
220,64,195775,1,0,0:0:0:0:
364,40,196230,1,0,1:0:0:0:
484,116,196684,6,0,P|504:176|480:224,2,120,0|0|0,0:0|1:0|0:0,0:0:0:0:
356,184,198048,2,0,P|332:232|352:292,2,120,0|0|0,1:0|0:0|1:0,0:0:0:0:
360,40,199411,5,0,0:0:0:0:
240,116,199866,1,0,1:0:0:0:
120,36,200321,6,0,L|48:28,1,60,0|0,1:0|1:0,0:0:0:0:
152,224,201230,2,0,L|224:232,1,60,0|0,1:0|1:0,0:0:0:0:
256,192,202139,12,4,203957,1:0:0:0:
380,120,204639,6,0,L|440:80,1,60,0|2,0:0|0:0,0:0:0:0:
256,192,205321,2,0,L|192:228,1,60,0|2,0:0|0:0,0:0:0:0:
24,256,206230,6,0,P|24:316|72:356,2,120,0|0|0,1:0|0:0|1:0,0:0:0:0:
120,148,207593,6,0,L|200:136,1,60,0|2,0:0|0:0,0:0:0:0:
368,156,208275,2,0,L|288:168,1,60,0|2,0:0|0:0,0:0:0:0:
152,256,208957,2,0,L|232:244,1,60,0|2,0:0|0:0,0:0:0:0:
412,328,209866,6,0,L|268:348,2,120,2|2|2,0:0|0:0|0:0,0:0:0:0:
376,188,211230,6,0,L|456:176,1,60,0|2,0:0|0:0,0:0:0:0:
248,208,211911,2,0,L|184:216,1,60,0|2,0:0|0:0,0:0:0:0:
376,188,212593,2,0,L|456:176,1,60,0|2,0:0|0:0,0:0:0:0:
256,60,213502,6,0,P|204:28|144:40,2,120,0|0|0,1:0|0:0|1:0,0:0:0:0:
248,208,214866,6,0,L|328:196,1,60,0|2,0:0|0:0,0:0:0:0:
120,228,215547,2,0,L|56:236,1,60,0|2,0:0|0:0,0:0:0:0:
248,208,216230,1,4,1:0:0:0:
256,192,216343,12,0,218957,0:0:0:0:
