osu file format v12

[General]
AudioFilename: 07 Wings.mp3
AudioLeadIn: 2000
PreviewTime: 43843
Countdown: 0
SampleSet: Soft
StackLeniency: 0.7
Mode: 0
LetterboxInBreaks: 1

[Editor]
DistanceSpacing: 1.2
BeatDivisor: 4
GridSize: 4

[Metadata]
Title:Wings
TitleUnicode:Wings
Artist:BIGBANG
ArtistUnicode:BIGBANG
Creator:Lissette
Version:Dancing
Source:
Tags:alive kpop k-pop big bang mini album daesung solo nalgae
BeatmapID:203306
BeatmapSetID:70740

[Difficulty]
HPDrainRate:7
CircleSize:4
OverallDifficulty:7
ApproachRate:8
SliderMultiplier:1.6
SliderTickRate:1

[Events]
//Background and Video events
0,0,"3Iiuh - Copy.jpg",0,0
//Break Periods
2,73247,85321
2,145975,159571
//Storyboard Layer 0 (Background)
//Storyboard Layer 1 (Fail)
//Storyboard Layer 2 (Pass)
//Storyboard Layer 3 (Foreground)
//Storyboard Sound Samples
//Background Colour Transformations
3,100,0,0,0

[TimingPoints]
321,454.545454545455,4,2,1,40,1,0
43957,-100,4,2,1,40,0,1
58048,-100,4,2,1,40,0,0
58502,-100,4,2,1,40,0,1
73048,-100,4,2,1,40,0,0
101911,-100,4,2,1,20,0,0
102139,-100,4,2,1,40,0,0
116684,-100,4,2,1,40,0,1
130775,-100,4,2,1,40,0,0
131230,-100,4,2,1,40,0,1
145775,-100,4,2,1,40,0,0
160321,-100,4,2,1,20,0,0
168048,-100,4,2,1,30,0,0
168957,-100,4,2,1,35,0,0
170321,-100,4,2,1,35,0,0
174866,-100,4,2,1,40,0,1
188957,-100,4,2,1,40,0,0
189411,-100,4,2,1,40,0,1
203957,-100,4,2,1,40,0,0
216230,-100,4,2,1,40,0,0
217593,-100,4,2,1,35,0,0
217821,-100,4,2,1,30,0,0
218048,-100,4,2,1,25,0,0
218275,-100,4,2,1,20,0,0
218502,-100,4,2,1,15,0,0
218730,-100,4,2,1,10,0,0
218957,-100,4,2,1,5,0,0

[Colours]
Combo1 : 255,255,255
Combo2 : 255,255,55
Combo3 : 255,255,255
Combo4 : 255,255,155

[HitObjects]
64,320,321,2,0,B|112:328|136:272,1,80,2|0,0:0|0:0,0:0:0:0:
142,178,775,2,0,B|160:136|208:144,1,80,0|2,0:0|0:0,0:0:0:0:
216,248,1230,2,0,B|320:240,1,80,0|0,0:0|0:0,0:0:0:0:
392,232,1684,2,0,B|496:224,1,80,2|0,0:0|0:0,0:0:0:0:
456,48,2139,6,0,B|448:96|368:112,1,80,2|0,0:0|0:0,0:0:0:0:
256,152,2593,1,0,0:0:0:0:
312,72,2821,1,2,0:0:0:0:
402,102,3048,1,0,0:0:0:0:
344,184,3275,1,0,0:0:0:0:
256,152,3502,1,2,0:0:0:0:
312,72,3730,1,0,0:0:0:0:
344,184,3957,6,0,B|304:216|328:272,1,80,2|0,0:0|0:0,0:0:0:0:
408,304,4411,2,0,B|426:343|386:375,1,80,0|2,0:0|0:0,0:0:0:0:
296,344,4866,2,0,B|208:336,1,80
120,328,5321,2,0,B|32:320,1,80,2|0,0:0|0:0,0:0:0:0:
24,128,5775,6,0,B|44:180|99:167,1,80,2|0,0:0|0:0,0:0:0:0:
229,126,6230,1,2,0:0:0:0:
141,99,6457,1,0,0:0:0:0:
83,169,6684,1,2,0:0:0:0:
171,199,6911,1,0,0:0:0:0:
229,126,7139,1,2,0:0:0:0:
141,99,7366,1,0,0:0:0:0:
171,199,7593,6,0,B|195:255|139:287,1,80,2|0,0:0|0:0,0:0:0:0:
64,288,8048,2,0,B|37:322|53:362,1,80,0|2,0:0|0:0,0:0:0:0:
152,360,8502,2,0,B|264:344,1,80
328,336,8957,2,0,B|440:320,1,80,2|0,0:0|0:0,0:0:0:0:
415,105,9411,6,0,B|426:165|350:172,1,80,2|0,0:0|0:0,0:0:0:0:
214,157,9866,1,2,0:0:0:0:
299,111,10093,1,0,0:0:0:0:
378,166,10321,1,2,0:0:0:0:
291,216,10548,1,0,0:0:0:0:
214,157,10775,1,2,0:0:0:0:
299,111,11002,1,0,0:0:0:0:
379,166,11230,6,0,B|425:266|329:338,1,160,2|0,0:0|0:0,0:0:0:0:
120,328,11911,2,0,B|180:391|268:351,1,160,2|0,0:0|0:0,0:0:0:0:
272,256,12593,2,0,B|272:200|216:184,1,80,2|0,0:0|0:0,0:0:0:0:
56,32,13048,6,0,B|56:128|152:144,1,160,2|0,0:0|0:0,0:0:0:0:
216,72,13730,1,2,0:0:0:0:
216,72,13843,1,0,0:0:0:0:
216,72,13957,2,0,B|296:112|368:40,1,160,0|0,0:0|0:0,0:0:0:0:
448,288,14866,6,0,B|352:272,1,80,4|0,0:0|0:0,0:0:0:0:
208,312,15321,2,0,B|286:325,1,80,0|2,0:0|0:0,0:0:0:0:
296,232,15775,2,0,B|288:184|336:152,1,80,0|0,0:0|0:0,0:0:0:0:
408,112,16230,2,0,B|443:89|435:41,1,80,2|0,0:0|0:0,0:0:0:0:
256,48,16684,6,0,B|96:40,1,160,2|0,0:0|0:0,0:0:0:0:
48,128,17366,2,0,B|208:136,1,160,2|0,0:0|0:0,0:0:0:0:
304,144,18048,1,2,0:0:0:0:
399,150,18275,1,0,0:0:0:0:
360,312,18502,6,0,B|264:328,1,80,2|0,0:0|0:0,0:0:0:0:
112,296,18957,2,0,B|190:282,1,80,0|2,0:0|0:0,0:0:0:0:
240,200,19411,2,0,B|256:144|200:112,1,80
128,96,19866,2,0,B|92:78|108:22,1,80,2|0,0:0|0:0,0:0:0:0:
304,48,20321,6,0,B|480:64,1,160,2|0,0:0|0:0,0:0:0:0:
488,152,21002,2,0,B|328:137,1,160,2|0,0:0|0:0,0:0:0:0:
232,128,21684,1,2,0:0:0:0:
136,112,21911,1,0,0:0:0:0:
128,320,22139,6,0,B|208:336,1,80,2|0,0:0|0:0,0:0:0:0:
376,320,22593,2,0,B|297:304,1,80,0|2,0:0|0:0,0:0:0:0:
272,208,23048,2,0,B|264:152|328:128,1,80
400,136,23502,2,0,B|440:104|416:48,1,80,2|0,0:0|0:0,0:0:0:0:
232,40,23957,6,0,B|128:32|104:136,1,160,2|0,0:0|0:0,0:0:0:0:
182,339,24639,2,0,B|96:320|96:216,1,160,2|0,0:0|0:0,0:0:0:0:
184,192,25321,1,2,0:0:0:0:
248,264,25548,1,0,0:0:0:0:
456,304,25775,6,0,B|424:128,1,160,2|0,0:0|0:0,0:0:0:0:
312,40,26457,2,0,B|344:216,1,160,2|0,0:0|0:0,0:0:0:0:
360,292,27139,1,2,0:0:0:0:
268,264,27366,1,0,0:0:0:0:
88,328,27593,6,0,B|32:256|88:168,1,160,2|0,0:0|0:0,0:0:0:0:
160,16,28275,2,0,B|216:88|160:176,1,160,2|0,0:0|0:0,0:0:0:0:
104,88,28957,1,2,0:0:0:0:
104,88,29184,1,0,0:0:0:0:
272,68,29411,5,4,0:0:0:0:
368,92,29639,1,0,0:0:0:0:
512,204,29866,1,8,0:0:0:0:
416,180,30093,1,2,0:0:0:0:
320,208,30321,2,0,B|288:296,1,80
176,352,30775,2,0,B|203:276,1,80,8|0,0:0|0:0,0:0:0:0:
140,104,31230,6,0,B|92:32|-4:40,1,160,2|8,0:0|0:0,0:0:0:0:
140,104,31911,2,0,B|188:176|284:168,1,160,2|0,0:0|0:0,0:0:0:0:
236,80,32593,2,0,B|284:104|332:72,1,80,8|0,0:0|0:0,0:0:0:0:
492,56,33048,5,2,0:0:0:0:
512,148,33275,1,0,0:0:0:0:
464,308,33502,1,8,0:0:0:0:
444,216,33730,1,2,0:0:0:0:
352,188,33957,2,0,B|264:204,1,80
152,296,34411,2,0,B|240:280,1,80,8|0,0:0|0:0,0:0:0:0:
144,104,34866,6,0,B|232:112|280:32,1,160,2|8,0:0|0:0,0:0:0:0:
144,104,35548,2,0,B|56:96|8:176,1,160,2|0,0:0|0:0,0:0:0:0:
104,192,36230,2,0,B|56:216|64:264,1,80,8|0,0:0|0:0,0:0:0:0:
184,352,36684,5,2,0:0:0:0:
280,336,36911,1,0,0:0:0:0:
432,248,37139,1,8,0:0:0:0:
336,264,37366,1,2,0:0:0:0:
248,224,37593,2,0,B|224:136,1,80
274,2,38048,2,0,B|296:80,1,80,8|0,0:0|0:0,0:0:0:0:
472,200,38502,6,0,B|488:104|392:48,1,160,2|8,0:0|0:0,0:0:0:0:
181,91,39184,2,0,B|224:16|328:32,1,160,2|0,0:0|0:0,0:0:0:0:
352,120,39866,1,8,0:0:0:0:
312,208,40093,1,0,0:0:0:0:
360,336,40320,6,0,B|200:352,1,160,2|8,0:0|0:0,0:0:0:0:
0,296,41002,2,0,B|160:280,1,160,2|0,0:0|0:0,0:0:0:0:
159,280,41684,1,8,0:0:0:0:
328,88,43502,5,0,1:0:0:0:
328,88,43957,6,0,B|392:24|480:64,1,160,4|0,1:0|1:0,0:0:0:0:
416,136,44639,1,2,0:0:0:0:
416,136,44752,1,0,0:0:0:0:
416,136,44866,1,2,0:0:0:0:
336,184,45093,2,0,B|288:192|266:155,1,80,0|0,0:0|1:0,0:0:0:0:
192,216,45548,1,2,0:0:0:0:
192,216,45661,1,0,0:0:0:0:
192,216,45775,1,2,0:0:0:0:
32,80,46002,5,0,0:0:0:0:
8,176,46230,1,0,1:0:0:0:
112,144,46457,1,0,0:0:0:0:
136,48,46684,1,0,0:0:0:0:
216,120,46911,1,0,0:0:0:0:
192,216,47139,1,0,1:0:0:0:
192,216,47593,6,0,B|256:288|344:240,1,160,2|0,0:0|1:0,0:0:0:0:
272,176,48275,1,2,0:0:0:0:
272,176,48389,1,0,0:0:0:0:
272,176,48502,1,2,0:0:0:0:
369,175,48730,2,0,B|416:168|420:122,1,80,0|0,0:0|1:0,0:0:0:0:
504,144,49184,1,2,0:0:0:0:
504,144,49298,1,0,0:0:0:0:
504,144,49411,1,2,0:0:0:0:
472,296,49639,5,0,0:0:0:0:
387,331,49866,2,0,B|312:304,1,80,0|0,1:0|0:0,0:0:0:0:
240,240,50320,2,0,B|152:208,1,80
224,328,50775,1,0,1:0:0:0:
208,56,51230,6,0,B|160:40|120:72,1,80,0|2,0:0|0:0,0:0:0:0:
88,152,51684,2,0,B|136:168|176:136,1,80,0|2,1:0|0:0,0:0:0:0:
136,248,52139,2,0,B|88:232|48:264,1,80,0|2,0:0|0:0,0:0:0:0:
16,344,52593,2,0,B|64:360|104:328,1,80,0|2,1:0|0:0,0:0:0:0:
184,320,53048,2,0,B|272:288|336:360,1,160,0|0,0:0|1:0,0:0:0:0:
456,200,53730,6,0,B|448:136|392:112,1,80
384,264,54184,2,0,B|392:328|448:352,1,80,0|0,0:0|1:0,0:0:0:0:
352,184,54639,2,0,B|280:152|192:200,1,160
352,184,55320,1,0,1:0:0:0:
352,88,55548,2,0,B|424:120|512:72,1,160
352,88,56230,1,0,1:0:0:0:
352,184,56457,2,0,B|280:152|192:200,1,160
168,104,57139,5,0,1:0:0:0:
96,168,57366,1,0,1:0:0:0:
96,168,57480,1,0,1:0:0:0:
96,168,57593,1,0,1:0:0:0:
48,88,57820,5,0,1:0:0:0:
136,248,58048,1,0,1:0:0:0:
136,248,58502,6,0,B|192:328|296:280,1,160,4|0,1:0|1:0,0:0:0:0:
224,208,59184,1,2,0:0:0:0:
224,208,59298,1,0,0:0:0:0:
224,208,59411,1,2,0:0:0:0:
320,216,59639,2,0,B|368:200|393:232,1,80,0|0,0:0|1:0,0:0:0:0:
472,176,60093,1,2,0:0:0:0:
472,176,60207,1,0,0:0:0:0:
472,176,60320,1,2,0:0:0:0:
400,72,60548,5,0,0:0:0:0:
376,168,60775,1,0,1:0:0:0:
272,192,61002,1,0,0:0:0:0:
296,96,61230,1,0,0:0:0:0:
216,40,61457,1,0,0:0:0:0:
192,136,61684,1,0,1:0:0:0:
192,136,62139,6,0,B|96:120|56:216,1,160,2|0,0:0|1:0,0:0:0:0:
152,224,62820,1,2,0:0:0:0:
152,224,62934,1,0,0:0:0:0:
152,224,63048,1,2,0:0:0:0:
250,208,63275,2,0,B|296:224|318:183,1,80,0|0,0:0|1:0,0:0:0:0:
408,224,63730,1,2,0:0:0:0:
408,224,63843,1,0,0:0:0:0:
408,224,63957,1,2,0:0:0:0:
472,104,64184,5,0,0:0:0:0:
400,48,64411,2,0,B|368:24|323:31,1,80,0|0,1:0|0:0,0:0:0:0:
232,72,64866,2,0,B|187:79|155:55,1,80
304,128,65320,1,0,1:0:0:0:
32,136,65775,6,0,B|0:176|40:232,1,80,0|2,0:0|0:0,0:0:0:0:
104,264,66230,2,0,B|136:224|96:168,1,80,0|2,1:0|0:0,0:0:0:0:
200,248,66684,2,0,B|168:288|208:344,1,80,0|2,0:0|0:0,0:0:0:0:
272,376,67139,2,0,B|304:336|264:280,1,80,0|2,1:0|0:0,0:0:0:0:
328,224,67593,2,0,B|384:152|472:176,1,160,0|0,0:0|1:0,0:0:0:0:
296,96,68275,6,0,B|192:136,1,80,0|0,0:0|0:0,0:0:0:0:
56,128,68730,2,0,B|130:99,1,80,0|0,0:0|1:0,0:0:0:0:
160,192,69184,2,0,B|152:288|272:312,1,160
249,306,69866,1,0,1:0:0:0:
448,248,70093,5,0,0:0:0:0:
480,128,70320,1,0,1:0:0:0:
376,56,70548,1,0,0:0:0:0:
272,128,70775,1,0,1:0:0:0:
312,248,71002,1,0,0:0:0:0:
176,324,71230,5,0,1:0:0:0:
148,336,71343,1,0,1:0:0:0:
116,336,71457,1,0,1:0:0:0:
84,328,71570,1,0,1:0:0:0:
60,308,71684,1,0,1:0:0:0:
40,280,71798,1,0,1:0:0:0:
36,248,71911,1,0,1:0:0:0:
36,220,72025,1,0,1:0:0:0:
48,188,72139,1,0,1:0:0:0:
68,164,72252,1,0,1:0:0:0:
96,148,72366,1,0,1:0:0:0:
128,140,72480,1,0,1:0:0:0:
160,144,72593,6,0,B|216:96,3,53.3333333333333,0|0|0|4,1:0|1:0|1:0|1:0,0:0:0:0:
64,88,87593,6,0,B|168:112,1,80,6|0,0:0|0:0,0:0:0:0:
224,56,88048,1,0,1:0:0:0:
320,80,88275,1,2,0:0:0:0:
216,160,88502,2,0,B|224:216|176:256,1,80
72,360,88957,1,0,1:0:0:0:
104,272,89184,1,0,0:0:0:0:
288,320,89411,6,0,B|384:344|464:288,1,160,2|0,0:0|1:0,0:0:0:0:
344,240,90093,2,0,B|416:240|456:192|456:136,1,160,2|0,0:0|0:0,0:0:0:0:
360,144,90775,1,0,1:0:0:0:
312,64,91002,1,0,0:0:0:0:
112,48,91230,6,0,B|72:72|80:128,1,80
176,120,91684,2,0,B|168:216|248:256,2,160,0|0|0,1:0|0:0|1:0,0:0:0:0:
176,120,92821,1,0,0:0:0:0:
432,80,93048,6,0,B|480:248,1,160,2|0,0:0|1:0,0:0:0:0:
400,296,93730,2,0,B|356:142,1,160,2|0,0:0|0:0,0:0:0:0:
264,112,94411,1,0,1:0:0:0:
192,176,94639,1,0,0:0:0:0:
280,328,94866,6,0,B|184:352,1,80,2|0,0:0|0:0,0:0:0:0:
112,312,95321,1,0,1:0:0:0:
16,336,95548,1,2,0:0:0:0:
160,232,95775,2,0,B|176:184|120:144,1,80
40,40,96230,1,0,1:0:0:0:
48,136,96457,1,0,0:0:0:0:
232,64,96684,6,0,B|408:32,1,160,2|0,0:0|1:0,0:0:0:0:
440,120,97366,2,0,B|282:148,1,160,2|0,0:0|0:0,0:0:0:0:
282,147,98048,1,0,1:0:0:0:
188,164,98275,6,0,B|112:228|16:152,1,160
188,164,98957,1,0,1:0:0:0:
212,256,99184,2,0,B|288:192|384:268,1,160
212,256,99866,1,0,1:0:0:0:
188,164,100093,2,0,B|112:228|16:152,1,160
188,164,100775,1,0,1:0:0:0:
212,256,101002,2,0,B|288:192|384:268,1,160
404,336,101684,1,0,1:0:0:0:
404,336,101911,1,4,0:0:0:0:
288,184,102139,5,2,0:0:0:0:
384,168,102366,1,0,0:0:0:0:
200,128,102593,1,0,1:0:0:0:
104,144,102820,1,2,0:0:0:0:
216,248,103048,2,0,B|224:336,1,80
296,80,103502,2,0,B|288:0,1,80,0|0,1:0|0:0,0:0:0:0:
464,120,103957,6,0,B|496:208|448:280,1,160,2|0,0:0|1:0,0:0:0:0:
384,144,104639,2,0,B|408:200|384:264|320:280,1,160,2|0,0:0|0:0,0:0:0:0:
368,368,105321,1,0,1:0:0:0:
368,368,105548,1,0,0:0:0:0:
288,184,105775,5,0,0:0:0:0:
256,96,106002,1,0,0:0:0:0:
216,256,106230,1,0,1:0:0:0:
248,344,106457,1,0,0:0:0:0:
160,184,106684,2,0,B|112:160|64:208,1,80
360,248,107139,2,0,B|408:272|456:224,1,80,0|0,1:0|0:0,0:0:0:0:
368,64,107593,6,0,B|296:16|200:48,1,160,0|0,0:0|1:0,0:0:0:0:
312,128,108275,2,0,B|256:112|192:128|160:184,1,160
120,256,108957,1,0,1:0:0:0:
160,344,109184,1,0,0:0:0:0:
208,264,109411,2,0,B|232:224|304:208|360:248,1,160,0|0,0:0|1:0,0:0:0:0:
376,336,110093,5,0,0:0:0:0:
456,280,110321,1,0,0:0:0:0:
440,184,110548,1,0,0:0:0:0:
440,184,111002,2,0,B|352:152|376:56,1,160
375,56,111911,1,0,0:0:0:0:
288,24,112139,1,0,0:0:0:0:
208,80,112366,1,0,0:0:0:0:
224,176,112593,1,0,1:0:0:0:
312,208,112821,1,0,0:0:0:0:
392,152,113048,2,0,B|424:240,2,80,0|0|0,0:0|0:0|1:0,0:0:0:0:
312,224,113730,5,0,0:0:0:0:
208,184,113957,1,0,1:0:0:0:
192,72,114184,1,0,0:0:0:0:
288,8,114411,1,0,1:0:0:0:
392,48,114639,1,0,0:0:0:0:
392,152,115093,5,0,0:0:0:0:
128,280,116230,5,0,1:0:0:0:
128,280,116684,6,0,B|176:200|288:232,1,160,4|0,1:0|1:0,0:0:0:0:
224,312,117366,1,2,0:0:0:0:
224,312,117480,1,0,0:0:0:0:
224,312,117593,1,2,0:0:0:0:
385,350,117821,2,0,B|368:312|320:312,1,80,0|0,0:0|1:0,0:0:0:0:
464,296,118275,1,2,0:0:0:0:
464,296,118389,1,0,0:0:0:0:
464,296,118502,1,2,0:0:0:0:
472,40,118730,5,0,0:0:0:0:
448,128,118957,1,0,1:0:0:0:
384,272,119184,1,0,0:0:0:0:
360,184,119411,1,0,0:0:0:0:
296,40,119639,1,0,0:0:0:0:
272,128,119866,1,0,1:0:0:0:
272,128,120321,6,0,B|184:176|112:112,1,160,2|0,0:0|1:0,0:0:0:0:
200,56,121002,1,2,0:0:0:0:
200,56,121116,1,0,0:0:0:0:
200,56,121230,1,2,0:0:0:0:
44,78,121457,2,0,B|56:40|104:32,1,80,0|0,0:0|1:0,0:0:0:0:
48,176,121911,1,2,0:0:0:0:
48,176,122025,1,0,0:0:0:0:
48,176,122139,1,2,0:0:0:0:
176,336,122366,5,0,0:0:0:0:
272,328,122593,2,0,B|320:336|368:288,1,80,0|0,1:0|0:0,0:0:0:0:
464,200,123048,2,0,B|416:192|368:240,1,80
440,304,123502,1,0,1:0:0:0:
408,48,123957,6,0,B|328:64,1,80,0|2,0:0|0:0,0:0:0:0:
184,112,124411,2,0,B|264:128,1,80,0|2,1:0|0:0,0:0:0:0:
432,160,124866,2,0,B|352:176,1,80,0|2,0:0|0:0,0:0:0:0:
208,224,125320,2,0,B|288:240,1,80,0|2,1:0|0:0,0:0:0:0:
408,312,125775,2,0,B|240:344,1,160,0|0,0:0|1:0,0:0:0:0:
48,288,126457,6,0,B|32:200,1,80,0|0,0:0|0:0,0:0:0:0:
80,56,126911,2,0,B|94:134,1,80,0|0,0:0|1:0,0:0:0:0:
152,216,127366,2,0,B|224:264|208:384,1,160
152,216,128048,1,0,1:0:0:0:
248,200,128275,2,0,B|176:152|192:32,1,160
248,200,128957,1,0,1:0:0:0:
152,216,129184,2,0,B|224:264|208:384,1,160
120,320,129866,5,0,1:0:0:0:
40,272,130093,1,0,1:0:0:0:
40,272,130207,1,0,1:0:0:0:
40,272,130321,1,0,1:0:0:0:
0,360,130548,5,0,1:0:0:0:
80,184,130775,1,0,1:0:0:0:
80,184,131230,6,0,B|176:224|248:152,1,160,4|0,1:0|1:0,0:0:0:0:
160,104,131911,1,2,0:0:0:0:
160,104,132025,1,0,0:0:0:0:
160,104,132139,1,2,0:0:0:0:
331,85,132366,2,0,B|288:64|240:88,1,80,0|0,0:0|1:0,0:0:0:0:
416,40,132821,1,2,0:0:0:0:
416,40,132934,1,0,0:0:0:0:
416,40,133048,1,2,0:0:0:0:
480,320,133275,5,0,0:0:0:0:
448,232,133502,1,0,1:0:0:0:
376,104,133730,1,0,0:0:0:0:
344,192,133957,1,0,0:0:0:0:
272,320,134184,1,0,0:0:0:0:
240,232,134411,1,0,1:0:0:0:
240,232,134866,6,0,B|176:280|88:240,1,160,2|0,0:0|1:0,0:0:0:0:
144,168,135548,1,2,0:0:0:0:
144,168,135661,1,0,0:0:0:0:
144,168,135775,1,2,0:0:0:0:
79,55,136002,2,0,B|48:88|56:128,1,80,0|0,0:0|1:0,0:0:0:0:
168,40,136457,1,2,0:0:0:0:
168,40,136571,1,0,0:0:0:0:
168,40,136684,1,2,0:0:0:0:
392,32,136911,5,0,0:0:0:0:
368,128,137139,2,0,B|360:176|408:208,1,80,0|0,1:0|0:0,0:0:0:0:
488,344,137593,2,0,B|496:296|448:264,1,80
488,184,138048,1,0,1:0:0:0:
272,336,138502,6,0,B|176:352,1,80,0|2,0:0|0:0,0:0:0:0:
48,272,138957,2,0,B|126:285,1,80,0|2,1:0|0:0,0:0:0:0:
280,208,139411,2,0,B|184:224,1,80,0|2,0:0|0:0,0:0:0:0:
56,144,139866,2,0,B|134:157,1,80,0|2,1:0|0:0,0:0:0:0:
208,96,140321,2,0,B|383:66,1,160,0|0,0:0|1:0,0:0:0:0:
472,344,141002,6,0,B|488:248,1,80
464,88,141457,2,0,B|450:166,1,80,0|0,0:0|1:0,0:0:0:0:
384,232,141911,1,0,0:0:0:0:
288,288,142139,5,0,1:0:0:0:
288,288,142366,1,0,1:0:0:0:
464,88,143048,5,0,1:0:0:0:
464,88,143275,1,0,1:0:0:0:
404,308,143730,5,0,1:0:0:0:
372,320,143843,1,0,1:0:0:0:
340,320,143957,1,0,1:0:0:0:
308,316,144071,1,0,1:0:0:0:
280,304,144184,1,0,1:0:0:0:
252,288,144298,1,0,1:0:0:0:
228,268,144411,1,0,1:0:0:0:
212,240,144525,1,0,1:0:0:0:
200,208,144639,1,0,1:0:0:0:
196,176,144752,1,0,1:0:0:0:
196,144,144866,1,0,1:0:0:0:
204,112,144980,1,0,1:0:0:0:
216,84,145093,1,0,1:0:0:0:
236,60,145207,1,0,1:0:0:0:
264,44,145321,6,0,B|336:36,3,53.3333333333333,0|0|0|4,1:0|3:0|1:0|2:0,0:0:0:0:
40,72,160321,6,0,B|152:40,1,80,12|0,0:0|0:0,1:0:0:0:
216,48,160775,5,8,0:0:0:0:
312,48,161230,1,8,0:0:0:0:
400,48,161684,1,8,0:0:0:0:
496,48,161911,6,0,B|496:152|392:144,1,160,0|0,0:0|0:0,0:0:0:0:
304,144,162593,5,8,0:0:0:0:
200,144,163048,1,8,0:0:0:0:
104,144,163502,1,8,0:0:0:0:
8,136,163730,6,0,B|8:232|112:232,1,160,0|0,0:0|0:0,0:0:0:0:
208,232,164411,5,8,0:0:0:0:
304,232,164866,1,8,0:0:0:0:
400,232,165321,1,8,0:0:0:0:
496,232,165548,6,0,B|488:328|384:320,1,160,0|0,0:0|0:0,0:0:0:0:
288,320,166230,5,8,0:0:0:0:
192,320,166684,1,8,0:0:0:0:
96,320,167139,1,8,0:0:0:0:
0,320,167366,6,0,B|0:216|112:224,1,160
96,112,168048,5,8,0:0:0:0:
168,24,168275,1,0,0:0:0:0:
272,72,168502,1,8,0:0:0:0:
264,184,168730,1,0,0:0:0:0:
152,208,168957,1,8,0:0:0:0:
144,320,169184,1,0,0:0:0:0:
248,368,169411,1,8,0:0:0:0:
320,280,169639,1,0,0:0:0:0:
264,184,169866,1,8,0:0:0:0:
336,80,170093,5,0,0:0:0:0:
456,120,170321,1,0,1:0:0:0:
456,248,170548,1,0,1:0:0:0:
336,288,170775,1,0,1:0:0:0:
264,184,171002,1,0,1:0:0:0:
336,80,171230,5,0,1:0:0:0:
336,80,171457,1,0,1:0:0:0:
56,256,171911,5,0,1:0:0:0:
56,256,172139,1,0,1:0:0:0:
360,336,172593,5,4,1:0:0:0:
256,192,172707,12,0,174411,1:0:0:0:
56,280,174866,6,0,B|120:344|216:288,1,160,4|0,1:0|1:0,0:0:0:0:
160,208,175548,1,2,0:0:0:0:
160,168,175661,1,0,0:0:0:0:
192,144,175775,1,2,0:0:0:0:
345,76,176002,2,0,B|336:120|280:112,1,80,0|0,0:0|1:0,0:0:0:0:
440,56,176457,1,2,0:0:0:0:
472,48,176571,1,0,0:0:0:0:
504,72,176684,1,2,0:0:0:0:
488,264,176911,5,0,0:0:0:0:
408,312,177139,1,0,1:0:0:0:
216,272,177366,1,0,0:0:0:0:
296,320,177594,1,0,0:0:0:0:
32,320,177821,1,0,0:0:0:0:
112,272,178049,1,0,1:0:0:0:
112,272,178502,6,0,B|48:208|88:112,1,160,2|0,0:0|1:0,0:0:0:0:
160,184,179184,1,2,0:0:0:0:
200,192,179298,1,0,0:0:0:0:
232,176,179411,1,2,0:0:0:0:
364,106,179639,2,0,B|336:80|288:96,1,80,0|0,0:0|1:0,0:0:0:0:
448,144,180093,1,2,0:0:0:0:
480,152,180207,1,0,0:0:0:0:
512,136,180321,1,2,0:0:0:0:
464,304,180548,5,0,0:0:0:0:
256,304,180775,2,0,B|336:320,1,80,0|0,1:0|0:0,0:0:0:0:
120,256,181230,2,0,B|41:240,1,80
160,368,181684,1,0,1:0:0:0:
424,96,182139,6,0,B|496:160,1,80,0|2,0:0|0:0,0:0:0:0:
96,288,182593,2,0,B|24:224,1,80,0|2,1:0|0:0,0:0:0:0:
160,64,183048,2,0,B|232:0,1,80,0|2,0:0|0:0,0:0:0:0:
360,312,183502,2,0,B|288:376,1,80,0|2,1:0|0:0,0:0:0:0:
96,288,183957,2,0,B|216:184,1,160,0|0,0:0|1:0,0:0:0:0:
400,64,184639,5,0,0:0:0:0:
416,160,184866,1,0,0:0:0:0:
376,344,185093,1,0,0:0:0:0:
360,248,185321,1,0,1:0:0:0:
272,200,185548,2,0,B|184:176|120:264,1,160
272,200,186230,1,0,1:0:0:0:
280,104,186457,2,0,B|368:128|432:40,1,160
280,104,187139,1,0,1:0:0:0:
264,288,187366,2,0,B|176:264|112:352,1,160
264,288,188048,5,0,1:0:0:0:
272,192,188275,1,0,1:0:0:0:
304,184,188389,1,0,1:0:0:0:
344,176,188502,1,0,1:0:0:0:
440,160,188730,5,0,1:0:0:0:
176,208,188957,1,0,1:0:0:0:
176,208,189411,6,0,B|96:272|8:208,1,160,4|0,1:0|1:0,0:0:0:0:
88,144,190093,1,2,0:0:0:0:
96,112,190207,1,0,0:0:0:0:
128,96,190321,1,2,0:0:0:0:
301,71,190548,2,0,B|272:96|224:80,1,80,0|0,0:0|1:0,0:0:0:0:
392,48,191002,1,2,0:0:0:0:
432,40,191116,1,0,0:0:0:0:
464,64,191230,1,2,0:0:0:0:
416,208,191457,5,0,0:0:0:0:
440,304,191684,1,0,1:0:0:0:
256,192,191911,1,0,0:0:0:0:
280,96,192138,1,0,0:0:0:0:
96,208,192366,1,0,0:0:0:0:
120,304,192593,1,0,1:0:0:0:
120,304,193048,6,0,B|192:352|272:304,1,160,2|0,0:0|1:0,0:0:0:0:
208,232,193730,1,2,0:0:0:0:
224,200,193843,1,0,0:0:0:0:
264,192,193957,1,2,0:0:0:0:
408,144,194184,2,0,B|393:199|337:191,1,80,0|0,0:0|1:0,0:0:0:0:
400,48,194639,1,2,0:0:0:0:
432,32,194752,1,0,0:0:0:0:
472,48,194866,1,2,0:0:0:0:
480,248,195093,5,0,0:0:0:0:
272,304,195321,2,0,B|296:264|360:272,1,80,0|0,1:0|0:0,0:0:0:0:
104,296,195775,2,0,B|80:336|16:328,1,80
184,368,196230,1,0,1:0:0:0:
96,96,196684,6,0,B|88:152|16:152,1,80,0|2,0:0|0:0,0:0:0:0:
408,296,197139,2,0,B|416:240|488:240,1,80,0|2,1:0|0:0,0:0:0:0:
320,24,197593,2,0,B|328:80|400:80,1,80,0|2,0:0|0:0,0:0:0:0:
200,336,198048,2,0,B|192:280|120:280,1,80,0|2,1:0|0:0,0:0:0:0:
64,112,198502,2,0,B|152:80|216:144,1,160,0|0,0:0|1:0,0:0:0:0:
432,328,199411,5,0,0:0:0:0:
448,232,199639,1,0,0:0:0:0:
384,64,199866,1,0,1:0:0:0:
368,160,200093,1,0,0:0:0:0:
280,200,200321,5,0,1:0:0:0:
280,200,200548,1,0,1:0:0:0:
72,56,201230,5,0,1:0:0:0:
72,56,201457,1,0,1:0:0:0:
0,284,201911,5,0,1:0:0:0:
12,254,202024,1,0,1:0:0:0:
33,230,202138,1,0,1:0:0:0:
61,215,202252,1,0,1:0:0:0:
92,212,202365,1,0,1:0:0:0:
124,214,202479,1,0,1:0:0:0:
152,228,202593,1,0,1:0:0:0:
172,252,202706,1,0,1:0:0:0:
191,277,202820,1,0,1:0:0:0:
219,291,202933,1,0,1:0:0:0:
250,297,203047,1,0,1:0:0:0:
282,298,203161,1,0,1:0:0:0:
309,282,203275,1,0,0:0:0:0:
330,258,203389,1,0,0:0:0:0:
340,228,203502,6,0,B|396:184,3,53.3333333333333,0|0|0|4,1:0|1:0|1:0|1:0,0:0:0:0:
448,148,204184,1,2,0:0:0:0:
448,148,204639,5,0,0:0:0:0:
340,228,204866,1,2,0:0:0:0:
340,228,205321,5,0,0:0:0:0:
512,84,205548,1,2,0:0:0:0:
512,84,206002,6,0,B|488:36|416:52,5,80,0|0|0|0|0|0,0:0|1:0|0:0|0:0|0:0|1:0,0:0:0:0:
280,296,207593,5,0,0:0:0:0:
184,280,207821,1,2,0:0:0:0:
184,280,208275,5,0,0:0:0:0:
368,312,208502,1,2,0:0:0:0:
368,312,208957,5,0,0:0:0:0:
96,264,209184,1,2,0:0:0:0:
96,264,209639,5,0,0:0:0:0:
120,168,209866,1,2,0:0:0:0:
256,80,210093,1,0,0:0:0:0:
232,176,210321,1,2,0:0:0:0:
232,176,210775,1,2,0:0:0:0:
464,152,211230,5,0,0:0:0:0:
440,248,211457,1,2,0:0:0:0:
440,248,211911,5,0,0:0:0:0:
488,64,212139,1,2,0:0:0:0:
488,64,212593,5,0,0:0:0:0:
416,336,212821,1,2,0:0:0:0:
416,336,213275,6,0,B|376:304|312:336,5,80,0|0|0|0|0|0,0:0|1:0|0:0|0:0|0:0|1:0,0:0:0:0:
320,64,214866,5,0,0:0:0:0:
224,64,215093,1,2,0:0:0:0:
224,64,215548,5,0,0:0:0:0:
416,64,215775,1,2,0:0:0:0:
416,64,216230,5,4,1:0:0:0:
256,192,216343,12,0,218957,0:0:0:0:
