osu file format v9

[General]
AudioFilename: 03 Love Dust.mp3
AudioLeadIn: 0
PreviewTime: 62676
Countdown: 0
SampleSet: Soft
StackLeniency: 0.7
Mode: 0
LetterboxInBreaks: 0

[Editor]
Bookmarks: 18584,48122,61045,107199,134892,181045,195815
DistanceSpacing: 1.2
BeatDivisor: 4
GridSize: 8

[Metadata]
Title:Love Dust
Artist:BIGBANG
Creator:Lizbeth
Version:Walking
Source:
Tags:Alive kpop Big Bang mini album G-Dragon Taeyang T.O.P. Daesung Seungri

[Difficulty]
HPDrainRate:3
CircleSize:3
OverallDifficulty:5
ApproachRate:5
SliderMultiplier:1.2
SliderTickRate:1

[Events]
//Background and Video events
0,0,"astomoe.jpg"
//Break Periods
2,195568,198322
//Storyboard Layer 0 (Background)
//Storyboard Layer 1 (Fail)
//Storyboard Layer 2 (Pass)
//Storyboard Layer 3 (Foreground)
//Storyboard Sound Samples
//Background Colour Transformations
3,100,163,162,255

[TimingPoints]
3830,461.538461538462,4,2,0,50,1,0
18584,-100,4,2,0,50,0,0
18830,-100,4,1,0,30,0,0
25868,-100,4,2,0,50,0,0
26099,-100,4,1,0,30,0,0
32330,-100,4,2,0,50,0,0
58983,-100,4,1,0,50,0,0
62906,-100,4,2,0,50,0,1
88637,-100,4,1,0,50,0,1
90599,-100,4,1,0,50,0,0
92445,-100,4,2,0,30,0,0
92560,-100,4,1,0,30,0,0
99714,-100,4,2,0,30,0,0
100060,-100,4,1,0,30,0,0
105945,-100,4,2,0,50,0,0
132830,-100,4,1,0,50,0,0
136753,-100,4,2,0,50,0,1
162483,-100,4,1,0,50,0,1
164445,-133.333333333333,4,2,0,50,0,0
172060,-133.333333333333,4,2,0,50,0,0
178753,-133.333333333333,4,2,0,40,0,0
180945,-133.333333333333,4,2,0,50,0,0
185906,-133.333333333333,4,2,0,30,0,0
186830,-133.333333333333,4,2,0,60,0,0
189945,-133.333333333333,4,2,0,70,0,0
199522,-100,4,2,0,50,0,1
225022,-100,4,1,0,50,0,1
227099,-100,4,2,0,50,0,1
227214,-100,4,2,0,40,0,0
227445,-100,4,1,0,40,0,0
228253,-100,4,2,0,40,0,0

[Colours]
Combo1 : 255,255,255
Combo2 : 255,117,51
Combo3 : 255,255,255
Combo4 : 255,164,119

[HitObjects]
64,56,3830,2,0,B|120:176,1,120,4|0
160,224,4522,2,0,B|240:216|288:280,2,120,2|2|2
336,160,5906,2,0,B|256:168|208:104,2,120,2|2|2
392,208,7060,2,0,B|443:317,1,120,0|4
304,288,7983,6,0,B|176:352,1,120,8|0
56,304,8906,2,0,B|184:232,1,120,8|0
200,104,9830,1,8
344,128,10291,2,0,B|408:80,2,60,0|0|8
288,264,11214,5,4
144,248,11676,1,8
144,248,12137,2,0,B|120:192|152:112,1,120,0|8
272,56,13060,2,0,B|296:112|264:192,1,120,0|8
176,288,13983,2,0,B|144:352,2,60,0|0|8
320,304,14906,5,4
408,192,15368,1,8
408,192,15829,2,0,B|368:128|296:120,1,120,0|8
176,168,16753,2,0,B|216:232|288:240,1,120,0|8
416,216,17676,5,0
416,216,18137,1,0
328,304,18599,5,4
280,176,19060,1,0
208,288,19522,1,0
160,168,19983,1,0
96,280,20445,1,0
48,160,20906,1,0
160,64,21368,2,0,B|104:24,2,60
304,40,22291,5,4
240,136,22753,1,0
360,184,23214,1,0
264,256,23676,1,0
360,312,24137,1,0
256,368,24599,1,0
120,336,25060,6,0,B|56:328,2,60
88,192,25983,1,4
184,88,26445,1,0
328,72,26906,2,0,B|400:96|408:184,1,120
296,256,27830,2,0,B|296:320|376:352,1,120
224,328,28753,5,0
96,264,29214,1,0
104,120,29676,1,0
232,48,30137,1,0
352,128,30599,2,0,B|416:168|408:256,1,120
384,296,31291,2,0,B|504:352,2,120,0|0|0
384,296,32445,5,0
384,296,32906,1,0
352,152,33368,5,4
232,72,33830,1,8
112,152,34291,2,0,B|80:216|120:288,1,120,0|8
248,232,35214,2,0,B|280:288|245:348,1,120,0|8
104,312,36137,5,0
104,312,36368,1,0
104,312,36599,2,0,B|72:192,1,120,8|0
152,72,37522,1,8
152,72,37983,2,0,B|192:200,1,120,0|8
312,256,38906,2,0,B|392:264,2,60,0|0|8
192,336,39830,6,0,B|128:312|112:240,1,120
128,104,40753,1,4
256,40,41214,1,8
360,136,41676,2,0,B|424:88,2,60,0|0|8
376,288,42599,2,0,B|304:312|248:256,1,120,0|8
120,280,43522,5,0
88,144,43983,1,8
208,64,44445,2,0,B|280:64|328:136,1,120,0|8
360,248,45368,2,0,B|294:246|254:198,1,120,0|8
152,304,46291,2,0,B|217:305|257:353,2,120,0|8|0
152,304,47445,1,0
152,304,47676,1,8
224,184,48137,5,4
224,184,48599,2,0,B|264:312,1,120,8|0
320,168,49522,2,0,B|360:288,1,120,8|0
416,152,50445,2,0,B|456:272,1,120,8|0
328,336,51368,1,8
328,336,51830,5,0
296,216,52291,2,0,B|224:224|160:272,1,120,8|0
208,112,53214,2,0,B|144:128|80:184,1,120,8|0
112,24,54137,2,0,B|48:40|-16:96,1,120,8|0
8,224,55060,5,8
8,225,55522,2,0,B|64:256|64:328,1,120,4|8
200,288,56445,2,0,B|248:344,2,60,0|0|8
336,240,57368,2,0,B|344:176|293:132,1,120,0|8
176,48,58291,2,0,B|144:104,2,60,0|0|8
320,56,59214,6,0,B|368:104,1,60
328,160,59676,2,0,B|248:136,1,60
232,208,60137,2,0,B|280:256,1,60
232,312,60599,2,0,B|160:288,1,60
304,64,62906,6,0,B|384:64|416:136,2,120,4|8|0
264,200,64291,1,8
264,200,64753,2,0,B|128:184,1,120,0|8
152,328,65676,6,0,B|96:368,2,60,0|0|8
296,320,66599,1,4
416,240,67060,1,8
336,120,67522,2,0,B|352:96|336:48,2,60,0|0|8
192,144,68445,2,0,B|176:208|200:264,1,120,0|8
336,216,69368,2,0,B|352:272|336:344,1,120,0|8
192,344,70291,6,0,B|80:264,1,120,0|8
104,128,71214,2,0,B|216:208,1,120,0|8
256,152,71906,2,0,B|360:160|392:280,1,180,0|8
248,304,73060,6,0,B|266:360,2,60,0|0|8
104,272,73983,1,4
56,136,74445,1,8
184,80,74906,2,0,B|160:0,2,60,0|0|8
320,120,75830,2,0,B|376:176|448:176,1,120,0|8
408,304,76753,6,0,B|334:313|286:241,1,120,0|8
224,136,77676,2,0,B|192:72|112:88,2,120,4|8|0
80,160,79060,1,8
80,160,79291,1,2
32,296,79753,1,2
168,352,80214,1,2
224,216,80676,2,0,B|288:176|360:192,1,120,0|0
400,224,81368,6,0,B|464:272,2,60,0|0|8
288,312,82291,2,0,B|352:360,2,60,0|0|8
216,280,82983,2,0,B|152:328|88:296,3,120,2|2|2|2
103,302,84599,1,8
88,160,85060,6,0,B|56:96,2,60,0|0|8
208,80,85983,2,0,B|176:8,2,60,0|0|8
248,144,86676,2,0,B|280:208|368:216,3,120,2|2|2|2
341,212,88291,1,8
440,312,88753,6,0,B|432:232,1,60
360,264,89214,2,0,B|344:328,1,60
272,320,89676,2,0,B|264:240,1,60
192,264,90137,2,0,B|176:344,1,60
104,320,90599,5,0
48,184,91060,1,0
152,80,91522,1,0
288,128,91983,1,0
224,248,92445,6,0,B|296:360,1,120,4|0
424,336,93368,2,0,B|359:235,1,120
440,128,94291,1,0
296,104,94753,1,0
152,80,95214,1,0
136,224,95676,5,0
136,224,96137,2,0,B|128:296|56:328,2,120
232,120,97522,1,0
232,120,97983,2,0,B|240:56|304:24,2,120
336,224,99368,6,0,B|320:344,1,120,0|4
192,272,100291,1,0
192,272,100753,2,0,B|216:128,1,120
96,64,101676,6,0,B|32:112|64:176,1,120
200,192,102599,2,0,B|224:256|176:312,1,120
304,224,103522,6,0,B|328:352,1,120
472,320,104445,2,0,B|504:296|504:248,2,60
440,256,105137,6,0,B|424:184,1,60
360,168,105599,2,0,B|336:88,1,60
272,120,106060,6,0,B|224:168,1,60,0|2
168,128,106522,2,0,B|112:176,1,60,0|2
48,288,107214,6,0,B|21:170,1,120,4|8
168,160,108137,2,0,B|136:32,2,120,0|8|0
280,64,109522,1,8
312,208,109983,1,0
344,352,110445,1,8
344,352,110676,5,0
344,352,110906,2,0,B|280:392|208:352,1,120,0|8
224,216,111830,2,0,B|152:200|80:232,1,120,0|8
32,96,112753,2,0,B|104:120|168:80,2,120,0|8|0
48,240,114137,5,8
48,240,114599,2,0,B|168:224,2,120,4|8|0
168,320,115983,1,8
168,320,116445,2,0,B|304:336,2,120,0|8|0
280,232,117830,6,0,B|352:208,2,60
328,96,118753,2,0,B|248:64,2,60
456,168,119676,2,0,B|464:232|432:296,1,120
112,352,121291,5,0
112,352,121522,1,0
80,216,121983,1,4
208,272,122445,2,0,B|184:144,1,120,8|0
288,56,123368,2,0,B|312:192,1,120,8|0
432,96,124291,1,8
456,240,124753,1,0
456,240,124983,1,0
456,240,125214,1,8
352,344,125676,5,0
216,312,126137,2,0,B|288:216,1,120,8|0
208,96,127060,2,0,B|138:193,1,120,8|0
0,168,127983,2,0,B|72:72,1,120,8|0
120,208,128906,5,8
120,208,129368,2,0,B|264:232,1,120,4|8
376,272,130291,2,0,B|384:336,2,60,0|0|8
448,144,131214,2,0,B|312:120,1,120,0|8
192,96,132137,2,0,B|192:32,2,60,0|0|8
96,200,133060,6,0,B|104:280,1,60
176,256,133522,2,0,B|192:184,1,60
264,200,133983,2,0,B|272:272|272:264,1,60
344,264,134445,2,0,B|352:192,1,60
48,96,136753,6,0,B|48:168|128:200,1,120,4|8
232,120,137676,2,0,B|304:144|312:224,2,120,0|8|0
184,256,139060,1,8
184,256,139522,6,0,B|304:328,1,120,0|8
400,232,140445,1,4
280,152,140906,1,8
168,72,141368,2,0,B|24:80,1,120,0|8
112,208,142291,2,0,B|256:200,2,120,0|8|0
96,352,143676,1,8
96,352,144137,6,0,B|144:304|232:304,1,120,0|8
344,312,145060,2,0,B|368:376,2,60,0|0|8
320,248,145753,2,0,B|320:144|424:88,1,180,0|8
440,240,146906,6,0,B|408:368,1,120,0|8
312,248,147830,1,4
344,112,148291,1,8
208,64,148753,2,0,B|80:112,1,120,0|8
48,240,149676,1,0
184,192,150137,1,8
160,336,150599,5,0
304,336,151060,1,8
448,336,151522,2,0,B|448:256|384:208,1,120,4|8
272,184,152445,2,0,B|216:144|216:64,1,120,0|8
144,64,153137,2,0,B|16:104,3,120,2|2|2|2
29,99,154753,1,8
64,240,155214,6,0,B|0:264,2,60,0|0|8
208,240,156137,2,0,B|336:200,1,120,0|8
344,136,156830,2,0,B|400:96|464:128,3,120
457,124,158445,1,8
424,264,158906,6,0,B|368:320,1,60
328,256,159368,2,0,B|272:232,1,60,8|0
200,256,159830,2,0,B|136:288,1,60
80,256,160291,1,8
80,256,160522,2,0,B|88:192|40:128,3,120,2|2|2|2
50,142,162137,1,8
176,80,162599,6,0,B|144:144,1,60
208,168,163060,2,0,B|264:112,1,60
312,168,163522,2,0,B|280:232,1,60
344,264,163983,2,0,B|392:216,1,60
400,48,166291,6,0,B|440:144,1,89.9999973177911,4|0
360,208,167214,5,0
360,208,167445,2,0,B|360:264|312:280,2,89.9999973177911,2|0|2
248,208,168830,2,0,B|192:216|192:280,2,89.9999973177911,0|2|0
304,192,169983,2,0,B|328:120|312:64|232:32,1,179.999994635582,0|0
248,40,171368,1,0
152,88,171830,5,0
152,88,172060,2,0,B|152:144|208:168,2,89.9999973177911,2|0|2
256,80,173445,2,0,B|304:104|296:160,1,89.9999973177911,0|2
392,208,174368,2,0,B|336:232|336:288,1,89.9999973177911,0|2
240,224,175291,2,0,B|192:256|152:232,1,89.9999973177911,0|2
48,248,176214,2,0,B|32:192|88:160,2,89.9999973177911,0|2|0
88,288,177368,2,0,B|136:336|192:344|256:312,1,179.999994635582
360,296,178753,2,0,B|376:240,2,44.9999986588955
400,336,179445,6,0,B|496:312,3,89.9999973177911,2|2|2|2
464,208,181291,6,0,B|424:240|368:232,1,89.9999973177911,2|0
320,144,182214,2,0,B|264:136|232:176,2,89.9999973177911,2|0|2
416,96,183599,2,0,B|400:48|344:24,2,89.9999973177911,0|2|0
392,144,184753,2,0,B|344:232|240:224,1,179.999994635582
136,192,186137,5,4
136,192,186599,1,4
56,336,187291,5,0
56,336,187522,1,0
56,336,187753,2,0,B|64:288|128:280,1,89.9999973177911,2|0
208,328,188676,2,0,B|264:330|296:280,2,89.9999973177911,2|0|2
216,232,190060,6,0,B|200:176|144:168,1,89.9999973177911,0|2
240,112,190983,2,0,B|188:99|176:56,1,89.9999973177911,0|2
272,24,191906,1,0
272,24,192137,2,0,B|360:40|384:120,1,134.999995976687
256,192,193522,12,0,195368
144,48,199522,6,0,B|80:88|88:168,1,120,4|8
208,200,200445,2,0,B|208:280|152:328,2,120,0|8|0
80,224,201830,1,8
80,224,202291,6,0,B|56:80,1,120,0|8
176,40,203214,1,4
200,168,203676,1,8
232,296,204137,2,0,B|280:344|368:336,2,120,0|8|0
336,216,205522,2,0,B|416:216|456:280,2,120,8|0|8
216,168,206906,6,0,B|152:144|144:72,1,120,0|8
280,72,207830,2,0,B|336:32,1,60
376,80,208291,1,8
432,56,208522,2,0,B|480:144|448:232,1,180,0|8
392,264,209445,6,0,B|336:320,1,60,0|0
312,256,209906,2,0,B|240:264,1,60,0|8
192,144,210599,1,4
128,264,211060,1,8
48,160,211522,2,0,B|-8:176,2,60,0|0|8
96,40,212445,2,0,B|168:16,2,60,0|0|8
152,160,213368,5,0
208,280,213830,1,8
328,224,214291,2,0,B|272:192|288:96,1,120,4|8
344,96,214983,1,0
384,48,215214,2,0,B|488:112,1,120,0|8
472,176,215906,2,0,B|432:224|456:288,3,120,2|2|2|2
456,288,217522,1,8
336,336,217983,6,0,B|264:368,1,60
256,296,218445,2,0,B|176:288,1,60,8|0
160,344,218906,2,0,B|88:320,1,60
64,272,219368,1,8
64,208,219599,2,0,B|96:144|72:64,3,120,2|2|2|2
78,91,221214,1,8
208,64,221676,6,0,B|248:128,1,60
304,104,222137,2,0,B|352:176,1,60,8|0
400,152,222599,2,0,B|448:216,1,60
504,216,223060,1,8
504,280,223291,2,0,B|464:328|376:320,3,120,2|2|2|2
395,321,224906,1,8
328,320,225137,6,0,B|336:240,1,60
272,240,225599,2,0,B|224:304,1,60
176,256,226060,2,0,B|192:192,1,60
136,168,226522,2,0,B|88:216,1,60
40,168,226983,2,0,B|72:112,1,60
184,56,227676,5,0
304,104,228137,1,0
304,104,228368,2,0,B|320:184,2,60
