osu file format v9

[General]
AudioFilename: 03 Love Dust.mp3
AudioLeadIn: 0
PreviewTime: 62676
Countdown: 0
SampleSet: Soft
StackLeniency: 0.7
Mode: 0
LetterboxInBreaks: 0

[Editor]
Bookmarks: 18584,48122,61045,107199,134892,181045,195815
DistanceSpacing: 0.8
BeatDivisor: 4
GridSize: 4

[Metadata]
Title:Love Dust
Artist:BIGBANG
Creator:Lizbeth
Version:Sleeping
Source:
Tags:Alive kpop Big Bang mini album G-Dragon Taeyang T.O.P. Daesung Seungri

[Difficulty]
HPDrainRate:3
CircleSize:3
OverallDifficulty:3
ApproachRate:3
SliderMultiplier:1
SliderTickRate:1

[Events]
//Background and Video events
0,0,"astomoe.jpg"
//Break Periods
2,195568,198082
//Storyboard Layer 0 (Background)
//Storyboard Layer 1 (Fail)
//Storyboard Layer 2 (Pass)
//Storyboard Layer 3 (Foreground)
//Storyboard Sound Samples
//Background Colour Transformations
3,100,163,162,255

[TimingPoints]
3830,461.538461538462,4,2,0,50,1,0
18584,-100,4,2,0,50,0,0
18830,-100,4,1,0,30,0,0
25868,-100,4,2,0,50,0,0
26099,-100,4,1,0,30,0,0
32330,-100,4,2,0,50,0,0
58983,-100,4,1,0,50,0,0
62906,-100,4,2,0,50,0,1
88637,-100,4,1,0,50,0,1
90599,-100,4,2,0,40,0,0
92445,-100,4,2,0,30,0,0
92560,-100,4,1,0,30,0,0
99830,-100,4,2,0,30,0,0
99945,-100,4,1,0,30,0,0
105945,-100,4,2,0,50,0,0
132830,-100,4,1,0,50,0,0
136753,-100,4,2,0,50,0,1
162483,-100,4,1,0,50,0,1
164445,-100,4,1,0,40,0,0
166291,-100,4,2,0,50,0,0
178753,-100,4,2,0,40,0,0
180945,-100,4,2,0,50,0,0
185906,-100,4,2,0,30,0,0
186830,-100,4,2,0,60,0,0
189945,-100,4,2,0,70,0,0
199522,-100,4,2,0,50,0,1
225022,-100,4,1,0,50,0,1
227214,-100,4,2,0,45,0,0
227676,-100,4,1,0,45,0,0
228253,-100,4,2,0,45,0,0

[Colours]
Combo1 : 255,255,255
Combo2 : 255,117,51
Combo3 : 255,255,255
Combo4 : 255,164,119

[HitObjects]
216,40,3830,1,4
216,40,4291,2,0,B|112:64|72:192,2,200,8|8|8
256,192,7060,1,8
312,344,7983,6,0,B|416:320|456:192,2,200,8|8|8
256,192,10752,1,8
256,192,11214,1,4
256,112,11676,6,0,B|464:48,1,200,8|8
424,208,13522,2,0,B|224:272,1,200,8|8
200,200,14906,1,4
168,128,15368,6,0,B|56:176|40:320,1,200,8|8
128,280,16753,2,0,B|144:216|200:200,1,100,2|0
264,176,17676,2,0,B|328:160|360:88,1,100,2|0
392,56,18599,5,4
432,208,19522,1,0
472,360,20445,1,0
312,360,21368,5,0
232,360,21830,1,0
152,360,22291,5,0
96,208,23214,1,0
48,56,24137,1,0
208,56,25060,5,0
288,56,25522,1,0
368,56,25983,6,0,B|416:264,1,200,4|0
280,336,27830,2,0,B|232:128,1,200
80,88,29676,2,0,B|128:296,2,200
408,48,33368,5,4
408,48,33830,1,8
336,192,34753,1,8
432,320,35676,1,8
352,320,36137,2,0,B|304:352|240:320,1,100,0|8
176,328,37060,5,0
176,328,37522,1,8
88,192,38445,1,8
192,72,39368,1,8
272,88,39830,5,0
320,152,40291,1,8
360,224,40753,1,4
360,304,41214,6,0,B|256:320|176:376,1,200,8|8
184,216,43060,2,0,B|288:192|392:120,1,200,8|8
224,72,44906,2,0,B|120:88|40:144,2,200,8|8|8
384,80,47676,5,8
384,80,48137,1,4
384,80,48599,2,0,B|440:296,1,200,0|8
288,344,50445,2,8,B|232:136,1,200
80,112,52291,2,8,B|136:320,2,200
240,88,55060,5,0
240,88,55522,2,0,B|336:136|360:264,1,200,4|0
232,344,57368,2,0,B|200:232|88:200,1,200
224,104,59214,5,0
296,144,59676,1,0
368,176,60137,1,0
440,208,60599,2,0,B|496:232,1,50
408,48,62906,5,4
408,48,63368,2,8,B|320:120|336:240,1,200
176,256,65214,2,8,B|264:184|248:64,1,200
176,56,66599,6,0,B|64:64,1,100,0|8
104,140,67522,2,0,B|0:148,2,100,0|8|0
240,336,69830,5,8
240,336,70291,2,0,B|184:336|136:304,2,100,0|8|0
216,256,71676,2,0,B|104:224|88:88,1,200,8|8
168,72,73060,5,0
168,72,73522,1,8
168,72,73983,2,0,B|288:32,1,100,0|8
320,96,74906,2,0,B|424:64,2,100,0|8|0
376,256,76753,5,0
376,256,77214,1,8
376,256,77676,2,0,B|256:296,2,100,4|8|0
232,192,79522,1,0
232,192,79983,2,0,B|137:225,2,100,8|0|8
200,80,81830,5,8
360,48,82753,1,8
424,192,83676,1,8
312,296,84599,1,8
152,288,85522,6,8,B|244:264|300:160,1,200
216,146,86906,1,0
216,146,87368,2,0,B|195:184|139:208,2,100,8|0|8
200,64,88753,5,0
280,72,89214,1,0
344,120,89676,1,0
376,192,90137,1,0
360,272,90599,2,0,B|304:280|304:352,2,100
208,320,92445,5,4
56,320,93368,1,0
136,184,94291,1,0
136,104,94753,1,0
136,24,95214,1,0
296,48,96137,5,0
208,184,97060,1,0
368,208,97983,1,0
432,256,98445,1,0
496,304,98906,1,0
336,304,99830,6,0,B|136:360,1,200,4|0
24,256,101676,2,0,B|216:202,1,200
120,72,103522,6,0,B|232:48,1,100
232,128,104445,2,0,B|344:112,1,100
336,192,105368,2,0,B|456:184,1,100
408,264,106291,2,0,B|528:256,1,100
484,340,107214,5,4
484,340,107676,1,8
320,352,108599,1,8
184,272,109522,1,8
312,184,110445,5,8
312,184,110906,1,0
312,184,111367,1,8
176,96,112291,1,8
56,200,113214,1,8
184,296,114137,5,8
184,296,114599,2,0,B|296:320,1,100,4|8
192,184,115983,1,8
192,184,116445,2,0,B|312:184,1,100,0|8
176,80,117830,5,8
176,80,118291,2,0,B|208:32|280:32,1,100,0|8
312,96,119214,2,0,B|364:96|396:48,2,100
464,288,121983,5,4
464,288,122445,2,8,B|352:312|272:208,1,200
416,136,124291,2,8,B|349:48|237:72,1,200
256,232,126137,2,8,B|189:319|77:295,1,200
96,216,127522,2,0,B|64:96,1,100,0|8
216,48,128906,5,8
216,48,129368,2,0,B|328:88,2,100,4|8|0
264,200,131214,1,0
264,200,131676,2,0,B|376:240,2,100,8|0|8
192,232,133060,5,0
112,224,133522,1,0
64,160,133983,1,0
64,80,134445,2,0,B|64:40|104:32,1,50
448,56,136753,5,4
448,56,137214,2,0,B|376:136|384:256,1,200,8|8
264,352,139060,2,8,B|224:240|272:120,1,200
152,40,140906,2,8,B|88:128|112:256,2,200
312,48,143676,5,8
312,48,144137,2,0,B|424:72,2,100,0|8|0
264,112,145522,2,0,B|144:80,2,100,8|0|8
344,136,146906,6,0,B|400:232,1,100,0|8
280,336,148291,2,8,B|168:152,2,200
352,304,150599,6,0,B|368:248|432:240,1,100,0|8
416,160,151522,5,4
416,160,151983,1,8
320,32,152906,1,8
192,128,153830,1,8
72,16,154753,1,8
72,16,155214,6,0,B|48:128,1,100,0|8
128,144,156137,2,0,B|96:240,1,100,0|8
176,264,157060,2,0,B|136:368,3,100,0|8|0|8
224,368,158906,5,0
224,368,159368,2,8,B|432:336,1,200
464,184,161214,2,8,B|266:214,1,200
192,240,162599,5,0
112,224,163060,1,0
80,152,163522,1,0
104,80,163983,1,0
176,56,164445,2,0,B|248:72|288:24,2,100
48,152,166291,6,0,B|88:256,1,100,4|0
144,296,167214,1,2
304,320,168137,1,0
440,240,169060,1,2
408,80,169983,2,0,B|296:200|112:144,1,300
56,128,171830,5,2
128,272,172753,1,0
192,128,173676,1,2
256,272,174599,1,0
320,128,175522,1,2
392,272,176445,1,0
392,272,177368,2,0,B|256:320|248:212|72:272,1,300,2|0
64,192,179214,5,0
140,172,179676,2,0,B|224:148|280:212|344:196,1,200,0|0
416,188,181060,1,2
348,44,181983,6,0,B|232:52|180:160,2,200,0|2|0
476,140,184753,2,0,B|284:120|236:288,1,300,2|4
228,356,186599,1,4
388,352,187522,5,0
388,352,187983,1,0
388,352,188445,2,0,B|348:248|420:152,1,200,2|0
308,44,190291,2,0,B|220:112|236:228,1,200,2|0
124,336,192137,2,0,B|44:256|80:136,1,200,2|0
256,192,193522,12,0,195368
160,32,199522,5,4
160,32,199983,2,0,B|56:56|32:176,1,200,8|8
192,168,201830,2,8,B|272:88|392:120,1,200
448,160,203214,2,0,B|480:272,1,100,0|8
392,264,204137,2,0,B|417:360,2,100,0|8|0
80,320,206906,5,0
80,320,207368,2,8,B|40:112,1,200
176,32,209214,2,8,B|224:240,1,200
288,272,210599,2,0,B|328:320|400:296,1,100,0|8
400,224,211522,2,0,B|456:216|496:256,2,100,0|8|0
248,168,213368,5,0
184,120,213830,1,8
120,72,214291,2,0,B|56:192,2,100,4|8|0
184,120,215676,2,8,B|144:216|192:336,2,200
256,72,217983,6,0,B|320:96|384:24,1,100,0|8
416,104,218906,2,0,B|440:160|408:216,1,100,0|8
336,224,219830,2,0,B|320:152|224:168,3,100,0|8|0|8
200,216,221676,5,0
200,216,222137,1,8
56,296,223060,1,8
64,136,223983,1,8
208,72,224906,1,8
288,56,225368,5,0
360,88,225830,1,0
392,160,226291,1,0
392,240,226753,1,0
336,296,227214,2,0,B|264:280|232:360,3,100,0|0|0|0
