osu file format v9

[General]
AudioFilename: 03 Love Dust.mp3
AudioLeadIn: 0
PreviewTime: 62676
Countdown: 0
SampleSet: Soft
StackLeniency: 0.7
Mode: 0
LetterboxInBreaks: 0

[Editor]
Bookmarks: 48122,61045,107199,134892,181045,195815
DistanceSpacing: 1.2
BeatDivisor: 4
GridSize: 8

[Metadata]
Title:Love Dust
Artist:BIGBANG
Creator:Lizbeth
Version:Dancing
Source:
Tags:Alive kpop Big Bang mini album G-Dragon Taeyang T.O.P. Daesung Seungri

[Difficulty]
HPDrainRate:7
CircleSize:4
OverallDifficulty:8
ApproachRate:8
SliderMultiplier:1.4
SliderTickRate:1

[Events]
//Background and Video events
0,0,"astomoe.jpg"
//Break Periods
2,195568,198772
//Storyboard Layer 0 (Background)
//Storyboard Layer 1 (Fail)
//Storyboard Layer 2 (Pass)
//Storyboard Layer 3 (Foreground)
//Storyboard Sound Samples
//Background Colour Transformations
3,100,163,162,255

[TimingPoints]
3830,461.538461538462,4,2,0,50,1,0
18599,-100,4,2,0,50,0,0
18830,-100,4,1,0,30,0,0
25868,-100,4,2,0,50,0,0
26099,-100,4,1,0,30,0,0
32330,-100,4,2,0,50,0,0
58983,-100,4,1,0,50,0,0
62906,-100,4,2,0,50,0,1
88637,-100,4,1,0,50,0,1
90599,-100,4,1,0,50,0,0
90714,-100,4,1,0,40,0,0
92445,-100,4,2,0,30,0,0
92560,-100,4,1,0,30,0,0
96022,-100,4,2,0,30,0,0
96253,-100,4,1,0,30,0,0
99714,-100,4,2,0,30,0,0
99945,-100,4,1,0,30,0,0
105945,-100,4,2,0,50,0,0
113445,-133.333333333333,4,2,0,50,0,0
113906,-100,4,2,0,50,0,0
119676,-133.333333333333,4,2,0,50,0,0
120137,-100,4,2,0,50,0,0
132830,-100,4,1,0,50,0,0
136753,-100,4,2,0,50,0,1
162483,-100,4,1,0,50,0,1
164445,-100,4,1,0,50,0,0
166291,-133.333333333333,4,2,0,50,0,0
172060,-133.333333333333,4,2,0,50,0,0
178753,-133.333333333333,4,2,0,40,0,0
180945,-133.333333333333,4,2,0,50,0,0
185906,-133.333333333333,4,2,0,30,0,0
186830,-133.333333333333,4,2,0,60,0,0
189945,-133.333333333333,4,2,0,70,0,0
199522,-100,4,2,0,50,0,1
225022,-100,4,1,0,50,0,1
227099,-100,4,2,0,50,0,1
227214,-100,4,2,0,40,0,0
227445,-100,4,1,0,40,0,0
228253,-100,4,2,0,40,0,0

[Colours]
Combo1 : 255,255,255
Combo2 : 255,117,51
Combo3 : 255,255,255
Combo4 : 255,164,119

[HitObjects]
72,40,3830,6,0,B|48:120,1,70,4|2
136,128,4291,1,0
104,208,4522,2,0,B|248:256,2,140,2|2|2
408,176,5906,2,0,B|264:128,2,140,2|2|2
464,120,7060,1,0
496,200,7291,1,2
432,256,7522,1,4
136,328,7983,6,0,B|69:309,1,70,8|0
181,253,8445,2,0,B|248:272,1,70,0|0
352,216,8906,2,0,B|285:197,1,70,8|0
232,80,9368,2,0,B|208:160,1,70,0|0
312,128,9829,1,8
406,48,10060,6,0,B|336:48,1,70,2|0
416,128,10522,2,0,B|486:128,2,70,2|8|2
256,192,11214,5,4
80,56,11676,5,8
80,56,12137,2,0,B|40:128|64:208,1,140,0|8
304,352,13060,2,0,B|344:280|320:200,1,140,0|8
240,208,13753,6,0,B|160:192,1,70,2|0
288,120,14214,2,0,B|368:136,2,70,2|8|2
88,96,14906,5,4
104,264,15368,5,8
104,264,15829,2,0,B|136:336|240:352,1,140,0|8
212,346,16522,5,2
272,288,16983,1,2
360,288,17445,1,2
360,288,17676,2,0,B|432:240,1,70,0|2
432,144,18137,2,0,B|368:184,1,70,0|2
372,181,18599,5,4
328,264,19060,1,0
240,248,19522,1,0
208,328,19983,1,0
128,288,20445,1,0
80,360,20906,1,0
80,360,21137,5,0
32,280,21368,1,0
16,192,21599,1,0
32,104,21830,2,0,B|24:64|72:32,1,70
57,42,22291,5,4
152,56,22753,1,0
136,144,23214,1,0
224,136,23676,1,0
216,224,24137,1,0
304,200,24599,1,0
304,200,24830,5,0
336,280,25060,2,0,B|376:336,1,70
392,208,25522,2,0,B|480:224,1,70
480,320,25983,1,4
240,48,26445,1,0
240,48,26906,6,0,B|152:48,2,70
240,136,27599,1,0
240,136,27830,2,0,B|303:171|375:139,1,140
440,200,28522,6,0,B|456:280,2,70
352,200,29214,1,0
344,288,29445,1,0
264,336,29676,1,4
256,64,30137,1,0
264,336,30599,1,0
224,256,30830,1,0
136,232,31060,1,0
56,280,31291,2,0,B|0:224|16:120,2,140
136,232,32445,6,0,B|192:192,1,70,0|2
304,224,32906,2,0,B|240:264,1,70,0|2
244,261,33368,5,4
312,328,33599,1,0
400,304,33830,1,8
416,216,34060,1,0
352,144,34291,2,0,B|352:96|304:64,1,70
264,168,34753,2,0,B|232:144|176:160,1,70,8|0
208,248,35214,6,0,B|176:288|104:280,1,105
112,232,35676,2,0,B|40:232,1,70,8|0
80,144,36137,6,0,B|32:88,1,70
120,64,36599,2,0,B|168:136|256:136,1,140,8|0
264,48,37291,1,0
352,24,37522,1,8
432,64,37753,1,0
448,152,37983,1,0
416,240,38214,1,0
328,256,38445,1,8
248,208,38676,1,0
264,48,38906,5,0
352,24,39137,1,0
432,64,39368,1,8
416,152,39599,5,0
320,192,39830,2,0,B|235:237,1,70
385,247,40291,2,0,B|358:315,1,70,8|0
272,320,40753,1,4
472,40,41214,1,8
472,40,41676,5,0
392,88,41906,1,0
304,72,42137,1,8
232,128,42368,1,0
144,104,42599,2,0,B|64:80|-8:120,1,140,0|8
80,264,43291,6,0,B|40:192,1,70
160,224,43753,2,0,B|144:136,1,70,0|8
248,240,44214,1,0
248,240,44445,2,0,B|264:88,1,140,0|8
456,336,45368,1,0
376,288,45599,1,0
336,208,45830,1,8
352,120,46060,1,0
392,40,46291,2,0,B|472:56|496:136,2,140,0|8|0
392,40,47445,5,0
304,40,47676,1,8
368,192,47906,2,0,B|352:112,2,70,0|4|0
456,176,48599,5,8
432,264,48830,1,0
368,192,49060,1,0
344,280,49291,1,0
280,216,49522,1,8
196,341,49753,2,0,B|256:304,2,70,0|0|0
184,248,50445,5,8
104,288,50676,1,0
32,232,50906,1,0
48,144,51137,1,0
136,112,51368,1,8
267,122,51599,2,0,B|208:160,2,70,4|0|0
336,64,52291,6,0,B|352:24|400:16,1,70,8|0
376,144,52753,2,0,B|408:112|464:128,1,70
376,232,53214,2,0,B|416:232|440:272,1,70,8|0
360,312,53676,2,0,B|280:336|232:264,2,140,0|8|0
360,312,54830,5,0
344,224,55060,1,8
344,224,55522,2,0,B|432:208|448:112,1,140,4|8
448,48,56214,1,0
360,64,56445,2,0,B|288:80,2,70,0|0|8
360,64,57137,5,0
200,96,57368,2,0,B|256:152|232:224,1,140,0|8
144,208,58060,1,0
56,224,58291,2,0,B|16:288,2,70,0|0|8
56,224,59214,5,0
56,136,59445,1,0
152,184,59676,1,0
176,72,59906,1,0
264,160,60137,1,0
312,40,60368,1,0
376,176,60599,1,0
448,72,60830,1,4
386,72,62906,6,0,B|416:80|424:128,1,70,4|0
328,160,63368,2,0,B|336:201|296:217,1,70,8|0
208,64,63830,2,0,B|288:72,2,70,0|0|8
208,160,64522,1,0
208,160,64753,2,0,B|56:136,1,140,0|8
48,232,65445,5,0
144,256,65676,1,0
240,280,65906,1,0
336,304,66137,1,8
336,304,66599,1,4
48,232,67060,1,8
48,232,67522,5,0
136,192,67753,1,0
224,152,67983,1,8
312,104,68214,2,0,B|336:168|336:256,1,140
335,241,68906,1,8
240,248,69137,2,0,B|248:320,1,70
152,344,69599,1,0
144,304,69714,1,0
136,264,69830,1,8
64,328,70060,5,0
160,168,70291,2,0,B|216:200|304:192,1,140,4|8
272,96,70983,1,0
432,48,71214,2,0,B|336:64,1,70
448,144,71676,1,8
464,240,71906,1,0
472,336,72137,2,0,B|384:336|336:384,1,140,0|8
333,282,72830,6,0,B|304:200,1,70
152,144,73291,2,0,B|192:232,1,70,0|8
384,96,73983,1,4
64,352,74445,1,8
64,352,74906,5,0
104,264,75137,1,0
72,168,75368,1,8
112,80,75599,2,0,B|168:136|248:128,1,140
238,128,76176,1,0
238,128,76291,1,8
288,48,76522,1,0
288,48,76637,1,0
288,48,76753,6,0,B|368:56|424:128,1,140,0|8
224,336,77676,2,0,B|144:328|88:256,1,140,4|8
184,216,78368,1,0
184,216,78599,2,0,B|136:144|40:152,1,140,0|8
66,151,79291,5,2
24,240,79753,1,2
64,328,80214,1,2
160,360,80676,2,0,B|224:320|304:344,1,140,0|0
294,341,81368,5,0
392,328,81599,1,0
480,216,81829,1,8
384,232,82060,1,0
248,160,82291,1,0
344,144,82522,1,0
256,72,82753,1,8
256,72,82983,5,2
153,79,83445,1,2
105,168,83906,1,2
8,182,84368,1,2
8,182,84599,1,8
80,352,85060,6,0,B|56:272,1,70
168,160,85522,2,0,B|152:256,1,70,8|0
264,352,85983,2,0,B|256:272,2,70,0|0|8
264,352,86676,5,2
344,288,87137,1,2
440,296,87599,1,2
504,232,88060,2,0,B|448:160|456:88,1,140
455,103,88753,5,0
376,48,88983,1,0
264,40,89214,1,0
168,112,89445,1,0
216,224,89676,1,0
136,304,89906,1,0
32,288,90137,1,0
16,192,90368,1,0
16,192,90599,6,0,B|72:120,2,70
312,336,91522,1,0
256,56,91983,1,0
48,304,92445,6,0,B|72:216,1,70,4|0
136,288,92906,2,0,B|152:216,1,70
224,264,93368,2,0,B|240:176,1,70
312,240,93829,1,0
312,240,94291,2,0,B|336:88,2,140
432,288,95445,6,0,B|432:328|480:344,2,70
496,232,96137,1,4
496,144,96599,1,0
456,72,97060,1,0
376,96,97291,6,0,B|344:72|368:16,2,70
408,176,97983,1,0
408,264,98445,1,0
352,328,98906,1,0
272,304,99137,6,0,B|208:248,1,70
136,256,99599,1,0
48,264,99830,2,0,B|17:191|82:114,1,140,4|0
147,166,100522,1,0
224,188,100753,2,0,B|274:128|243:55,1,140
170,31,101445,5,0
170,31,101676,2,0,B|56:32,1,105
64,72,102137,2,0,B|16:72|0:120,1,70
53,176,102599,6,0,B|96:232,1,70,0|0
218,232,103060,2,0,B|176:176,1,70,0|0
256,48,103522,6,0,B|232:120|288:184,1,140
392,248,104214,1,0
392,248,104329,1,0
392,248,104445,2,0,B|360:168,2,70
448,328,105137,6,0,B|544:328,1,70
312,272,105599,2,0,B|224:272,1,70
176,200,106060,6,0,B|232:144,1,70,0|2
64,152,106522,2,0,B|0:208,1,70,0|2
440,40,107214,6,0,B|472:192,1,140,4|8
352,336,108137,2,0,B|320:200,2,140,0|8|0
256,344,109291,5,0
240,248,109522,1,8
200,160,109753,1,0
112,120,109983,1,0
192,64,110214,2,0,B|264:32,1,70,0|8
112,32,110676,5,0
112,216,110906,2,0,B|88:256|128:304,1,70
200,240,111368,2,0,B|216:200|192:160,1,70,8|0
24,192,111829,2,0,B|-8:272|40:344,1,140,0|8
296,264,112753,2,0,B|328:184|280:112,1,140,0|8
290,128,113445,6,0,B|232:128|192:192,1,104.999996870756,0|0
201,177,114137,1,8
52,111,114599,6,0,B|168:96,1,105,4|0
168,56,115060,2,0,B|240:24|304:56,1,140,8|0
264,128,115753,5,0
184,152,115983,1,8
136,216,116214,1,0
0,288,116445,6,0,B|115:303,1,105
115,343,116906,2,0,B|187:375|251:343,1,140,8|0
368,240,117599,5,0
368,240,117714,1,0
368,240,117829,2,0,B|320:256|312:312,2,70,8|0|0
352,80,118522,1,0
360,160,118753,1,8
184,240,118983,6,0,B|192:288|248:304,2,70
280,112,119676,2,0,B|264:216,1,105
264,224,121291,5,0
192,272,121522,1,0
184,112,121753,2,0,B|160:160|200:208,2,70,0|4|0
264,128,122445,5,8
304,56,122676,1,0
384,40,122906,1,0
448,96,123137,1,0
432,176,123368,1,8
352,280,123599,2,0,B|336:232|384:200,2,70,0|0|0
280,320,124291,5,8
280,232,124522,1,0
200,240,124753,1,0
200,152,124983,1,0
120,168,125214,1,8
104,16,125445,2,0,B|112:88,2,70,4|0|0
192,64,126137,5,8
272,40,126368,1,0
352,64,126599,2,0,B|384:128|352:208,1,140,0|8
112,184,127522,2,0,B|80:120|112:40,1,140,0|8
488,320,128676,5,0
400,320,128906,1,8
312,320,129137,1,0
224,320,129368,2,0,B|200:184,1,140,4|8
120,200,130060,1,0
88,40,130291,2,0,B|104:120,2,70,0|0|8
24,96,130983,5,0
176,80,131214,2,0,B|240:40|312:72,1,140,0|8
336,152,131906,1,0
448,232,132137,2,0,B|408:248|352:224,2,70,0|0|8
448,232,133060,5,0
432,120,133291,1,0
336,192,133522,1,0
304,56,133753,1,0
232,176,133983,1,0
160,72,134214,1,0
136,200,134445,1,0
40,160,134676,1,4
72,208,136753,6,0,B|80:288,1,70,4|0
208,128,137214,2,0,B|144:168,1,70,8|0
328,232,137676,2,0,B|272:176,2,70,0|0|8
448,72,138368,2,0,B|416:216,1,140
417,208,139060,1,8
376,304,139291,5,0
296,248,139522,1,0
256,160,139753,1,0
256,64,139983,1,8
256,64,140445,1,4
40,336,140906,1,8
40,336,141368,5,0
96,256,141599,1,0
192,240,141829,1,8
280,280,142060,1,0
96,40,142522,1,0
144,48,142637,5,0
192,56,142753,2,0,B|272:32,1,70,8|0
168,144,143214,1,0
256,136,143445,1,0
304,144,143560,1,0
352,152,143676,2,0,B|432:128,1,70,8|0
464,288,144137,6,0,B|408:232|304:240,1,140,0|8
280,320,144829,1,0
232,232,145060,2,0,B|168:280,2,70,0|0|8
320,192,145753,1,0
320,192,145983,2,0,B|336:112|424:72,1,140,0|8
456,168,146676,5,0
400,248,146906,1,0
320,296,147137,1,0
224,312,147368,1,8
224,312,147830,1,4
480,80,148291,1,8
480,80,148753,5,0
392,120,148983,1,0
304,80,149214,1,8
240,152,149445,2,0,B|192:200|104:176,1,140
109,177,150022,1,0
109,177,150137,1,8
464,216,150599,6,0,B|400:256|400:336,2,140,0|8|4
464,216,151983,1,8
368,208,152214,1,0
304,128,152445,2,0,B|240:64|152:72,1,140,0|8
179,71,153137,5,2
96,128,153599,1,2
120,224,154060,1,2
40,280,154522,1,2
40,280,154753,1,8
336,336,155214,6,0,B|432:320,1,70
288,256,155676,2,0,B|208:272,1,70,8|0
256,168,156137,2,0,B|352:152,1,70
216,88,156599,1,8
216,88,156829,5,2
312,80,157291,1,2
408,72,157753,1,2
504,64,158214,1,2
504,64,158445,1,8
416,344,158906,6,0,B|424:296|400:264,1,70
256,320,159368,2,0,B|344:320,2,70,8|0|0
328,232,160060,1,0
232,232,160291,1,8
232,232,160522,5,2
144,192,160983,1,2
144,96,161445,1,0
48,64,161906,2,0,B|8:128|32:208,1,140
29,198,162599,5,0
128,192,162830,1,0
208,296,163060,1,0
112,304,163291,1,0
224,184,163522,1,0
322,177,163753,1,0
402,281,163983,1,0
306,289,164214,1,0
96,72,166291,6,0,B|144:176,1,104.999996870756,4|0
224,136,166983,5,0
312,120,167214,1,0
352,208,167445,2,0,B|368:264|448:272,2,104.999996870756,2|0|2
176,160,168830,2,0,B|232:174|256:222,2,104.999996870756,0|2|0
136,240,169983,2,0,B|56:232|16:168|32:72,1,209.999993741512,0|0
29,88,171368,1,0
144,80,171830,5,0
144,80,172060,2,0,B|144:136|204:159,2,104.999996870756,2|0|2
372,25,173445,2,0,B|432:48|432:104,1,104.999996870756,0|2
344,112,174137,1,0
392,184,174368,2,0,B|336:208|336:272,1,104.999996870756,0|2
424,272,175060,1,0
384,344,175291,2,0,B|336:376|280:344,1,104.999996870756,0|2
248,264,175983,1,0
152,272,176214,2,0,B|144:208|208:176,2,104.999996870756,0|2|0
32,264,177368,6,0,B|8:192|40:120|120:88,1,209.999993741512
112,91,178753,1,0
201,91,178983,1,0
289,83,179214,1,0
289,83,179445,5,2
369,115,179906,1,2
401,195,180368,1,2
481,211,180830,1,2
456,288,181060,5,0
456,288,181291,2,0,B|424:344|352:344,1,104.999996870756,2|0
296,312,181983,1,0
216,264,182214,2,0,B|144:256|120:320,2,104.999996870756,2|0|2
288,216,183368,1,0
368,176,183599,2,0,B|392:128|352:64,2,104.999996870756,0|2|0
272,136,184753,6,0,B|208:40|88:48,1,209.999993741512
92,47,186137,1,4
92,47,186599,1,4
64,336,187291,5,0
80,248,187522,1,0
152,296,187753,2,0,B|177:237|234:244,2,104.999996870756,2|0|2
388,231,189137,2,0,B|362:289|294:286,1,104.999996870756,0|2
306,287,189830,1,0
304,184,190060,6,0,B|280:128|216:112,1,104.999996870756,0|2
228,115,190753,1,0
184,192,190983,6,0,B|132:179|108:123,1,104.999996870756,0|2
108,124,191676,1,0
32,160,191906,2,0,B|56:248|152:280,1,157.499995306134
133,272,192830,1,0
256,192,193522,12,0,195368
80,64,199522,6,0,B|152:128,1,70,4|0
272,48,199983,2,0,B|272:96|216:120,1,70,8|0
208,264,200445,2,0,B|192:176,2,70,0|0|8
88,176,201137,1,0
88,176,201368,2,0,B|120:336,1,140,0|8
115,313,202060,5,0
232,272,202291,1,0
336,312,202522,1,0
440,264,202753,1,8
440,264,203214,1,4
115,313,203676,1,8
115,313,204137,5,0
200,248,204368,1,0
248,152,204599,1,8
240,48,204830,1,0
464,264,205291,5,0
456,224,205406,1,0
448,192,205522,1,8
336,152,205753,1,0
360,248,205983,1,0
280,320,206214,1,0
264,280,206330,1,0
248,240,206445,1,8
136,56,206676,5,0
136,56,206906,2,0,B|72:96|80:192,1,140,0|8
79,176,207830,1,0
176,200,208060,1,0
224,288,208291,1,8
320,256,208522,2,0,B|352:224|400:224,2,70
384,328,209214,1,8
384,328,209445,5,0
368,208,209676,1,0
248,176,209906,1,0
240,48,210137,1,8
240,48,210599,5,4
384,328,211060,1,8
240,48,211522,5,0
256,160,211753,1,0
160,216,211983,1,8
168,328,212214,1,0
80,56,212676,5,0
64,88,212791,1,0
48,120,212906,1,8
88,224,213137,1,0
136,136,213368,1,0
184,240,213599,1,0
168,272,213714,1,0
152,304,213829,1,8
431,303,214291,6,0,B|360:304|312:240,1,140,4|8
360,160,214983,1,0
408,72,215214,2,0,B|352:16|256:16,1,140,0|8
208,80,215906,5,2
160,160,216368,1,2
168,248,216830,1,2
136,336,217291,2,0,B|72:368|-16:344,1,140
0,347,217983,6,0,B|24:264,1,70
176,248,218445,2,0,B|96:264,1,70,8|0
104,96,218906,2,0,B|144:168,1,70
184,40,219368,1,8
184,40,219599,5,2
256,96,220060,1,2
344,104,220522,1,2
400,176,220983,1,2
400,176,221214,1,8
104,336,221676,6,0,B|112:296|160:264,1,70
176,152,222137,2,0,B|176:200|216:232,2,70,8|0|0
224,304,222830,2,0,B|264:288|312:320,1,70,0|8
384,336,223291,5,2
464,272,223753,1,2
352,224,224214,1,2
440,152,224676,1,2
440,152,224906,1,8
416,56,225137,5,0
328,56,225368,1,0
264,128,225599,1,0
288,248,225830,1,0
216,352,226060,1,0
88,352,226291,1,0
24,232,226522,1,0
56,96,226753,1,0
184,40,226983,2,0,B|248:64,1,70
448,304,227676,5,0
128,336,228137,1,0
128,336,228368,2,0,B|104:256,2,70
