osu file format v9

[General]
AudioFilename: 01 Intro (Alive).mp3
AudioLeadIn: 2000
PreviewTime: 26003
Countdown: 0
SampleSet: Normal
StackLeniency: 0.7
Mode: 0
LetterboxInBreaks: 1

[Editor]
Bookmarks: 9622,35804
DistanceSpacing: 1
BeatDivisor: 8
GridSize: 8

[Metadata]
Title:Intro (Alive)
Artist:BIGBANG
Creator:Lissette
Version:Dancing
Source:
Tags:alive kpop big bang mini album Lizbeth Liz & Liss G-Dragon Taeyang T.O.P. Daesung Seungri

[Difficulty]
HPDrainRate:7
CircleSize:4
OverallDifficulty:7
ApproachRate:7
SliderMultiplier:1.6
SliderTickRate:1

[Events]
//Background and Video events
0,0,"alivebg.jpg"
//Break Periods
//Storyboard Layer 0 (Background)
//Storyboard Layer 1 (Fail)
//Storyboard Layer 2 (Pass)
//Storyboard Layer 3 (Foreground)
//Storyboard Sound Samples
//Background Colour Transformations
3,100,0,0,0

[TimingPoints]
912.93020320158,545.454545454546,4,1,0,10,1,0
2958,-100,4,1,0,20,0,0
5140,-100,4,1,2,30,0,0
7322,-100,4,1,2,40,0,0
8003,-100,4,2,2,30,0,0
9094,-100,4,1,0,50,0,0
27094,-100,4,1,0,50,0,1
35685,-100,4,1,0,50,0,0
35822,-100,4,1,0,50,0,1
44003,-100,4,1,0,30,0,0

[Colours]
Combo1 : 255,255,255
Combo2 : 91,91,91
Combo3 : 255,255,255
Combo4 : 166,166,166

[HitObjects]
0,208,912,1,0
32,296,1458,1,0
120,328,2003,1,0
216,312,2549,1,0
192,200,3094,5,0
288,152,3640,1,0
400,152,4185,1,0
488,224,4731,1,0
368,336,5276,6,0,B|200:352,1,160
152,32,6367,2,0,B|320:16,1,160
56,256,7458,6,0,B|24:88,1,160
464,136,8549,2,0,B|493:293,1,160,0|4
80,320,9640,6,0,B|168:312,1,80,0|0
64,232,10185,2,0,B|152:224,1,80,8|0
48,144,10731,2,0,B|136:136,1,80
32,56,11276,2,0,B|120:48,1,80,8|0
368,24,11822,2,0,B|176:40,1,160,0|8
256,192,12640,6,0,B|232:112,1,80,0|0
304,352,13185,2,0,B|280:272,1,80,0|8
480,56,14003,6,0,B|440:32|400:40,1,80
464,152,14549,2,0,B|424:128|384:136,1,80,8|0
440,248,15094,2,0,B|400:224|360:232,1,80
408,344,15640,2,0,B|368:320|328:328,1,80,8|0
80,344,16185,2,0,B|184:376|256:328,1,160,0|8
248,184,17003,6,0,B|280:216|272:258,1,80,0|0
182,32,17549,2,0,B|176:72|206:106,1,80,0|8
304,104,18094,1,0
304,104,18231,1,0
304,104,18367,6,0,B|400:88,1,80
304,192,18912,2,0,B|225:205,1,80,8|0
352,264,19458,2,0,B|416:256,2,40
344,352,20003,1,8
264,304,20276,1,0
264,304,20412,1,0
264,304,20549,6,0,B|208:312|200:360,1,80
64,336,21094,2,0,B|120:336|136:280,1,80,8|0
200,208,21640,2,0,B|160:200|152:248,2,40
80,184,22185,2,0,B|24:144|56:48,1,120,8|0
96,56,22731,6,0,B|192:48,1,80
416,96,23276,2,0,B|320:104,1,80,8|0
104,216,23822,2,0,B|200:208,1,80
424,256,24367,2,0,B|328:264,1,80,8|0
152,328,24912,6,0,B|96:360|48:304,2,80,0|0|0
224,264,25731,2,0,B|256:224|216:160,2,80,0|0|0
152,328,26549,5,0
104,336,26685,1,0
56,320,26822,1,0
32,280,26958,1,0
24,232,27094,6,0,B|168:184,1,120,4|0
184,176,27640,2,0,B|216:136|184:72,2,80,8|0|0
280,160,28458,5,0
360,112,28731,1,8
448,144,29003,1,0
488,224,29276,2,0,B|392:304,1,120,0|0
352,296,29822,2,0,B|320:224,2,80,8|0|0
208,296,30640,5,0
88,296,30912,1,8
240,296,31185,1,0
56,296,31458,2,0,B|16:248|32:176,1,120
80,184,32003,2,0,B|160:184,1,80,8|0
256,184,32549,1,0
328,72,32822,5,0
424,72,33094,1,8
296,72,33367,1,0
344,176,33912,5,0
440,176,34185,1,8
312,176,34458,1,0
480,176,34731,2,0,B|512:304,1,120
509,292,35276,1,8
432,344,35549,1,0
336,328,35822,6,0,B|288:272|192:312,1,120,4|0
226,300,36367,1,8
61,298,36640,2,0,B|72:344|120:344,1,80,0|0
152,240,37185,5,0
136,144,37458,1,8
120,48,37731,1,0
208,88,38003,6,0,B|264:48|336:88,1,120
321,80,38549,1,8
456,168,38822,2,0,B|408:192|368:136,1,80
296,208,39367,5,0
200,216,39640,1,8
128,280,39912,1,0
120,376,40185,6,0,B|40:376|32:280,1,120
35,306,40731,1,8
200,216,41003,1,0
40,120,41276,1,0
104,200,41549,6,0,B|136:104|248:128,1,160
228,124,42640,6,0,B|304:168|352:96,1,120
368,88,43185,5,0
408,80,43322,1,0
448,96,43458,1,0
472,128,43594,1,0
480,168,43731,1,0
464,208,43867,1,0
432,232,44003,1,4
