osu file format v9

[General]
AudioFilename: 06 Fantastic Baby.mp3
AudioLeadIn: 1996
PreviewTime: 99594
Countdown: 0
SampleSet: Normal
StackLeniency: 0.7
Mode: 0
LetterboxInBreaks: 1

[Editor]
Bookmarks: 14892,29661,131200
DistanceSpacing: 0.8
BeatDivisor: 4
GridSize: 4

[Metadata]
Title:Fantastic Baby
Artist:BIGBANG
Creator:Lissette
Version:Sleeping
Source:
Tags:alive kpop big bang mini album g-dragon taeyang t.o.p. daesung seungri

[Difficulty]
HPDrainRate:2
CircleSize:3
OverallDifficulty:2
ApproachRate:3
SliderMultiplier:1
SliderTickRate:1

[Events]
//Background and Video events
0,0,"fantastic_baby_bg.jpg"
//Break Periods
2,29671,33769
2,79517,92846
2,160286,174077
//Storyboard Layer 0 (Background)
//Storyboard Layer 1 (Fail)
//Storyboard Layer 2 (Pass)
//Storyboard Layer 3 (Foreground)
//Storyboard Sound Samples
//Background Colour Transformations
3,100,163,162,255

[TimingPoints]
133,461.538461538462,4,2,0,50,1,0
594,-100,4,2,0,5,0,0
1979,-100,4,2,0,50,0,0
2440,-100,4,2,0,5,0,0
3825,-100,4,2,0,50,0,0
4286,-100,4,2,0,5,0,0
5671,-100,4,2,0,50,0,0
7056,-100,4,2,0,5,0,0
7517,-100,4,2,0,50,0,0
7979,-100,4,2,0,5,0,0
9363,-100,4,2,0,50,0,0
9825,-100,4,2,0,5,0,0
11209,-100,4,2,0,50,0,0
11671,-100,4,2,0,5,0,0
13056,-100,4,2,0,50,0,0
14440,-100,4,2,0,5,0,0
14902,-100,4,2,1,50,0,0
35210,-100,4,1,0,50,0,1
41556,-100,4,1,0,30,0,1
42133,-100,4,1,0,50,0,1
47902,-100,4,1,0,40,0,1
49402,-100,4,1,0,50,0,1
49517,-100,4,1,0,50,0,0
56902,-100,4,1,0,30,0,0
57363,-100,4,1,0,50,0,0
77671,-100,4,1,0,40,0,0
78017,-100,4,1,0,30,0,0
94286,-100,4,2,0,5,0,0
101671,-100,4,1,0,50,0,1
108017,-100,4,1,0,30,0,1
108594,-100,4,1,0,50,0,1
115517,-100,4,1,0,30,0,1
115863,-100,4,1,0,50,0,1
117709,-100,4,1,0,70,0,1
118171,-100,4,1,0,50,0,1
119556,-100,4,1,0,70,0,1
120017,-100,4,1,0,50,0,1
121402,-100,4,1,0,70,0,1
121863,-100,4,1,0,50,0,1
125094,-100,4,1,0,70,0,1
125556,-100,4,1,0,50,0,1
126940,-100,4,1,0,70,0,1
127402,-100,4,1,0,50,0,1
128786,-100,4,1,0,70,0,1
129248,-100,4,1,0,50,0,1
130748,-100,4,1,0,50,0,0
136633,-100,4,1,0,30,0,0
138479,-100,4,1,0,50,0,0
156940,-100,4,1,0,40,0,0
175517,-100,4,2,0,5,0,0
182902,-100,4,1,0,50,0,1
189248,-100,4,1,0,30,0,1
189825,-100,4,1,0,50,0,1
196748,-100,4,1,0,30,0,1
197209,-100,4,1,0,50,0,1
198940,-100,4,1,0,70,0,1
199171,-100,4,1,0,50,0,1
200786,-100,4,1,0,70,0,1
201017,-100,4,1,0,50,0,1
202633,-100,4,1,0,70,0,1
202863,-100,4,1,0,50,0,1
206325,-100,4,1,0,70,0,1
206556,-100,4,1,0,50,0,1
208171,-100,4,1,0,70,0,1
208402,-100,4,1,0,50,0,1
210017,-100,4,1,0,70,0,1
210248,-100,4,1,0,40,0,1
211979,-100,4,1,0,40,0,0
214633,-100,4,1,0,30,0,0
215786,-100,4,1,0,50,0,0
218325,-100,4,1,0,30,0,0
219709,-100,4,1,0,50,0,0
222017,-100,4,1,0,30,0,0
223402,-100,4,1,0,50,0,0
225363,-100,4,1,0,30,0,0

[Colours]
Combo1 : 255,255,255
Combo2 : 255,15,135
Combo3 : 255,255,255
Combo4 : 255,155,205

[HitObjects]
416,320,133,2,0,B|400:312|400:312|392:320|392:320|384:312|384:312|376:320|376:320|368:312|368:312|360:320|360:320|352:312|352:312|344:320|344:320|337:312,1,100
104,320,1979,6,0,B|120:312|120:312|128:320|128:320|136:312|136:312|144:320|144:320|152:312|152:312|160:320|160:320|168:312|168:312|176:320|176:320|183:312,1,100,0|0
416,320,3825,6,0,B|400:312|400:312|392:320|392:320|384:312|384:312|376:320|376:320|368:312|368:312|360:320|360:320|352:312|352:312|344:320|344:320|337:312,1,100
104,320,5671,6,0,B|112:312|112:312|120:320|120:320|128:312|128:312|136:320|136:320|144:312|144:312|152:320|152:320|160:312|160:312|168:320|168:320|176:312|176:312|184:320|184:320|192:312|192:312|200:320|200:320|208:312|208:312|216:320|216:320|224:312|224:312|232:320|232:320|240:312|240:312|248:320|248:320|256:312|256:312|264:320|264:320|272:312|272:312|280:320|280:320|288:312|288:312|296:320|296:320|304:312|304:312|312:320|312:320|320:312|320:312|328:320,1,300
408,216,7517,6,0,B|392:208|392:208|384:216|384:216|376:208|376:208|368:216|368:216|360:208|360:208|352:216|352:216|344:208|344:208|336:216|336:216|329:208,1,100
96,216,9363,6,0,B|112:208|112:208|120:216|120:216|128:208|128:208|136:216|136:216|144:208|144:208|152:216|152:216|160:208|160:208|168:216|168:216|175:208,1,100,0|0
408,216,11209,6,0,B|392:208|392:208|384:216|384:216|376:208|376:208|368:216|368:216|360:208|360:208|352:216|352:216|344:208|344:208|336:216|336:216|329:208,1,100
96,216,13055,6,0,B|104:208|104:208|112:216|112:216|120:208|120:208|128:216|128:216|136:208|136:208|144:216|144:216|152:208|152:208|160:216|160:216|168:208|168:208|176:216|176:216|184:208|184:208|192:216|192:216|200:208|200:208|208:216|208:216|216:208|216:208|224:216|224:216|232:208|232:208|240:216|240:216|248:208|248:208|256:216|256:216|264:208|264:208|272:216|272:216|280:208|280:208|288:216|288:216|296:208|296:208|304:216|304:216|312:208|312:208|320:216,1,300
388,196,14902,5,0
416,40,15825,1,0
272,104,16748,6,0,B|64:144,2,200
192,248,19517,5,0
312,352,20440,2,0,B|512:320,2,200
224,216,23209,5,0
112,336,24133,1,0
40,192,25056,2,0,B|88:32,1,150
240,56,26671,1,0
400,72,27594,5,0
392,152,28056,1,0
384,232,28517,2,0,B|232:296,1,150
448,104,35209,5,4
376,72,35671,1,8
304,104,36133,1,0
288,184,36594,2,0,B|280:304|152:304,2,200,8|8|8
304,104,38902,5,0
224,120,39363,1,8
144,96,39825,1,0
64,120,40286,1,8
24,192,40748,2,0,B|32:264|96:272,1,100,0|8
160,280,41671,6,0,B|168:272|176:264|184:256|200:264|192:280|200:280|216:272|224:280|240:280|256:272,1,100,0|8
320,312,42594,5,4
400,312,43056,1,8
456,256,43517,1,0
464,176,43979,2,0,B|448:64|320:64,2,200,8|8|8
456,256,46286,5,0
376,232,46748,1,8
296,248,47209,1,0
216,232,47671,1,8
136,256,48133,2,0,B|16:248,3,100,0|0|0|8
80,96,50440,5,8
152,64,50902,2,0,B|264:56,1,100,0|8
376,160,52286,5,8
304,192,52748,2,0,B|204:199,1,100,0|8
192,360,54133,5,8
352,336,55056,1,8
360,176,55979,2,0,B|459:168,3,100,8|0|10|0
456,88,57825,5,8
304,40,58748,2,0,B|208:96,1,100,8|0
168,152,59671,5,8
328,200,60594,2,0,B|288:304,1,100,8|0
216,320,61517,5,8
136,320,61979,1,0
56,320,62440,1,8
96,48,64748,5,0
176,48,65209,2,0,B|384:32,1,200,8|8
392,112,66594,2,0,B|192:127,1,200
128,272,68440,5,0
208,264,68902,2,0,B|408:249,1,200,8|8
391,169,70287,2,0,B|191:184,1,200
176,48,72133,5,0
256,56,72594,1,8
336,64,73056,1,0
400,208,73979,5,0
320,200,74440,1,8
240,192,74902,1,0
104,264,75825,5,0
32,224,76286,1,0
32,144,76748,1,0
104,104,77209,1,0
176,144,77671,6,0,B|296:128,3,100,0|0|0|8
256,192,94286,12,0,98902
480,88,101671,5,4
400,72,102133,1,8
328,104,102594,1,0
304,180,103056,2,0,B|304:300|176:324,2,200,8|8|8
328,104,105363,5,0
248,88,105825,1,8
168,104,106286,1,0
88,88,106748,1,8
12,116,107209,2,0,B|-4:180|60:212,1,100,0|8
128,216,108133,6,0,B|144:208|152:192|168:192|176:200|184:208|200:208|224:208,1,100,0|8
232,288,109056,5,4
308,312,109517,1,8
384,284,109979,1,0
412,208,110440,2,0,B|372:88|492:48,2,200,8|8|8
384,284,112748,5,0
304,264,113209,1,8
224,288,113671,1,0
144,272,114133,1,8
64,296,114594,6,0,B|56:184,3,100,0|8|0|8
72,120,116440,5,4
148,96,116902,1,8
296,56,117825,5,8
340,124,118286,5,4
416,152,118748,1,8
440,312,119671,5,8
364,288,120133,5,4
292,320,120594,1,8
132,312,121517,5,8
72,256,121979,6,0,B|48:144,3,100,0|8|0|8
120,116,123825,5,4
188,160,124286,1,8
184,320,125209,5,8
256,284,125671,5,4
328,320,126132,1,8
448,216,127055,5,8
396,156,127517,5,4
408,76,127978,1,8
248,40,128901,5,8
200,104,129363,6,0,B|80:80,2,100
176,184,130748,5,8
112,328,131671,1,8
272,336,132594,1,8
340,296,133056,2,0,B|444:320,1,100,0|8
424,160,134440,5,8
448,84,134902,2,0,B|344:60,1,100,0|8
272,44,135825,5,0
196,64,136286,1,8
120,40,136748,5,0
72,192,137671,1,0
36,348,138594,6,0,B|156:332,1,100,0|8
296,344,139979,1,8
372,316,140440,2,0,B|404:212,1,100,0|8
312,88,141825,5,8
248,136,142286,2,0,B|136:120,3,100,0|8|0|8
92,64,144133,5,0
64,328,145979,6,0,B|104:216,1,100,0|8
240,304,147363,1,8
400,280,148286,1,8
480,264,148748,2,0,B|464:160,1,100,0|8
384,24,150133,5,8
224,32,151056,1,8
112,144,151979,2,0,B|0:160,2,100,8|0|8
96,224,153363,5,0
144,288,153825,1,8
224,304,154286,2,0,B|320:328,1,100,0|8
376,272,155209,5,0
328,208,155671,1,8
248,192,156132,2,0,B|144:168,1,100,0|8
120,96,157056,5,0
200,96,157517,5,0
280,96,157979,5,0
280,16,158440,5,0
256,192,175517,12,0,180133
40,96,182902,5,4
120,80,183363,1,8
184,128,183825,1,0
176,208,184286,2,0,B|176:336|304:336,2,200,8|8|8
184,128,186594,5,0
264,112,187056,1,8
344,136,187517,1,0
424,112,187979,1,8
480,168,188440,2,0,B|480:248|424:256,1,100,0|8
360,272,189363,6,0,B|352:256|344:256|320:256|320:264|320:272|304:272|296:272|272:256|256:280,1,100,0|8
200,320,190286,5,4
120,328,190748,1,8
80,256,191209,1,0
112,184,191671,2,0,B|216:128|160:0,2,200,8|8|8
80,256,193979,5,0
160,280,194440,1,8
240,256,194902,1,0
320,280,195363,1,8
400,256,195825,2,0,B|440:152,3,100,0|8|0|8
376,96,197671,5,4
296,96,198133,1,8
136,96,199056,5,8
136,176,199517,5,4
216,176,199979,1,8
376,176,200902,5,8
376,256,201363,5,4
296,256,201825,1,8
136,256,202748,5,8
88,192,203209,6,0,B|48:80,3,100,0|8|0|8
112,48,205056,5,4
192,32,205517,1,8
200,192,206440,5,8
144,248,206902,5,4
160,328,207363,1,8
320,312,208286,5,8
392,352,208748,5,4
472,328,209209,1,8
440,168,210133,5,8
480,104,210594,6,0,B|400:24,3,100,0|0|0|8
344,72,212440,5,0
184,88,213363,1,0
24,104,214286,1,0
48,184,214748,6,0,B|48:288,2,100,8|0|8
96,120,216133,5,0
248,160,217056,1,0
400,200,217979,1,0
456,256,218440,6,0,B|456:360,2,100,8|0|8
400,200,219825,5,0
240,216,220748,1,0
80,232,221671,1,0
80,152,222133,6,0,B|80:40,2,100,8|0|8
80,232,223517,5,0
240,264,224440,1,0
400,296,225363,5,0
