osu file format v9

[General]
AudioFilename: 06 Fantastic Baby.mp3
AudioLeadIn: 1996
PreviewTime: 99594
Countdown: 0
SampleSet: Normal
StackLeniency: 0.7
Mode: 0
LetterboxInBreaks: 1

[Editor]
Bookmarks: 14892,29661,64738,131200
DistanceSpacing: 1.2
BeatDivisor: 4
GridSize: 8

[Metadata]
Title:Fantastic Baby
Artist:BIGBANG
Creator:Lissette
Version:Dancing
Source:
Tags:alive kpop big bang mini album g-dragon taeyang t.o.p. daesung seungri

[Difficulty]
HPDrainRate:7
CircleSize:4
OverallDifficulty:7
ApproachRate:8
SliderMultiplier:1.8
SliderTickRate:1

[Events]
//Background and Video events
0,0,"fantastic_baby_bg.jpg"
//Break Periods
2,29671,34460
//Storyboard Layer 0 (Background)
//Storyboard Layer 1 (Fail)
//Storyboard Layer 2 (Pass)
//Storyboard Layer 3 (Foreground)
//Storyboard Sound Samples
//Background Colour Transformations
3,100,163,162,255

[TimingPoints]
133,461.538461538462,4,2,0,50,1,0
594,-100,4,2,0,5,0,0
1979,-100,4,2,0,50,0,0
2440,-100,4,2,0,5,0,0
3825,-100,4,2,0,50,0,0
4286,-100,4,2,0,5,0,0
5671,-100,4,2,0,50,0,0
7056,-100,4,2,0,5,0,0
7517,-100,4,2,0,50,0,0
7979,-100,4,2,0,5,0,0
9363,-100,4,2,0,50,0,0
9825,-100,4,2,0,5,0,0
11209,-100,4,2,0,50,0,0
11671,-100,4,2,0,5,0,0
13056,-100,4,2,0,50,0,0
14440,-100,4,2,0,5,0,0
14902,-100,4,2,1,50,0,0
35210,-100,4,1,0,50,0,1
41556,-100,4,1,0,30,0,1
42133,-100,4,1,0,50,0,1
47902,-100,4,1,0,40,0,1
49402,-100,4,1,0,50,0,1
49517,-100,4,1,0,50,0,0
49979,-100,4,1,0,50,0,0
56902,-100,4,1,0,30,0,0
57363,-100,4,1,0,50,0,0
57594,-100,4,1,0,30,0,0
57710,-100,4,1,0,50,0,0
77671,-100,4,1,0,40,0,0
78017,-100,4,1,0,30,0,0
99017,-100,4,2,0,5,0,0
101671,-100,4,1,0,50,0,1
108017,-100,4,1,0,30,0,1
108594,-100,4,1,0,50,0,1
115517,-100,4,1,0,30,0,1
115863,-100,4,1,0,50,0,1
117709,-100,4,1,0,70,0,1
118171,-100,4,1,0,50,0,1
119556,-100,4,1,0,70,0,1
120017,-100,4,1,0,50,0,1
121402,-100,4,1,0,70,0,1
121863,-100,4,1,0,50,0,1
125094,-100,4,1,0,70,0,1
125556,-100,4,1,0,50,0,1
126940,-100,4,1,0,70,0,1
127402,-100,4,1,0,50,0,1
128786,-100,4,1,0,70,0,1
129248,-100,4,1,0,40,0,1
130748,-100,4,1,0,50,0,0
136633,-100,4,1,0,30,0,0
138479,-100,4,1,0,50,0,0
156940,-100,4,1,0,40,0,0
160633,-100,4,1,0,30,0,0
174594,-100,4,1,0,30,0,0
180248,-100,4,2,0,5,0,0
182902,-100,4,1,0,50,0,1
189248,-100,4,1,0,30,0,1
189825,-100,4,1,0,50,0,1
196748,-100,4,1,0,30,0,1
197094,-100,4,1,0,50,0,1
198940,-100,4,1,0,70,0,1
199171,-100,4,1,0,50,0,1
200786,-100,4,1,0,70,0,1
201017,-100,4,1,0,50,0,1
202633,-100,4,1,0,70,0,1
202863,-100,4,1,0,50,0,1
206325,-100,4,1,0,70,0,1
206556,-100,4,1,0,50,0,1
208171,-100,4,1,0,70,0,1
208402,-100,4,1,0,50,0,1
210017,-100,4,1,0,70,0,1
210248,-100,4,1,0,40,0,1
211979,-100,4,1,0,40,0,0
214633,-100,4,1,0,30,0,0
215786,-100,4,1,0,50,0,0
218325,-100,4,1,0,30,0,0
219709,-100,4,1,0,50,0,0
222017,-100,4,1,0,30,0,0
223402,-100,4,1,0,50,0,0
225363,-100,4,1,0,30,0,0

[Colours]
Combo1 : 255,255,255
Combo2 : 255,15,135
Combo3 : 255,255,255
Combo4 : 255,155,205

[HitObjects]
444,331,133,2,0,B|428:323|428:323|420:331|420:331|412:323|412:323|404:331|404:331|396:323|396:323|388:331|388:331|380:323|380:323|372:331|372:331|364:323|364:323|356:331|356:331|348:323|348:323|340:331|340:331|332:323|332:323|324:331|324:331|316:323|316:323|284:323,1,180
444,331,1979,6,0,B|428:323|428:323|420:331|420:331|412:323|412:323|404:331|404:331|396:323|396:323|388:331|388:331|380:323|380:323|372:331|372:331|364:323|364:323|356:331|356:331|348:323|348:323|340:331|340:331|332:323|332:323|324:331|324:331|316:323|316:323|284:323,1,180
444,331,3825,6,0,B|428:323|428:323|420:331|420:331|412:323|412:323|404:331|404:331|396:323|396:323|388:331|388:331|380:323|380:323|372:331|372:331|364:323|364:323|356:331|356:331|348:323|348:323|340:331|340:331|332:323|332:323|324:331|324:331|316:323|316:323|284:323,1,180
444,331,5671,6,0,B|428:323|428:323|420:331|420:331|412:323|412:323|404:331|404:331|396:323|396:323|388:331|388:331|380:323|380:323|372:331|372:331|364:323|364:323|356:331|356:331|348:323|348:323|340:331|340:331|332:323|332:323|324:331|324:331|316:323|316:323|308:331|308:331|300:323|300:323|292:331|292:331|284:323|284:323|276:331|276:331|268:323|268:323|260:331|260:331|252:323|252:323|244:331|244:331|236:323|236:323|228:331|228:331|220:323|220:323|212:331|212:331|204:323|204:323|196:331|196:331|188:323|188:323|180:331|180:331|172:323|172:323|164:331|164:331|156:323|156:323|148:331|148:331|140:323|140:323|132:331|132:331|124:323|124:323|116:331|116:331|108:323|108:323|100:331|100:331|92:323|92:323|84:331|84:331|76:323|76:323|68:331|68:331|52:331,1,540
56,332,7517,6,0,B|72:324|72:324|80:332|80:332|88:324|88:324|96:332|96:332|104:324|104:324|112:332|112:332|120:324|120:324|128:332|128:332|136:324|136:324|144:332|144:332|152:324|152:324|160:332|160:332|168:324|168:324|176:332|176:332|184:324|184:324|216:324,1,180
56,332,9363,6,0,B|72:324|72:324|80:332|80:332|88:324|88:324|96:332|96:332|104:324|104:324|112:332|112:332|120:324|120:324|128:332|128:332|136:324|136:324|144:332|144:332|152:324|152:324|160:332|160:332|168:324|168:324|176:332|176:332|184:324|184:324|216:324,1,180
56,332,11209,6,0,B|72:324|72:324|80:332|80:332|88:324|88:324|96:332|96:332|104:324|104:324|112:332|112:332|120:324|120:324|128:332|128:332|136:324|136:324|144:332|144:332|152:324|152:324|160:332|160:332|168:324|168:324|176:332|176:332|184:324|184:324|216:324,1,180
56,332,13056,6,0,B|72:324|72:324|80:332|80:332|88:324|88:324|96:332|96:332|104:324|104:324|112:332|112:332|120:324|120:324|128:332|128:332|136:324|136:324|144:332|144:332|152:324|152:324|160:332|160:332|168:324|168:324|176:332|176:332|184:324|184:324|192:332|192:332|200:324|200:324|208:332|208:332|216:324|216:324|224:332|224:332|232:324|232:324|240:332|240:332|248:324|248:324|256:332|256:332|264:324|264:324|272:332|272:332|280:324|280:324|288:332|288:332|296:324|296:324|304:332|304:332|312:324|312:324|320:332|320:332|328:324|328:324|336:332|336:332|344:324|344:324|352:332|352:332|360:324|360:324|368:332|368:332|376:324|376:324|384:332|384:332|392:324|392:324|400:332|400:332|408:324|408:324|416:332|416:332|424:324|424:324|432:332|432:332|448:332,1,540
480,200,14902,5,0
488,104,15132,1,0
360,72,15363,1,0
368,168,15594,1,0
256,200,15825,1,0
240,104,16056,1,0
136,64,16286,1,0
136,160,16517,1,0
32,104,16748,6,0,B|48:288,1,180
136,336,17440,1,0
232,304,17671,1,0
328,328,17902,1,0
424,312,18133,1,0
424,312,18363,1,0
328,328,18594,5,0
216,352,18825,1,0
88,264,19056,1,0
200,248,19286,1,0
272,152,19517,1,0
152,144,19748,1,0
88,40,19979,1,0
200,24,20209,1,0
336,40,20440,6,0,B|496:176,1,180
464,272,21133,2,0,B|312:144,1,180
224,192,21825,1,0
128,160,22056,1,0
40,200,22286,1,0
24,336,22517,6,0,B|136:312,3,90
184,240,23440,5,0
264,312,23671,6,0,B|360:336,3,90
416,248,24594,6,0,B|495:204,3,90
384,128,25517,6,0,B|272:88,1,90
256,192,25979,1,0
256,192,26209,6,0,B|144:152,1,90
171,161,26671,1,0
16,328,27133,6,0,B|128:368,1,90
144,264,27594,5,0
240,264,28056,1,0
336,264,28517,1,0
336,264,28979,1,0
432,264,29209,5,0
384,64,35210,5,4
384,64,35671,2,0,B|288:80,1,90,8|0
160,160,36133,2,0,B|280:176,1,90,0|0
376,232,36594,1,8
376,232,36825,1,0
376,232,36940,1,0
376,232,37056,6,0,B|264:248|264:356,2,180,0|8|0
352,328,38210,5,0
296,248,38440,1,8
368,176,38671,1,0
456,216,38902,6,0,B|480:128,1,90,0|0
288,32,39363,2,0,B|304:120,1,90,8|0
224,288,39825,2,0,B|200:184,1,90,0|0
136,64,40286,2,0,B|128:168,1,90,8|0
129,153,40633,1,0
129,153,40748,6,0,B|40:192|48:304,1,180,0|8
47,299,41440,1,0
144,256,41671,6,0,B|168:232|184:224|192:280|216:280|240:224|256:224|256:280|312:240,1,180,0|8
311,240,42594,5,4
296,136,42825,1,0
296,136,42940,1,0
296,136,43056,2,0,B|200:104,1,90,8|0
344,48,43517,2,0,B|456:88,1,90,0|0
392,272,43979,2,0,B|288:232,1,90,8|0
308,240,44325,1,0
309,241,44440,6,0,B|211:187|139:267,2,180,0|8|0
240,320,45594,5,0
232,216,45825,1,8
136,168,46056,1,0
48,224,46286,6,0,B|0:136,1,90,0|0
136,64,46748,2,0,B|240:32,1,90,8|0
368,112,47210,2,0,B|408:208,1,90,0|0
288,312,47671,2,0,B|192:336,1,90,8|0
184,288,48017,5,0
176,248,48133,1,0
168,208,48248,1,0
160,168,48363,1,0
152,128,48479,1,0
144,88,48594,1,0
144,88,49517,5,8
304,56,49979,5,0
304,56,50094,1,0
304,56,50210,2,0,B|408:80,1,90,0|8
464,176,50671,1,0
464,176,50786,1,0
464,176,50902,2,0,B|344:200,1,90,0|0
360,224,51248,1,0
344,256,51363,2,0,B|248:296,1,90,8|0
208,192,51825,5,0
208,192,51940,1,0
136,88,52171,1,0
136,88,52286,1,8
32,152,52517,1,0
104,256,52748,5,0
184,368,52979,1,0
256,240,53210,1,8
336,360,53440,1,0
448,272,53671,5,0
448,272,53786,1,0
448,272,53902,2,0,B|464:176,1,90,0|8
384,96,54363,1,0
384,96,54479,1,0
384,96,54594,2,0,B|360:216,1,90,0|0
256,224,55056,2,0,B|272:128,1,90,8|0
304,336,55517,5,0
168,344,55748,1,0
32,352,55979,2,0,B|0:168,2,180,8|0|10
280,304,57363,5,0
280,304,57479,1,0
280,304,57594,2,0,B|384:328,1,90,2|8
488,248,58056,1,0
488,248,58171,1,0
488,248,58286,2,0,B|391:220,1,90,0|0
304,96,58748,2,0,B|390:119,1,90,8|0
288,192,59210,1,0
96,168,59440,5,0
96,168,59556,1,0
96,168,59671,1,8
184,296,59902,1,0
336,264,60133,1,0
344,112,60363,1,0
200,56,60594,1,8
96,168,60825,2,0,B|0:216,1,90,0|0
256,216,61286,5,0
248,336,61517,1,8
416,280,61748,1,0
384,176,61979,1,0
304,16,62210,1,0
248,112,62440,1,8
112,64,64517,5,0
112,64,64633,1,0
112,64,64748,2,0,B|224:80,1,90,0|0
376,176,65210,2,0,B|280:160,1,90,8|0
280,192,65556,1,0
272,224,65671,2,0,B|168:248,1,90,0|0
32,368,66133,2,0,B|128:344,1,90,8|0
296,344,66594,6,0,B|392:360|424:248,1,135,0|0
408,288,67056,2,0,B|328:160,1,135,8|0
296,152,67517,5,0
216,264,67748,1,0
88,232,67979,1,8
72,96,68210,1,0
200,48,68440,5,0
280,136,68671,1,0
316,156,68786,1,0
336,192,68902,1,8
344,232,69017,1,0
332,272,69133,1,0
308,304,69248,1,0
268,316,69363,1,0
228,316,69479,1,0
192,296,69594,1,0
164,264,69710,1,0
156,224,69825,2,0,B|36:208,1,90,8|0
208,56,70286,6,0,B|416:64,2,180,0|8|0
208,56,71671,5,8
208,56,71786,1,0
208,56,71902,1,0
128,152,72133,5,0
192,232,72594,1,8
136,328,73056,2,0,B|328:352,1,180,0|8
314,350,73633,5,0
314,350,73748,1,0
464,264,73979,2,0,B|320:240,1,135,0|0
330,241,74440,5,8
400,144,74671,1,0
328,32,74902,1,0
184,64,75133,1,0
192,208,75363,1,8
280,136,75594,1,0
88,64,75825,5,0
56,88,75940,1,0
40,120,76056,1,0
32,160,76171,1,0
32,192,76286,1,0
40,224,76402,1,0
56,248,76517,1,0
80,272,76633,1,0
112,288,76748,1,0
144,288,76863,1,0
184,280,76979,1,0
216,264,77094,1,0
240,240,77209,1,0
240,128,77440,5,0
240,128,77556,1,0
240,128,77671,5,4
336,88,78133,1,0
436,128,78594,1,0
436,128,79056,1,8
424,256,79517,5,8
336,272,79979,1,8
248,288,80440,1,8
160,304,80902,1,8
92,212,81363,5,8
196,192,81825,1,8
300,172,82286,1,8
404,148,82748,1,8
412,44,83209,5,8
292,68,83671,1,8
172,92,84133,1,8
52,116,84594,1,8
52,116,84825,5,0
96,208,85286,1,0
40,280,85748,1,0
76,360,86209,1,0
160,316,86440,5,8
244,356,86902,5,8
336,356,87363,1,8
424,356,87825,1,8
512,356,88286,1,8
496,244,88748,5,8
388,244,89209,1,8
280,244,89671,1,8
172,244,90133,1,8
104,144,90594,5,8
232,144,91056,1,8
356,144,91517,1,8
484,144,91979,1,8
460,20,92440,5,8
316,24,92902,1,8
172,24,93363,1,0
28,24,93825,1,0
256,192,94286,12,0,95671
48,240,96133,5,2
128,216,96363,1,0
128,216,96479,1,2
208,240,96709,1,2
288,224,96940,1,0
288,224,97056,1,2
368,240,97286,1,2
448,224,97517,1,0
448,224,97633,1,2
440,120,97863,5,0
440,120,97979,1,2
344,136,98209,1,0
344,136,98325,1,2
248,120,98556,1,2
152,136,98786,1,0
152,136,98902,1,2
256,192,99017,12,0,99825
400,352,101671,5,4
400,352,102133,1,8
296,336,102363,1,0
176,224,102594,1,0
280,208,102825,1,0
416,104,103056,1,8
312,80,103286,1,0
312,80,103402,1,0
312,80,103517,6,0,B|184:96|168:-8,2,180,0|8|0
264,0,104671,5,0
216,96,104902,1,8
248,200,105133,1,0
328,272,105363,5,0
224,312,105594,1,0
48,192,105825,1,8
152,208,106056,1,0
344,80,106286,1,0
248,136,106517,1,0
56,16,106748,1,8
160,56,106979,1,0
160,56,107094,1,0
160,56,107209,6,0,B|72:112|104:224,1,180,0|8
100,212,107902,1,0
200,160,108133,6,0,B|232:144|248:128|256:144|272:144|280:160|288:168|296:168|304:160|312:144|336:152|352:152|360:168|368:168|376:168,1,180,0|8
370,167,109056,5,4
440,248,109286,1,0
440,248,109402,1,0
440,248,109517,2,0,B|424:344,1,90,8|0
264,192,109979,2,0,B|288:80,1,90
128,8,110440,2,0,B|112:96,1,90,8|0
111,96,110786,1,0
111,96,110902,6,0,B|112:216|-24:216,2,180,0|8|0
16,128,112056,5,0
112,200,112286,1,8
232,192,112517,1,0
216,88,112748,5,0
232,192,112979,1,0
304,344,113209,1,8
320,240,113440,1,0
384,80,113671,1,0
400,184,113902,1,0
464,344,114133,1,8
480,240,114363,1,0
480,240,114479,1,0
480,240,114594,6,0,B|512:56,2,180,0|8|0
480,240,115979,5,8
96,48,116440,5,4
96,48,116902,5,8
8,112,117133,1,0
40,216,117363,1,0
144,224,117594,1,0
184,120,117825,1,8
184,120,118286,5,4
184,120,118748,5,8
272,56,118979,1,0
352,128,119209,1,0
312,224,119440,1,0
208,216,119671,1,8
208,216,120133,5,4
208,216,120594,5,8
120,152,120825,1,0
32,216,121056,1,0
64,320,121286,1,0
176,320,121517,1,8
480,288,121979,6,0,B|376:312,1,90,4|0
104,328,122440,2,0,B|56:232,1,90,8|0
128,40,122902,2,0,B|232:8,1,90
416,96,123363,2,0,B|464:200,1,90,8|0
480,280,123825,5,4
480,280,124286,5,8
376,292,124517,1,0
272,304,124748,1,0
168,312,124979,1,0
80,248,125209,1,8
80,248,125671,5,4
80,248,126133,5,8
184,224,126363,1,0
288,200,126594,1,0
392,168,126825,1,0
440,72,127056,1,8
440,72,127517,5,4
440,72,127979,5,8
336,96,128209,1,0
232,120,128440,1,0
128,144,128671,1,0
48,72,128902,1,8
92,304,129363,5,0
136,300,129479,1,0
180,304,129594,1,0
224,300,129709,1,0
256,300,129825,2,0,B|440:300,1,180
436,300,130748,5,8
304,112,130979,6,0,B|192:112,2,90
368,200,131671,1,8
320,296,131902,5,0
216,272,132133,1,0
112,296,132363,1,0
8,272,132594,1,8
112,296,132825,1,0
216,272,133056,2,0,B|216:160,2,90,0|0|8
320,296,133748,5,0
440,268,133979,1,0
480,144,134209,1,0
408,40,134440,1,8
288,32,134671,1,0
224,128,134902,2,0,B|128:152,2,90,0|0|8
264,224,135594,5,0
400,200,135825,1,0
424,336,136056,1,0
288,360,136286,1,8
264,224,136517,1,0
400,200,136748,5,0
328,136,137209,1,8
296,48,137671,1,0
208,24,138133,1,8
80,320,138594,6,0,B|184:320,2,90,0|0|8
48,216,139286,1,0
72,112,139517,1,0
176,88,139748,1,0
272,136,139979,1,8
288,240,140209,5,0
176,88,140440,1,0
368,72,140671,1,0
272,136,140902,1,8
288,240,141133,5,0
336,336,141363,1,0
440,328,141594,1,0
472,224,141825,1,8
376,168,142056,1,0
288,240,142286,5,0
152,328,142633,1,0
48,208,142979,1,0
168,224,143209,5,0
304,136,143556,1,0
408,264,143902,1,0
288,248,144133,5,0
56,64,145748,6,0,B|72:152,1,90
192,296,146209,2,0,B|200:207,1,90,0|8
312,56,146671,2,0,B|328:152,1,90
432,304,147133,2,0,B|448:200,1,90,0|8
464,72,147594,5,0
360,136,147825,1,0
248,80,148056,1,0
136,136,148286,1,8
24,72,148517,1,0
136,136,148748,1,0
136,136,149209,6,0,B|224:280,1,135,8|0
224,272,149671,5,0
344,288,149902,1,0
480,184,150133,2,0,B|390:171,1,90,8|0
272,48,150594,2,0,B|384:64,1,90
224,152,151056,2,0,B|128:136,1,90,8|0
112,132,151402,1,0
92,128,151517,5,0
56,232,151748,1,0
224,340,151979,1,0
204,232,152209,1,0
404,112,152440,2,0,B|316:276,1,180
204,232,153133,1,0
220,124,153363,6,0,B|300:92,1,45
432,156,153825,2,0,B|480:136,1,45,8|0
332,288,154286,2,0,B|140:368,1,180,0|8
352,64,155209,6,0,B|288:40,1,45
216,104,155556,2,0,B|164:84,1,45,0|8
68,104,155902,5,0
92,208,156133,1,0
352,64,156594,1,8
424,336,157056,6,0,B|488:320,1,45
264,320,157517,6,0,B|328:304,1,45
112,312,157979,6,0,B|176:296,1,45
16,256,158440,6,0,B|16:192,1,45
96,64,160286,5,8
96,64,160748,5,8
192,24,161209,1,8
280,72,161671,1,8
368,32,162133,1,8
448,112,162594,5,8
312,80,163056,1,8
192,120,163517,1,8
64,88,163979,1,8
0,176,164440,5,8
152,120,164902,1,8
288,192,165363,1,8
416,128,165825,1,8
416,128,166056,5,0
488,192,166517,1,0
416,256,166979,1,0
496,312,167440,1,0
416,360,167671,5,8
328,320,168133,5,8
216,320,168594,1,8
104,320,169056,1,8
0,320,169517,1,8
40,232,169979,5,8
168,232,170440,1,8
296,232,170902,1,8
416,232,171363,1,8
472,144,171825,5,8
328,144,172286,1,8
184,144,172748,1,8
40,144,173210,1,8
16,40,173671,5,8
180,40,174133,1,8
340,40,174594,1,8
504,40,175056,1,8
256,192,175517,12,0,176902
216,120,177363,5,2
320,128,177594,1,0
320,128,177710,1,2
344,224,177940,1,2
256,272,178171,1,0
256,272,178286,1,2
176,208,178517,1,2
216,120,178748,1,0
216,120,178863,1,2
352,80,179094,5,0
352,80,179210,1,2
380,260,179440,1,0
380,260,179556,1,2
192,296,179786,1,2
156,108,180017,1,0
156,108,180133,1,2
256,192,180248,12,0,181056
112,296,182902,5,4
112,296,183363,1,8
224,336,183594,1,0
120,168,183825,1,0
0,192,184056,1,0
160,48,184286,1,8
160,48,184517,1,0
160,48,184633,1,0
160,48,184748,6,0,B|280:48|304:176,2,180,0|8|0
192,152,185902,5,0
256,64,186133,1,8
360,48,186363,1,0
456,96,186594,6,0,B|448:208,1,90
312,344,187056,2,0,B|296:232,1,90,8|0
200,104,187517,2,0,B|192:216,1,90
128,328,187979,2,0,B|112:232,1,90,8|0
113,239,188325,1,0
113,239,188440,6,0,B|32:184|48:80,1,180,0|8
47,82,189133,1,0
144,144,189363,6,0,B|160:128|176:128|184:168|208:160|232:96|248:104|256:144|280:128|280:168|288:144|312:136|336:136,1,180,0|8
315,138,190286,5,4
304,256,190517,1,0
304,256,190633,1,0
304,256,190748,2,0,B|408:272,1,90,8|0
224,344,191210,2,0,B|112:328,1,90
32,208,191671,2,0,B|120:224,1,90,8|0
120,224,192017,1,0
120,224,192133,6,0,B|136:120|248:104,2,180,0|8|0
216,208,193286,5,0
152,120,193517,1,8
36,124,193748,1,0
72,352,193979,5,0
104,236,194210,1,0
176,40,194440,1,8
208,156,194671,1,0
276,352,194902,1,0
308,236,195133,1,0
380,40,195363,1,8
412,156,195594,1,0
412,156,195710,1,0
412,156,195825,6,0,B|476:340,2,180,0|8|0
412,156,197210,5,8
48,320,197671,5,4
48,320,198133,5,8
152,296,198363,1,0
256,328,198594,1,0
360,296,198825,1,0
464,328,199056,1,8
464,328,199517,5,4
464,328,199979,5,8
360,296,200210,1,0
256,328,200440,1,0
152,296,200671,1,0
48,328,200902,1,8
48,328,201363,5,4
48,328,201825,5,8
152,296,202056,1,0
256,328,202286,1,0
360,296,202517,1,0
464,328,202748,1,8
480,112,202979,5,0
480,112,203094,1,0
480,112,203210,2,0,B|416:16,1,90,0|0
40,240,203671,2,0,B|104:344,1,90,8|0
360,336,204133,2,0,B|456:272,1,90,0|0
152,48,204594,2,0,B|56:104,1,90,8|0
24,192,205056,5,4
24,192,205517,5,8
56,296,205748,1,0
152,336,205979,1,0
264,336,206210,1,0
344,264,206440,1,8
344,264,206671,5,0
344,264,206786,1,0
344,264,206902,1,4
344,264,207363,5,8
240,248,207594,1,0
184,160,207825,1,0
200,56,208056,1,0
296,16,208286,1,8
296,16,208517,5,0
296,16,208633,1,0
296,16,208748,1,4
296,16,209210,5,8
368,96,209440,1,0
360,200,209671,1,0
272,264,209902,1,0
168,248,210133,1,8
80,76,210594,5,0
124,64,210710,1,0
168,68,210825,1,0
212,56,210940,1,0
244,60,211056,2,0,B|440:60,1,180
424,60,211979,5,8
256,336,212440,6,0,B|160:312,1,90,4|0
72,336,212902,1,8
96,48,213248,1,0
96,48,213363,1,0
192,80,213594,1,0
288,72,213825,1,8
384,88,214056,1,0
384,88,214171,1,0
384,88,214286,2,0,B|384:208,1,90
344,272,214748,5,8
256,272,215210,1,0
168,272,215671,1,8
80,272,215902,5,0
80,272,216017,1,0
80,272,216133,2,0,B|48:176,1,90,0|0
72,88,216594,1,8
440,56,216940,1,0
440,56,217056,1,0
408,152,217286,1,0
408,248,217517,1,8
392,344,217748,1,0
392,344,217863,1,0
392,344,217979,2,0,B|280:304,1,90
216,264,218440,5,8
240,152,218902,1,0
216,40,219363,1,8
216,40,219825,6,0,B|336:40,1,90,4|0
400,64,220286,1,8
296,320,220633,1,0
296,320,220748,1,0
200,288,220979,1,0
104,288,221210,1,8
8,272,221440,1,0
8,272,221556,1,0
8,272,221671,2,0,B|32:160,1,90
40,88,222133,5,8
240,112,222594,1,0
440,136,223056,1,8
440,136,223517,6,0,B|464:240,1,90
432,320,223979,1,8
88,48,224325,1,0
88,48,224440,1,0
56,144,224671,1,0
80,240,224902,1,8
48,336,225133,1,0
48,336,225248,1,0
48,336,225363,5,0
