osu file format v9

[General]
AudioFilename: 02 Blue.mp3
AudioLeadIn: 0
PreviewTime: 21962
Countdown: 0
SampleSet: Soft
StackLeniency: 0.7
Mode: 0
LetterboxInBreaks: 1

[Editor]
Bookmarks: 7783,38503,53863,69223,84583,99943,115303,130663,146023,161383,192103,195943,211303,226663
DistanceSpacing: 0.8
BeatDivisor: 4
GridSize: 8

[Metadata]
Title:Blue
Artist:BIGBANG
Creator:Lissette
Version:Sleeping
Source:
Tags:alive kpop big bang mini album G-Dragon Taeyang T.O.P. Daesung Seungri

[Difficulty]
HPDrainRate:2
CircleSize:3
OverallDifficulty:2
ApproachRate:2
SliderMultiplier:0.8
SliderTickRate:1

[Events]
//Background and Video events
0,0,"BIGBANG_BLUE_FULL-HD.avi_000106231 - Copy.jpg"
//Break Periods
2,115522,129122
2,192321,194402
//Storyboard Layer 0 (Background)
//Storyboard Layer 1 (Fail)
//Storyboard Layer 2 (Pass)
//Storyboard Layer 3 (Foreground)
//Storyboard Sound Samples
//Background Colour Transformations
3,100,163,162,255

[TimingPoints]
122,480,4,2,1,50,1,0
23162,-100,4,2,1,50,0,1
36362,-100,4,2,1,40,0,0
38522,-100,4,2,1,35,0,0
52073,-100,4,2,1,40,0,0
99962,-100,4,2,1,50,0,1
115322,-100,4,2,1,50,0,0
176513,-133.333333333333,4,2,1,50,0,0
183482,-133.333333333333,4,2,1,30,0,0
183962,-133.333333333333,4,2,1,50,0,0
195962,-100,4,2,1,50,0,1
211082,-100,4,2,1,50,0,0
211322,-100,4,2,1,50,0,1
226682,-100,4,2,1,50,0,0
226802,-100,4,2,1,5,0,0

[Colours]
Combo1 : 255,255,255
Combo2 : 108,182,255
Combo3 : 255,255,255
Combo4 : 0,64,128

[HitObjects]
432,72,7802,2,0,B|456:168|384:224,1,160,2|0
280,160,9722,2,0,B|200:208|216:304,1,160,2|0
344,312,11642,6,0,B|480:296,2,120,2|0|0
288,280,13562,2,0,B|112:296,2,160,2|0|2
304,216,15962,6,0,B|392:192|384:80,1,160
320,80,17402,2,0,B|192:80,1,120,2|0
64,160,19322,6,0,B|112:224|216:200,1,160,2|0
328,144,21242,2,0,B|280:80|176:104,1,160,2|0
56,104,23162,6,0,B|-8:168|48:256,2,160,4|0|0
112,128,25562,1,8
176,120,26042,5,0
240,136,26522,1,8
304,128,27002,2,0,B|336:168|312:216,1,80,0|8
344,264,27962,5,0
328,328,28442,1,8
264,344,28922,2,0,B|176:352,3,80,0|8|0|8
136,312,30842,6,0,B|64:240|136:160,2,160,4|0|0
184,272,33242,1,8
248,256,33722,5,0
312,264,34202,1,8
368,240,34682,2,0,B|456:264,1,80,0|8
480,208,35642,5,0
472,144,36122,1,8
456,80,36602,6,0,B|288:80,2,160,0|0|8
496,200,39482,5,8
456,320,40442,1,8
336,280,41402,1,8
376,160,42362,1,8
264,104,43322,5,8
208,216,44282,2,0,B|48:216,2,160,8|2|8
128,320,47162,5,8
48,216,48122,1,8
112,104,49082,1,8
200,200,50042,1,8
328,176,51002,5,8
448,224,51962,1,8
456,288,52442,2,0,B|408:288|384:336,1,80,0|0
328,328,53402,1,0
264,312,53882,6,0,B|168:312,1,80,4|8
88,224,55322,1,8
88,160,55802,2,0,B|184:160,1,80,0|8
256,64,57242,5,8
320,48,57722,2,0,B|400:32,1,80,0|8
456,144,59162,5,8
416,192,59642,1,0
376,240,60122,1,8
328,288,60602,2,0,B|240:288,1,80,0|8
184,288,61562,5,0
184,224,62042,2,0,B|24:224,2,160,8|8|8
208,168,64442,1,0
240,112,64922,6,0,B|416:112,2,160,8|8|8
184,80,67322,1,8
72,144,68282,1,8
120,264,69242,5,4
176,296,69722,2,0,B|352:312,2,160,8|8|8
192,232,72122,5,0
216,176,72602,2,0,B|48:160,1,160,8|8
96,40,74522,2,0,B|255:55,1,160,8|8
320,64,75962,5,0
368,104,76442,1,8
408,152,76922,2,0,B|408:240,1,80,0|8
408,296,77882,5,0
344,288,78362,1,8
288,320,78842,2,0,B|248:352|208:312,1,80,0|8
152,304,79802,5,0
144,240,80282,2,0,B|304:200,2,160,8|8|8
128,176,82682,6,0,B|40:200,4,80,8|8|8|8|4
176,136,85082,6,0,B|240:216|160:288,2,160,8|8|8
296,88,87962,5,8
360,112,88442,2,0,B|368:16,2,80,0|8|0
416,144,89882,2,0,B|416:248|328:256,2,160,8|8|8
352,136,92282,5,4
288,128,92762,2,0,B|112:136,2,160,8|8|8
400,192,95642,5,8
368,248,96122,2,0,B|328:240|304:288,1,80,0|8
200,216,97562,1,8
232,160,98042,2,0,B|240:112|200:80,1,80,0|8
160,48,99002,2,0,B|128:24|72:40,1,80,0|8
32,72,99962,6,0,B|-32:136|16:224,2,160,4|0|0
88,112,102362,1,8
152,96,102842,5,0
216,120,103322,1,8
272,88,103802,2,0,B|320:88|336:128,1,80,0|8
368,184,104762,5,0
392,240,105242,1,8
416,296,105722,2,0,B|320:296,3,80,0|8|0|8
272,296,107642,6,0,B|200:224|264:136,2,160,4|0|0
320,256,110042,1,8
384,264,110522,5,0
440,232,111002,1,8
504,240,111482,2,0,B|488:160,1,80,0|8
456,104,112442,5,0
400,72,112922,1,8
336,64,113402,2,0,B|160:64,2,160,8|8|8
320,56,130682,5,4
384,64,131162,1,8
432,104,131642,2,0,B|464:144|448:192,1,80,0|8
448,240,132602,2,0,B|448:288|408:320,1,80,0|8
352,304,133562,5,0
296,272,134042,1,8
280,208,134522,2,0,B|280:160|232:144,1,80,0|8
192,104,135482,5,0
128,112,135962,1,8
88,160,136442,2,0,B|88:256,3,80,0|8|0|8
208,280,138842,5,8
264,312,139322,2,0,B|320:320|344:280,1,80,0|8
376,240,140282,2,0,B|400:200|368:152,1,80,0|8
272,88,141722,5,8
216,120,142202,2,0,B|216:168|160:184,1,80,0|8
128,224,143162,5,0
112,288,143642,1,8
152,336,144122,2,0,B|328:320,2,160,8|8|4
160,272,146522,6,0,B|0:288,2,160,8|8|8
176,208,148922,1,0
192,144,149402,6,0,B|32:160,1,160,8|8
48,288,151322,2,0,B|208:272,1,160,8|8
272,264,152762,5,0
320,216,153242,1,8
296,160,153722,2,0,B|264:136|280:80,1,80,0|8
176,160,155162,5,8
112,168,155642,2,0,B|128:112|80:88,1,80,0|8
128,40,156602,5,0
192,56,157082,2,0,B|272:80|352:32,2,160,8|8|8
192,120,159482,6,0,B|192:208,4,80,8|8|8|8|4
256,120,161882,6,0,B|344:80|408:160,2,160,8|8|8
296,240,164762,5,8
256,288,165242,2,0,B|200:360,2,80,0|8|0
216,240,166682,2,0,B|256:152|176:88,1,160,8|8
120,96,168122,6,0,B|24:96,2,80,0|8|4
136,160,169562,5,8
120,224,170042,1,0
144,280,170522,2,0,B|216:320|312:288,1,160,8|8
424,256,172442,5,8
440,192,172922,2,0,B|448:144|416:104,2,80,0|8|0
376,184,174362,1,8
312,192,174842,1,0
248,184,175322,1,8
72,88,176762,6,0,B|264:72,1,179.999994635582,4|0
264,152,178682,2,0,B|72:168,1,179.999994635582,0|0
96,248,180602,2,0,B|280:232,1,179.999994635582
336,288,182522,6,0,B|408:304|432:224,1,119.999996423721,0|0
392,120,184442,6,0,B|312:64|208:112,1,179.999994635582,4|0
216,200,186362,2,0,B|304:136|384:208,1,179.999994635582,0|0
336,272,188282,6,0,B|368:296|424:288|448:248,4,119.999996423721,0|0|2|0|0
416,272,195962,6,0,B|464:192|408:112,2,160,4|0|0
352,248,198362,1,8
288,232,198842,5,0
232,264,199322,1,8
176,232,199802,2,0,B|160:200|96:200,1,80,0|8
64,152,200762,5,0
72,88,201242,1,8
128,56,201722,2,0,B|216:56,3,80,0|8|0|8
248,104,203642,6,0,B|176:176|264:256,2,160,4|0|0
312,120,206042,1,8
376,136,206522,5,0
440,120,207002,1,8
488,160,207482,2,0,B|432:240,1,80,0|8
400,272,208442,5,0
352,312,208922,1,8
288,312,209402,2,0,B|192:304,3,80,0|8|0|8
144,296,211322,6,0,B|80:224|152:136,2,160,4|0|0
192,256,213722,1,8
248,232,214202,5,0
312,248,214682,1,8
368,224,215162,2,0,B|392:256|440:248,1,80,0|8
472,192,216122,5,0
464,128,216602,1,8
416,88,217082,2,0,B|320:96,3,80,0|8|0|8
272,104,219002,6,0,B|232:200|328:248,2,160,4|0|0
336,88,221402,1,8
392,120,221882,5,0
456,104,222362,1,8
512,136,222842,2,0,B|488:216,1,80,0|8
488,280,223802,5,0
432,312,224282,1,8
368,312,224762,2,0,B|272:320,4,80,0|8|0|8|0
256,192,226922,12,0,228602
