osu file format v9

[General]
AudioFilename: 04 Bad Boy.mp3
AudioLeadIn: 0
PreviewTime: 63800
Countdown: 0
SampleSet: Soft
StackLeniency: 0.7
Mode: 0
LetterboxInBreaks: 1

[Editor]
Bookmarks: 25600,51200,89600,102400,153620,204800,217600,230400
DistanceSpacing: 1.5
BeatDivisor: 4
GridSize: 8

[Metadata]
Title:Bad Boy
Artist:BIGBANG
Creator:Lizbeth
Version:Walking
Source:
Tags:Alive kpop Big Bang mini album G-Dragon Taeyang T.O.P. Daesung Seungri

[Difficulty]
HPDrainRate:5
CircleSize:3
OverallDifficulty:5
ApproachRate:5
SliderMultiplier:1.3
SliderTickRate:1

[Events]
//Background and Video events
0,0,"astomoe.JPG"
//Break Periods
2,89812,101212
//Storyboard Layer 0 (Background)
//Storyboard Layer 1 (Fail)
//Storyboard Layer 2 (Pass)
//Storyboard Layer 3 (Foreground)
//Storyboard Sound Samples
//Background Colour Transformations
3,100,163,162,255

[TimingPoints]
12,800,4,2,1,45,1,0
62412,-133.333333333333,4,2,1,45,0,0
64012,-100,4,2,1,45,0,1
75612,-100,4,2,1,45,0,0
83012,-100,4,2,0,45,0,0
88612,-100,4,2,1,45,0,0
89012,-100,4,2,0,45,0,0
89412,-100,4,2,0,30,0,0
89812,-100,4,2,1,45,0,0
128012,-100,4,2,1,45,0,1
139612,-100,4,2,1,45,0,0
147012,-100,4,2,0,45,0,0
152612,-100,4,2,1,45,0,0
153012,-100,4,2,0,45,0,0
153412,-100,4,2,0,30,0,0
178212,-100,4,2,1,30,0,0
179212,-100,4,2,1,45,0,1
190812,-100,4,2,1,45,0,0
198212,-100,4,2,0,45,0,0
203812,-100,4,2,1,45,0,0
204212,-100,4,2,0,45,0,0
204612,-100,4,2,1,45,0,0
208212,-100,4,2,1,40,0,0
208612,-100,4,2,1,35,0,0
209012,-100,4,2,1,30,0,0
211012,-100,4,2,1,45,0,0
214612,-100,4,2,1,40,0,0
215012,-100,4,2,1,35,0,0
215412,-100,4,2,1,30,0,0
217412,-100,4,2,1,45,0,0
221012,-100,4,2,1,40,0,0
221412,-100,4,2,1,35,0,0
221812,-100,4,2,1,30,0,0
223812,-100,4,2,1,45,0,0
227412,-100,4,2,1,30,0,0

[Colours]
Combo1 : 255,255,255
Combo2 : 217,0,0
Combo3 : 255,255,255
Combo4 : 255,128,128

[HitObjects]
48,128,12812,1,6
144,104,13212,1,0
240,80,13612,1,2
336,56,14012,1,0
336,56,14212,1,2
336,56,14412,5,2
376,144,14812,1,0
416,232,15212,1,10
456,320,15612,1,0
456,320,15812,1,0
456,320,16012,5,2
360,336,16412,1,0
264,352,16812,1,10
168,368,17212,1,0
168,368,17412,1,2
168,368,17612,6,0,B|136:288,1,65,2|0
224,248,18412,2,0,B|192:176,1,65,10|0
160,96,19212,5,2
256,96,19612,1,0
352,96,20012,1,10
448,96,20412,1,0
448,96,20612,1,2
448,96,20812,5,2
400,184,21212,1,0
352,264,21612,1,10
288,336,22012,1,0
288,336,22212,1,0
288,336,22412,5,2
208,280,22812,1,0
136,216,23212,1,10
72,144,23612,5,0
128,64,24012,1,2
224,56,24412,1,2
288,128,24812,1,10
432,256,25612,6,0,B|408:328,1,65,2|0
312,320,26412,2,0,B|336:256,1,65,10|0
256,208,27212,2,0,B|280:152|360:160,1,97.5,2|2
360,120,28012,6,0,B|400:40,1,65,10|0
296,40,28812,2,0,B|264:104,1,65,2|0
176,72,29612,2,0,B|207:15,1,65,10|0
112,16,30412,2,0,B|64:64|104:128,1,97.5,2|2
120,144,31212,6,0,B|160:152|168:208,1,65,10|0
208,272,32012,1,2
296,304,32412,1,0
384,272,32812,2,0,B|376:192,1,65,10|0
456,136,33612,2,0,B|464:216,1,65,2|0
488,296,34412,5,10
392,320,34812,1,0
296,336,35212,2,0,B|216:352,1,65,2|0
168,272,36012,2,0,B|231:259,1,65,10|0
168,184,36812,2,0,B|88:200,1,65,2|0
104,96,37612,5,10
184,32,38012,1,0
280,56,38412,2,0,B|360:24,1,65,2|0
408,104,39212,2,0,B|347:128,1,65,10|0
360,224,40012,2,0,B|420:199,1,65,2|0
488,272,40812,2,0,B|427:296,1,65,10|0
336,320,41612,6,0,B|280:264,1,65,2|0
200,312,42412,2,0,B|200:240,1,65,10|0
104,232,43212,2,0,B|152:168,1,65,2|0
104,88,44012,2,0,B|184:88,1,65,10|0
264,88,44812,6,0,B|352:88|384:168,1,130,2|10
304,216,46012,1,0
240,288,46412,2,0,B|256:344|336:344,1,97.5,2|2
313,342,47212,5,10
400,304,47612,1,0
488,256,48012,2,0,B|464:176,1,65,2|0
368,192,48812,2,0,B|344:112,1,65,10|0
248,128,49612,2,0,B|224:48,1,65,2|0
136,80,50412,5,10
64,144,50812,1,0
48,240,51212,2,0,B|32:304|80:344,1,97.5,2|2
67,331,52012,5,10
160,304,52412,1,0
252,272,52812,2,0,B|356:224,1,97.5,2|2
340,231,53612,5,10
396,152,54012,1,0
352,64,54412,2,0,B|304:24|240:48,1,97.5,2|2
260,41,55212,5,10
224,136,55612,1,0
184,224,56012,2,0,B|152:304,1,65,2|0
224,360,56812,2,0,B|248:299,1,65,10|0
344,272,57612,5,2
424,216,58012,1,0
424,120,58412,2,0,B|432:80|400:56,1,65,10|0
320,112,59212,2,0,B|320:64|264:48,1,65,2|0
216,128,60012,6,0,B|256:208,1,65,10|0
152,216,60812,2,0,B|192:296,1,65,2|0
272,312,61612,6,0,B|296:344|344:312,1,65,10|0
328,232,62412,2,0,B|392:184|488:232,1,146.24999564141,2|0
480,128,64012,6,0,B|496:88|480:56,1,65,6|0
392,96,64812,2,0,B|376:56|336:56,1,65,10|0
304,144,65612,2,0,B|256:144|248:192,1,65,2|0
328,240,66412,2,0,B|320:288|352:304,1,65,10|0
256,344,67212,6,0,B|184:368,1,65,2|0
200,264,68012,2,0,B|128:288,1,65,10|0
144,184,68812,2,0,B|72:208,1,65,2|0
80,104,69612,2,0,B|8:128,1,65,10|0
32,224,70412,6,0,B|24:272|64:296,1,65,2|0
136,248,71212,2,0,B|144:304|224:312,1,97.5,10|2
248,296,72012,6,0,B|336:280,1,65,2|0
288,192,72812,2,0,B|392:168,1,97.5,10|0
424,136,73612,6,0,B|416:56,1,65,2|0
320,48,74412,2,0,B|326:112,1,65,10|0
232,96,75212,2,0,B|224:16,1,65,2|0
128,48,76012,5,10
96,136,76412,1,0
64,232,76812,2,0,B|24:352,1,97.5,2|2
33,324,77612,5,10
128,344,78012,1,0
224,328,78412,2,0,B|280:320|304:264,1,97.5,2|2
299,273,79212,5,10
360,192,79612,1,0
416,112,80012,2,0,B|472:16,1,97.5,2|2
465,27,80812,5,10
512,112,81212,1,0
496,208,81612,2,2,B|488:272|432:288,1,97.5,2|0
443,284,82412,1,10
352,312,82812,5,0
352,312,83012,2,0,B|264:328,5,65,0|2|0|2|0|2
256,240,86012,5,0
256,240,86212,2,0,B|176:256,5,65,0|2|0|2|0|2
48,280,88812,5,10
56,232,89012,1,0
64,184,89212,1,2
80,88,89612,5,4
104,256,102412,6,0,B|104:304|152:320,1,65,2|0
216,256,103212,2,0,B|248:280|296:256,1,65,10|0
256,168,104012,2,0,B|288:32,1,130,2|10
285,41,105212,1,0
192,48,105612,5,2
128,120,106012,1,0
184,200,106412,1,10
112,264,106812,1,0
192,320,107212,6,0,B|256:360,1,65,2|0
304,280,108012,2,0,B|384:328,1,65,10|0
456,304,108812,5,2
424,216,109212,1,0
392,128,109612,1,10
352,40,110012,1,0
352,40,110412,5,2
312,128,110812,1,0
272,216,111212,1,10
232,304,111612,1,0
136,304,112012,6,0,B|56:304,1,65,2|0
104,216,112812,2,0,B|184:216,1,65,10|0
128,128,113612,2,0,B|40:128,1,65,2|0
96,40,114412,2,0,B|176:40,1,65,10|0
256,32,115212,6,0,B|244:71|282:100,2,65,2|0|10
348,62,116412,1,0
432,104,116812,2,0,B|409:146|362:148,2,65,2|0|10
472,192,118012,5,0
384,232,118412,2,0,B|344:232|320:280,2,65,2|0|2
392,328,119612,1,0
296,360,120012,2,0,B|256:368|224:336,1,65,2|0
240,248,120812,2,0,B|218:225|178:233,1,65,10|0
88,264,121612,5,2
96,168,122012,2,0,B|112:136|152:128,1,65,0|10
240,128,122812,2,0,B|273:121|289:89,1,65,0|2
184,256,124012,6,0,B|200:224|240:216,1,65,10|0
328,200,124812,1,2
216,360,125612,6,2,B|232:328|272:320,1,65,10|0
360,296,126412,5,2
416,216,126812,1,2
424,120,127212,2,0,B|368:128|320:80,1,97.5,10|0
312,48,128012,6,0,B|224:16,1,65,6|0
176,88,128812,2,0,B|237:110,1,65,10|0
160,176,129612,2,0,B|98:153,1,65,2|0
0,152,130412,2,0,B|-16:184|17:212,1,65,10|0
88,272,131212,6,0,B|88:320|144:336,1,65,2|0
192,256,132012,2,0,B|168:224|192:184,1,65,10|0
280,216,132812,2,0,B|272:256|336:280,1,65,2|0
384,200,133612,2,0,B|448:200,1,65,10|0
464,104,134412,6,0,B|432:40,1,65,2|0
376,120,135212,2,0,B|329:34,1,97.5,10|2
280,40,136012,6,0,B|232:40|216:80,1,65,2|0
280,144,136812,2,0,B|224:168|224:248,1,97.5,10|0
264,256,137612,6,0,B|288:328,1,65,2|0
184,304,138412,2,0,B|160:368,1,65,10|0
80,312,139212,2,0,B|8:344,1,65,2|0
8,240,140012,5,10
24,144,140412,1,0
96,80,140812,2,0,B|144:48|208:72,1,97.5,2|2
224,104,141612,6,0,B|248:184,1,65,10|0
328,120,142412,2,0,B|368:240,1,97.5,2|2
312,232,143212,5,10
216,264,143612,1,0
168,352,144012,2,0,B|112:376|56:336,1,97.5,2|2
64,296,144812,6,0,B|56:224,1,65,10|0
152,208,145612,2,0,B|136:88,1,97.5,2|0
139,111,146412,1,10
232,112,146812,5,0
232,112,147012,2,0,B|248:72|304:72,5,65,0|2|0|2|0|2
312,176,150012,5,0
312,176,150212,2,0,B|328:136|384:136,5,65,0|2|0|2|0|2
440,264,152812,5,10
400,296,153012,1,0
360,328,153212,1,2
264,312,153612,6,0,B|208:344|128:320,1,130,2|0
208,144,155212,2,0,B|264:112|344:136,1,130,2|0
424,304,156812,5,2
288,336,157612,1,0
160,288,158412,1,0
24,320,159212,1,0
56,128,160012,6,0,B|104:72|192:64,1,130,2|0
256,240,161612,2,0,B|319:235|367:179,1,130,2|0
504,40,163212,5,2
368,72,164012,1,0
240,24,164812,1,0
104,56,165612,1,0
88,248,166412,6,0,B|120:320|208:344,1,130,2|0
288,168,168012,2,0,B|352:184|379:255,1,130,2|0
208,344,169612,5,2
112,256,170412,1,0
136,120,171212,1,0
264,56,172012,1,0
440,136,172812,6,0,B|472:216|408:280,1,130,2|0
240,312,174412,2,0,B|217:235|265:179,1,130,2|0
408,64,176012,1,2
408,64,176412,5,0
288,88,177212,1,0
160,120,178012,1,0
160,120,178412,6,0,B|160:184,1,65,2|2
104,264,179212,6,0,B|96:312|144:328,1,65,6|0
208,264,180012,2,0,B|224:296|264:288,1,65,10|0
296,200,180812,2,0,B|336:216|360:184,1,65,2|0
328,96,181612,2,0,B|344:32,1,65,10|0
248,40,182412,6,0,B|168:48,1,65,2|0
208,144,183212,2,0,B|144:184,1,65,10|0
232,232,184012,2,0,B|200:296,1,65,2|0
296,304,184812,2,0,B|288:352|350:353,1,65,10|0
416,320,185612,5,2
472,240,186012,1,0
464,144,186412,2,0,B|448:96|408:80,1,65,10|0
336,112,187212,5,2
240,136,187612,1,0
144,160,188012,2,0,B|56:184,1,65,10|0
48,272,188812,6,0,B|40:312|64:352,1,65,2|0
144,296,189612,2,0,B|136:336|184:360,1,65,10|0
232,280,190412,2,0,B|248:312|312:304,1,65,2|0
384,312,191212,6,0,B|376:264|416:232,1,65,2|0
456,176,192012,2,0,B|496:136|488:64,1,97.5,2|2
448,56,192812,6,0,B|368:56,1,65,10|0
296,96,193612,2,0,B|184:96,1,97.5,2|2
160,128,194412,6,0,B|160:168|192:192,1,65,10|0
264,240,195212,2,0,B|320:264|376:232,1,97.5,2|2
408,224,196012,6,0,B|368:168,1,65,10|0
280,136,196812,2,0,B|216:48,1,97.5,2|2
222,57,197612,1,10
136,104,198012,5,0
136,104,198212,2,0,B|88:168,5,65,0|2|0|2|0|2
176,208,201212,5,0
176,208,201412,2,0,B|128:272,5,65,0|2|0|2|0|2
256,352,204012,5,10
280,312,204212,1,0
304,272,204412,1,2
387,300,204812,6,0,B|432:240,1,65,2|2
384,160,205612,2,0,B|345:212,1,65,10|2
296,128,206412,2,0,B|334:75,1,65,2|2
240,64,207212,2,0,B|200:88|216:144,1,65,10|0
152,192,208012,5,2
168,288,208412,1,0
248,232,208812,1,10
272,328,209212,1,0
368,320,209612,5,2
424,240,210012,2,0,B|392:232|376:192,2,65,0|10|0
464,152,211212,6,0,B|496:80,1,65,6|0
392,112,212012,2,0,B|424:32,1,65,2|0
320,72,212812,2,0,B|344:8,1,65,2|0
248,24,213612,2,0,B|224:64|248:104,1,65,10|0
264,184,214412,5,2
304,272,214812,1,0
208,264,215212,1,10
168,176,215612,1,0
112,96,216012,5,2
64,176,216412,2,0,B|96:200|88:256,2,65,0|10|0
128,104,217612,6,0,B|144:64|200:48,1,65,2|2
224,136,218412,2,0,B|256:112|296:128,1,65,10|0
296,224,219212,2,0,B|336:224|360:264,1,65,2|0
280,320,220012,2,0,B|208:320,1,65,10|0
120,304,220812,5,6
176,224,221212,1,0
80,192,221612,1,2
136,112,222012,1,0
232,88,222412,5,2
304,152,222812,2,0,B|344:88,2,65,0|10|0
400,184,224012,6,0,B|392:272,1,65,2|0
296,232,224812,2,0,B|264:296,1,65,10|0
192,232,225612,2,0,B|120:272,1,65,2|0
96,176,226412,2,0,B|64:200|16:176,1,65,10|0
56,88,227212,5,2
152,72,227612,2,0,B|192:88|216:48,2,65,0|10|0
256,192,228612,12,2,230012
