osu file format v5

[General]
AudioFilename: 09. Eternity.mp3
AudioLeadIn: 761
PreviewTime: -1
Countdown: 0
SampleSet: Soft
StackLeniency: 0.7
Mode: 0
LetterboxInBreaks: 1

[Metadata]
Title:Forever
Artist:BEXTER
Creator:vvvf1000
Version:HARD Style
Source:Djmax CE
Tags:

[Difficulty]
HPDrainRate:5
CircleSize:5
OverallDifficulty:6
SliderMultiplier:1.6
SliderTickRate:2

[Events]
//Background and Video events
0,0,"00000v.jpg"
//Break Periods
//Storyboard Layer 0 (Background)
//Storyboard Layer 1 (Failing)
//Storyboard Layer 2 (Passing)
//Storyboard Layer 3 (Foreground)
//Storyboard Sound Samples
//Background Colour Transformations
3,100,255,255,255

[TimingPoints]
9352,526.315789473684,4,2,0,100,1,0

[Colours]
Combo1 : 2,23,145
Combo2 : 255,255,255
Combo3 : 128,255,255
Combo4 : 4,15,221

[HitObjects]
256,192,5075,5,0
304,256,5601,5,8
208,128,5996,1,0
160,64,6391,1,0
256,192,6654,1,8
304,256,6917,1,0
256,192,7180,1,0
208,128,7708,5,8
304,256,8103,1,0
352,320,8498,1,0
256,192,8761,1,8
208,128,9024,1,0
256,192,9287,1,0
320,144,9813,5,8
192,240,10208,1,0
128,288,10603,1,0
256,192,10866,1,8
320,144,11129,1,0
256,192,11392,1,0
192,240,11918,5,8
320,144,12313,1,0
384,96,12708,1,0
256,192,12971,1,8
192,240,13234,1,0
256,192,13497,1,0
416,128,14023,5,2
416,256,14286,1,2
336,192,15075,5,8
336,320,15601,1,0
256,256,16128,1,8
176,192,16654,1,0
176,320,17180,1,8
96,256,17444,5,2
96,128,17707,1,2
176,192,18233,5,8
176,64,18759,1,0
256,128,19286,1,8
336,64,19812,1,0
336,192,20338,1,8
336,64,20865,1,0
336,192,21391,1,8
416,128,21654,5,2
416,256,21917,1,2
336,192,22378,5,8
336,320,22904,1,0
256,256,23430,1,8
176,320,23957,1,0
176,192,24483,1,8
176,320,25009,1,0
176,192,25535,1,8
96,256,25799,5,2
96,128,26062,1,2
176,192,26654,5,8
176,64,27180,1,0
256,128,27707,1,8
336,192,28233,1,0
336,64,28759,1,8
336,192,29286,1,0
336,64,29812,1,8
480,64,30338,5,2
432,112,30601,1,0
384,160,30865,1,10
320,224,31259,1,0
256,160,31654,1,2
208,112,31917,1,8
160,160,32180,1,0
96,320,32444,5,2
144,272,32707,1,0
192,224,32971,1,10
256,160,33365,1,0
320,224,33760,1,2
368,272,34023,1,8
416,224,34286,1,0
384,352,34549,5,2
336,304,34812,1,0
288,256,35076,1,10
224,192,35470,1,0
288,128,35865,1,2
336,80,36128,1,8
288,32,36391,1,0
128,32,36654,5,2
176,80,36917,1,0
224,128,37181,1,10
288,192,37575,1,0
224,256,37970,1,2
176,304,38233,1,8
224,352,38496,1,0
64,352,38759,5,2
112,304,39022,1,0
160,256,39286,1,10
224,192,39680,1,0
160,128,40075,1,2
112,80,40338,1,8
160,32,40601,1,0
448,32,40865,5,2
400,80,41128,1,0
352,128,41392,1,10
288,192,41786,1,0
352,256,42181,1,2
400,304,42444,1,8
352,352,42707,1,0
304,304,42970,5,0
256,192,43496,1,10
256,192,43759,1,0
192,80,44286,1,14
192,80,45075,5,0
256,192,45601,1,10
256,192,45864,1,0
304,304,46391,1,14
304,304,47180,6,2,B|272:320|208:320|144:272|96:192|96:176,1,260
64,128,48496,1,10
130,139,49023,2,2,B|162:123|226:123|290:171|338:251|338:267,1,260
383,301,50865,5,0
444,288,50996,1,0
469,233,51128,1,0
416,160,51391,5,0
272,96,51917,1,8
368,224,52312,1,2
320,160,52707,1,0
224,160,52970,1,8
272,224,53233,1,0
176,224,53496,1,0
224,288,54023,5,8
128,160,54418,1,2
176,224,54813,1,0
272,224,55076,1,8
224,160,55339,1,0
320,160,55602,1,0
368,224,56128,5,8
240,320,56523,1,2
304,272,56918,1,0
304,176,57181,1,8
240,224,57444,1,0
240,128,57707,1,0
144,160,58233,5,8
272,64,58628,1,2
208,112,59023,1,0
208,208,59286,1,8
272,160,59549,1,0
272,256,59812,6,2,B|288:288|320:304|352:304|400:288|432:256|448:208|448:160|400:96|352:48|288:32|224:48|240:64,1,460
208,80,61654,5,8
176,128,61917,2,2,B|160:176|176:208|192:256|224:288|256:336|304:352|368:336|416:304|416:272|432:224|432:240,1,420
448,176,64023,1,4
416,96,64812,6,0,B|368:48|352:48|352:48,1,80
368,144,65338,2,2,B|336:128|288:96,1,80
336,192,65865,2,2,B|304:176|256:160,1,80
304,256,66654,1,0
240,224,66917,1,8
176,192,67444,6,2,B|160:224|160:256,1,80
96,240,67970,6,10,B|96:272|96:304|112:320,1,80
272,352,69023,6,0,B|320:304|320:288|320:288,1,80
272,240,69549,2,2,B|256:272|224:320,1,80
176,272,70076,2,2,B|192:240|208:192,1,80
112,240,70865,1,0
144,176,71128,1,8
176,112,71655,6,2,B|144:96|112:96,1,80
128,32,72181,6,10,B|160:32|192:32|208:48,1,80
240,32,72970,6,0,B|192:80|192:96|192:96,1,80
240,144,73496,2,2,B|256:112|288:64,1,80
336,112,74023,2,2,B|320:144|304:192,1,80
400,144,74812,1,0
368,208,75075,1,8
336,272,75602,6,2,B|368:288|400:288,1,80
384,352,76128,2,2,B|352:352|320:352|304:336,1,80
192,272,76654,2,2,B|224:288|256:288,1,80
240,352,77180,2,2,B|208:352|176:352|160:336,1,80
48,272,77707,2,2,B|80:288|112:288,1,80
128,208,78233,2,2,B|96:208|64:208|48:192,1,80
144,144,78759,6,0,B|160:128,3,40
208,176,79286,6,0,B|224:192,3,40
256,144,79812,6,0,B|272:128,3,40
320,176,80339,6,0,B|336:192,3,40
352,208,80865,5,4
384,256,80996,1,0
416,304,81128,1,0
448,352,81259,1,4
384,256,81654,6,0,B|352:272,1,40,0|0
304,240,82180,2,2,B|288:240,1,40,2|2
240,208,82707,2,0,B|224:208|208:224,1,40,0|0
192,160,83562,5,0
128,128,83759,1,8
80,176,84286,2,0,B|96:192,1,40,0|0
96,256,84812,2,2,B|144:272,1,40
160,304,85075,2,0,B|192:304,1,40,8|2
160,208,85865,6,0,B|192:192,1,40,0|0
240,224,86391,2,2,B|256:224,1,40,2|2
304,256,86918,2,0,B|320:256|336:240,1,40,0|0
352,304,87773,5,0
416,336,87970,1,8
464,288,88497,2,0,B|448:272,1,40,0|0
448,208,89023,2,2,B|400:192,1,40
384,160,89286,2,0,B|352:160,1,40,8|2
320,112,89812,5,8
256,80,90207,1,2
192,112,90602,5,0
176,128,90733,1,2
160,144,90865,1,8
256,144,91128,5,0
240,160,91259,1,2
224,176,91391,1,0
176,272,91917,5,8
240,304,92312,1,2
304,272,92707,5,0
320,256,92838,1,2
336,240,92970,1,8
240,240,93233,5,0
256,224,93364,1,2
272,208,93496,1,0
176,96,94023,5,8
144,160,94418,1,2
176,224,94813,5,0
192,240,94944,1,2
208,256,95076,1,8
208,160,95339,5,0
224,176,95470,1,2
240,192,95602,1,0
304,288,96128,5,8
336,224,96523,1,2
304,160,96918,5,0
288,144,97049,1,2
272,128,97181,1,8
272,224,97444,5,0
256,208,97575,1,2
240,192,97707,2,0,B|208:160|160:144|112:144|64:208|48:272|80:320,1,320
144,336,98891,5,2
176,320,99023,1,0
208,304,99154,1,2
240,320,99286,1,0
272,336,99417,1,2
304,320,99549,1,0
336,304,99680,1,2
368,288,99812,1,0
368,288,100338,6,0,B|400:272|432:240|448:176|416:128|336:96,1,300,0|0
272,128,101654,5,2
321,152,101917,1,8
363,231,102444,1,0
256,320,103233,1,10
111,285,104023,1,0
108,133,104812,1,0
165,88,105075,1,10
252,196,105470,1,0
372,262,105865,1,0
324,310,106128,1,10
256,192,106654,5,4
256,192,107707,1,4
256,192,108759,1,4
256,192,109812,1,4
256,192,110075,1,4
240,144,110601,6,4,B|272:144,3,40
320,176,111128,2,4,B|320:224,3,40
272,240,111654,6,6,B|224:240,3,40
192,208,112180,2,14,B|192:160,3,40
256,192,112707,12,0,114023
256,192,114286,5,4
