osu file format v14

[General]
AudioFilename: BASI .mp3
AudioLeadIn: 0
PreviewTime: -1
Countdown: 0
SampleSet: Normal
StackLeniency: 0.7
Mode: 0
LetterboxInBreaks: 1
WidescreenStoryboard: 1

[Editor]
DistanceSpacing: 1.2
BeatDivisor: 4
GridSize: 32
TimelineZoom: 1

[Metadata]
Title:Kimchi
TitleUnicode:キムチ
Artist:BASI
ArtistUnicode:BASI
Creator:DarkClawRaven
Version:Hard
Source:
Tags:Japanese Hiphop
BeatmapID:1032439
BeatmapSetID:483949

[Difficulty]
HPDrainRate:5
CircleSize:3.8
OverallDifficulty:5
ApproachRate:7
SliderMultiplier:1.4
SliderTickRate:1

[Events]
//Background and Video events
0,0,"22458_anime_scenery_anime_cityscape.jpg",0,0
//Break Periods
//Storyboard Layer 0 (Background)
//Storyboard Layer 1 (Fail)
//Storyboard Layer 2 (Pass)
//Storyboard Layer 3 (Foreground)
//Storyboard Sound Samples

[TimingPoints]
20944.5792641273,326.086956521739,4,1,1,70,1,0
62113,-125,4,1,1,30,0,0
104096,-100,4,1,1,70,0,0
104259,-100,4,1,1,52,0,0
134096,-100,4,1,1,25,0,0
134259,-100,4,1,1,70,0,0
135401,-100,4,1,1,25,0,0
135564,-100,4,1,1,70,0,0
146080,-125,4,1,1,36,0,0
207955,-100,4,1,1,36,0,0

[Colours]
Combo1 : 192,192,192
Combo2 : 255,128,0
Combo3 : 255,203,151

[HitObjects]
448,256,20944,6,0,P|441:206|411:169,1,70
365,122,21270,1,0,0:0:0:0:
330,203,21433,1,0,0:0:0:0:
259,150,21596,2,0,B|207:151|207:151|126:203,1,140,8|0,0:0|0:0,0:0:0:0:
84,260,22085,1,0,0:0:0:0:
270,335,22411,6,0,P|323:331|360:316,1,70,8|0,0:0|0:0,0:0:0:0:
411,298,22738,1,0,0:0:0:0:
481,251,22901,2,0,P|475:203|450:164,1,70,8|0,0:0|0:0,0:0:0:0:
414,121,23227,1,0,0:0:0:0:
489,80,23390,2,0,P|464:47|410:39,1,70
354,45,23716,1,0,0:0:0:0:
284,85,23879,6,0,B|243:117|243:117|140:132,1,140,8|0,0:0|0:0,0:0:0:0:
284,85,24368,1,0,0:0:0:0:
363,113,24531,2,0,B|413:147|413:147|511:149,1,140
363,113,25020,1,0,0:0:0:0:
293,173,25183,2,0,B|253:232|253:232|186:272,1,140,8|0,0:0|0:0,0:0:0:0:
56,134,25835,5,0,0:0:0:0:
69,119,25998,1,0,0:0:0:0:
87,105,26161,2,0,P|122:79|168:62,1,70,8|0,0:0|0:0,0:0:0:0:
232,53,26488,2,0,B|312:51|312:51|389:82,1,140
455,97,26977,5,0,0:0:0:0:
507,169,27140,1,0,0:0:0:0:
512,258,27303,2,0,B|459:290|459:290|375:287,1,140,8|0,0:0|0:0,0:0:0:0:
288,328,27792,1,0,0:0:0:0:
266,319,27955,1,0,0:0:0:0:
243,310,28118,2,0,B|186:304|186:304|99:257,1,140,8|0,0:0|0:0,0:0:0:0:
182,85,28770,6,0,P|220:71|258:76,1,70
235,154,29096,2,0,P|286:157|325:145,1,70,8|0,0:0|0:0,0:0:0:0:
379,116,29422,1,0,0:0:0:0:
398,202,29585,2,0,P|438:180|459:143,2,70
317,233,30075,1,8,0:0:0:0:
239,279,30238,2,0,B|173:295|173:295|82:266,1,140
43,218,30727,1,8,0:0:0:0:
415,97,31216,5,0,0:0:0:0:
389,117,31379,2,0,B|330:152|330:152|259:158,1,140
178,176,31868,1,8,0:0:0:0:
237,250,32031,2,0,P|266:261|304:308,1,70
237,250,32357,1,0,0:0:0:0:
325,46,32683,2,0,B|415:53|415:53|469:94,1,140,8|0,0:0|0:0,0:0:0:0:
459,168,33172,1,0,0:0:0:0:
466,255,33335,6,0,P|438:302|393:313,1,70
376,228,33661,2,0,P|329:256|315:279,1,70
234,296,33988,1,8,0:0:0:0:
144,279,34151,1,0,0:0:0:0:
72,224,34314,2,0,B|45:181|45:181|48:132,2,70,8|0|0,0:0|0:0|0:0,0:0:0:0:
210,73,34966,6,0,B|269:52|269:52|359:49,1,140
420,71,35455,1,8,0:0:0:0:
485,117,35618,1,8,0:0:0:0:
380,274,36107,2,0,P|344:303|290:308,1,70
242,300,36433,1,0,0:0:0:0:
155,294,36596,2,0,B|97:283|97:283|27:236,1,140,8|0,0:0|0:0,0:0:0:0:
155,294,37085,5,0,0:0:0:0:
226,232,37248,2,0,B|273:217|273:217|303:184,1,70
352,153,37575,1,0,0:0:0:0:
428,197,37738,2,0,P|443:158|430:118,2,70,8|0|8,0:0|0:0|0:0,0:0:0:0:
352,153,38227,2,0,B|313:153|313:153|266:122,1,70
220,96,38553,1,0,0:0:0:0:
137,79,38716,1,8,0:0:0:0:
52,109,38879,6,0,P|92:164|168:173,1,140
244,189,39368,1,0,0:0:0:0:
320,226,39531,2,0,B|352:238|352:238|405:237,1,70,0|8,0:0|0:0,0:0:0:0:
369,148,39857,2,0,B|412:153|412:153|457:176,2,70
308,87,40346,1,0,0:0:0:0:
220,60,40509,2,0,P|181:56|129:72,1,70,8|0,0:0|0:0,0:0:0:0:
76,106,40835,1,0,0:0:0:0:
45,187,40998,1,0,0:0:0:0:
55,279,41161,2,0,B|38:321|38:321|26:347,1,70,8|0,0:0|0:0,0:0:0:0:
295,309,41651,6,0,B|268:270|268:270|271:219,1,70
198,128,42140,2,0,B|144:116|144:116|28:138,1,140,8|0,0:0|0:0,0:0:0:0:
198,128,42629,1,0,0:0:0:0:
66,281,42955,2,0,P|109:290|135:313,1,70,8|0,0:0|0:0,0:0:0:0:
200,335,43281,1,8,0:0:0:0:
280,326,43444,2,0,P|356:309|389:252,1,140,0|8,0:0|0:0,0:0:0:0:
167,185,44096,5,0,0:0:0:0:
191,164,44259,2,0,B|222:141|222:141|267:128,1,70
339,132,44585,1,0,0:0:0:0:
419,152,44748,2,0,B|465:173|465:173|565:162,1,140,8|0,0:0|0:0,0:0:0:0:
419,152,45238,1,0,0:0:0:0:
339,132,45401,2,0,P|311:123|268:124,1,70,8|0,0:0|0:0,0:0:0:0:
194,139,45727,1,0,0:0:0:0:
129,185,45890,1,0,0:0:0:0:
194,139,46053,2,0,B|251:82|251:82|331:58,1,140,8|0,0:0|0:0,0:0:0:0:
462,315,46705,5,0,0:0:0:0:
440,296,46868,1,0,0:0:0:0:
422,276,47031,2,0,B|386:242|386:242|336:223,1,70,8|0,0:0|0:0,0:0:0:0:
321,318,47357,2,0,P|250:338|190:305,1,140,8|0,0:0|0:0,0:0:0:0:
132,256,47846,1,0,0:0:0:0:
77,198,48009,2,0,B|50:168|50:168|45:129,1,70
135,129,48335,1,0,0:0:0:0:
215,161,48498,2,0,P|253:161|283:146,2,70,8|0|8,0:0|0:0|0:0,0:0:0:0:
215,161,48988,5,0,0:0:0:0:
275,232,49151,1,0,0:0:0:0:
342,270,49314,2,0,B|388:258|388:258|469:209,1,140,0|8,0:0|0:0,0:0:0:0:
510,142,49803,1,0,0:0:0:0:
458,83,49966,2,0,B|390:65|390:65|316:65,1,140,8|0,0:0|0:0,0:0:0:0:
249,97,50455,5,0,0:0:0:0:
176,136,50618,2,0,P|143:158|112:160,2,70,8|0|8,0:0|0:0|0:0,0:0:0:0:
249,97,51107,1,0,0:0:0:0:
289,168,51270,2,0,P|331:185|361:183,1,70,8|0,0:0|0:0,0:0:0:0:
432,172,51596,1,8,0:0:0:0:
97,322,52085,6,0,P|140:304|160:290,1,70
229,253,52411,1,0,0:0:0:0:
313,252,52575,1,0,0:0:0:0:
366,191,52738,1,0,0:0:0:0:
442,202,52901,2,0,B|480:165|480:165|515:83,1,140,8|0,0:0|0:0,0:0:0:0:
442,202,53390,1,0,0:0:0:0:
384,252,53553,2,0,P|349:271|314:273,1,70
240,300,53879,2,0,B|171:293|171:293|106:258,1,140,8|0,0:0|0:0,0:0:0:0:
90,74,54531,5,0,0:0:0:0:
115,93,54694,2,0,P|149:106|188:104,1,70,0|8,0:0|0:0,0:0:0:0:
256,116,55020,1,0,0:0:0:0:
329,140,55183,2,0,B|402:151|402:151|476:138,1,140,8|0,0:0|0:0,0:0:0:0:
357,329,55835,1,0,0:0:0:0:
334,316,55998,1,0,0:0:0:0:
307,297,56161,2,0,P|276:278|241:274,1,70,8|0,0:0|0:0,0:0:0:0:
165,291,56488,2,0,B|108:307|108:307|21:295,1,140,8|0,0:0|0:0,0:0:0:0:
110,72,57466,5,0,0:0:0:0:
135,85,57629,1,0,0:0:0:0:
166,99,57792,2,0,B|228:109|228:109|325:89,1,140,8|0,0:0|0:0,0:0:0:0:
380,78,58281,1,0,0:0:0:0:
448,121,58444,2,0,P|484:143|496:173,1,70,8|0,0:0|0:0,0:0:0:0:
414,193,58770,1,8,0:0:0:0:
355,243,58933,1,0,0:0:0:0:
290,286,59096,2,0,B|212:310|212:310|139:316,1,140,8|0,0:0|0:0,0:0:0:0:
290,286,59585,5,0,0:0:0:0:
234,221,59748,2,0,P|224:180|234:154,1,70
311,178,60075,2,0,P|318:136|302:103,1,70,8|0,0:0|0:0,0:0:0:0:
234,63,60401,1,0,0:0:0:0:
158,88,60564,2,0,P|86:126|35:179,1,140
158,88,61053,1,8,0:0:0:0:
234,63,61216,2,0,B|266:85|266:85|325:79,1,70
377,69,61542,1,0,0:0:0:0:
438,116,61705,2,0,P|496:135|542:205,1,140,8|0,0:0|0:0,0:0:0:0:
438,116,62194,5,0,0:0:0:0:
378,172,62357,1,0,0:0:0:0:
303,201,62520,1,0,0:0:0:0:
233,229,62683,2,0,B|172:269|172:269|120:278,1,112,2|0,2:0|0:0,0:0:0:0:
118,72,63335,2,0,P|153:92|183:101,1,56,2|0,2:0|0:0,0:0:0:0:
242,117,63661,1,0,0:0:0:0:
319,123,63825,2,0,P|366:133|451:127,1,112,0|0,1:0|0:0,0:0:0:0:
319,123,64314,1,0,0:0:0:0:
82,316,64640,5,0,0:0:0:0:
106,304,64803,1,0,0:0:0:0:
132,292,64966,2,0,B|194:267|194:267|261:260,1,112,2|0,2:0|0:0,0:0:0:0:
322,258,65455,1,0,0:0:0:0:
402,248,65618,2,0,P|431:228|444:211,2,56
322,258,66107,1,0,0:0:0:0:
247,232,66270,2,0,P|203:215|150:162,1,112,2|0,2:0|0:0,0:0:0:0:
115,105,66759,1,0,0:0:0:0:
150,38,66922,1,0,0:0:0:0:
466,89,67248,6,0,B|433:130|433:130|357:160,1,112
303,171,67738,1,0,0:0:0:0:
236,214,67901,2,0,P|204:221|182:216,1,56,2|0,2:0|0:0,0:0:0:0:
99,185,68227,2,0,P|54:146|-6:110,1,112
99,185,68716,1,0,0:0:0:0:
159,238,68879,1,0,0:0:0:0:
240,272,69042,2,0,B|309:264|309:264|362:275,1,112,2|0,2:0|0:0,0:0:0:0:
426,302,69531,1,0,0:0:0:0:
436,90,69857,5,0,0:0:0:0:
422,106,70020,1,0,0:0:0:0:
406,124,70183,2,0,B|368:167|368:167|303:189,1,112
238,189,70672,1,0,0:0:0:0:
173,230,70835,2,0,P|131:256|100:260,2,56,0|0|2,0:0|1:0|2:0,0:0:0:0:
238,189,71325,1,0,0:0:0:0:
291,130,71488,1,0,0:0:0:0:
340,69,71651,2,0,B|417:68|417:68|469:90,1,112,2|0,2:0|0:0,0:0:0:0:
502,148,72140,5,2,2:0:0:0:
502,231,72303,2,0,P|484:272|464:289,1,56
502,231,72629,1,0,0:0:0:0:
502,148,72792,2,0,B|462:106|462:106|392:82,1,112,2|0,2:0|0:0,0:0:0:0:
335,69,73281,1,0,0:0:0:0:
255,47,73444,2,0,B|206:45|206:45|135:56,1,112
255,47,73933,1,0,0:0:0:0:
335,69,74096,1,0,0:0:0:0:
388,136,74259,2,0,P|397:203|371:250,1,112,2|0,2:0|0:0,0:0:0:0:
146,264,74911,6,0,P|110:250|97:234,2,56
229,256,75401,1,0,0:0:0:0:
303,286,75564,2,0,B|370:304|370:304|433:294,1,112
481,257,76053,1,0,0:0:0:0:
460,184,76216,2,0,P|450:155|416:121,1,56,2|0,2:0|0:0,0:0:0:0:
369,92,76542,1,0,0:0:0:0:
288,113,76705,1,0,0:0:0:0:
235,175,76868,2,0,P|202:216|131:242,1,112
437,322,77683,6,0,P|410:290|372:277,1,56
327,259,78009,1,0,0:0:0:0:
257,267,78172,1,0,0:0:0:0:
194,307,78335,2,0,P|150:317|81:303,1,112,8|0,0:0|0:0,0:0:0:0:
194,307,78825,1,0,0:0:0:0:
257,267,78988,2,0,B|302:219|302:219|370:193,1,112
423,177,79477,2,0,P|481:164|527:132,1,112,8|0,0:0|0:0,0:0:0:0:
423,177,79966,1,0,0:0:0:0:
115,95,80292,6,0,P|94:71|56:58,2,56,0|0|8,0:0|0:0|1:0,0:0:0:0:
175,146,80781,1,0,0:0:0:0:
248,173,80944,2,0,B|318:172|318:172|374:156,1,112
248,173,81433,1,0,0:0:0:0:
175,146,81596,1,0,0:0:0:0:
104,175,81759,1,0,0:0:0:0:
52,241,81922,2,0,B|74:289|74:289|146:329,1,112,2|0,2:0|0:0,0:0:0:0:
433,280,82901,5,0,0:0:0:0:
411,270,83064,1,0,0:0:0:0:
385,261,83227,1,0,0:0:0:0:
363,252,83390,2,0,B|305:232|305:232|229:228,1,112,2|0,2:0|0:0,0:0:0:0:
180,248,83879,1,0,0:0:0:0:
107,268,84042,1,0,0:0:0:0:
46,222,84205,2,0,B|11:169|11:169|8:97,1,112
46,222,84694,5,0,0:0:0:0:
131,204,84857,2,0,P|116:267|77:306,1,112,2|0,2:0|0:0,0:0:0:0:
131,204,85346,1,0,0:0:0:0:
193,157,85509,1,0,0:0:0:0:
255,112,85672,2,0,B|328:108|328:108|389:125,1,112
433,162,86161,1,2,2:0:0:0:
509,213,86325,2,0,P|461:251|397:242,1,112
339,221,86814,1,0,0:0:0:0:
261,191,86977,2,0,L|202:162,2,56
275,105,87466,2,0,P|226:85|159:98,1,112,8|0,0:0|0:0,0:0:0:0:
435,294,88118,5,0,0:0:0:0:
413,278,88281,1,0,0:0:0:0:
389,261,88444,2,0,P|350:235|327:228,1,56
307,316,88770,2,0,P|266:288|257:207,1,112,2|0,2:0|0:0,0:0:0:0:
297,168,89259,5,0,0:0:0:0:
359,124,89422,1,0,0:0:0:0:
409,67,89585,1,0,0:0:0:0:
359,124,89748,2,0,B|300:81|300:81|253:73,1,112,0|0,0:0|1:0,0:0:0:0:
178,87,90238,2,0,P|132:109|56:117,1,112
178,87,90727,5,2,2:0:0:0:
243,128,90890,1,0,0:0:0:0:
318,160,91053,2,0,B|346:179|346:179|386:193,1,56
451,200,91379,1,2,2:0:0:0:
512,262,91542,2,0,P|457:290|396:268,1,112
333,258,92031,1,0,0:0:0:0:
258,286,92194,2,0,B|202:317|202:317|134:317,1,112
187,231,92683,5,2,2:0:0:0:
187,231,92846,2,0,B|225:168|225:168|273:131,1,112
328,115,93335,1,0,0:0:0:0:
400,153,93498,2,0,B|443:170|508:172|511:172,1,112
400,153,93988,1,2,2:0:0:0:
328,115,94151,2,0,B|274:75|274:75|222:65,1,112
152,89,94640,1,0,0:0:0:0:
117,257,94966,5,0,0:0:0:0:
137,273,95129,2,0,P|186:290|207:290,1,56
272,288,95455,1,0,0:0:0:0:
354,273,95618,2,0,B|422:272|422:272|481:249,1,112,2|0,2:0|0:0,0:0:0:0:
512,194,96107,5,0,0:0:0:0:
512,117,96270,2,0,P|498:90|478:69,2,56
428,138,96759,2,0,P|400:152|307:159,1,112
229,148,97248,1,0,0:0:0:0:
159,196,97411,2,0,P|108:191|31:226,2,112
229,148,98227,1,2,2:0:0:0:
492,323,98553,5,0,0:0:0:0:
467,312,98716,2,0,P|425:293|404:288,1,56
287,250,99205,2,0,B|242:260|244:300|164:288,1,112
107,279,99694,1,0,0:0:0:0:
57,221,99857,2,0,B|24:175|24:175|34:118,1,112
118,155,100346,2,0,P|167:141|213:101,1,112
118,155,100835,1,2,2:0:0:0:
438,88,101161,6,0,L|490:61,2,56
362,112,101651,1,0,0:0:0:0:
280,123,101814,2,0,B|235:123|235:123|153:96,1,112,2|0,2:0|0:0,0:0:0:0:
280,123,102303,1,0,0:0:0:0:
297,216,102466,2,0,P|344:192|371:139,1,112,0|2,0:0|2:0,0:0:0:0:
386,59,102955,2,0,B|429:56|429:56|501:71,1,112
386,59,103444,1,0,0:0:0:0:
217,100,103770,1,2,2:0:0:0:
374,286,104422,5,0,0:0:0:0:
349,270,104585,1,0,0:0:0:0:
316,255,104748,2,0,L|253:224,2,70,8|0|8,0:0|0:0|0:0,0:0:0:0:
230,209,105238,1,0,0:0:0:0:
145,205,105401,2,0,B|94:203|94:203|18:153,1,140,8|0,0:0|0:0,0:0:0:0:
122,114,105890,1,0,0:0:0:0:
195,86,106053,1,0,0:0:0:0:
274,96,106216,2,0,B|315:116|315:116|357:106,1,70,8|0,0:0|0:0,0:0:0:0:
477,187,106705,6,0,P|444:223|415:236,1,70
350,258,107031,1,0,0:0:0:0:
278,302,107194,2,0,B|231:325|231:325|185:326,1,70,8|0,0:0|0:0,0:0:0:0:
133,306,107520,1,0,0:0:0:0:
53,257,107683,2,0,B|35:224|35:224|120:157,1,140,8|0,0:0|0:0,0:0:0:0:
430,74,108498,5,0,0:0:0:0:
397,88,108661,1,0,0:0:0:0:
363,104,108825,1,0,0:0:0:0:
335,118,108988,2,0,B|297:139|297:139|199:136,1,140,8|0,0:0|0:0,0:0:0:0:
123,156,109477,1,0,0:0:0:0:
76,232,109640,2,0,P|72:271|86:301,1,70
162,254,109966,2,0,P|234:253|304:210,1,140,8|0,0:0|0:0,0:0:0:0:
162,254,110455,1,0,0:0:0:0:
76,233,110618,2,0,P|44:216|25:184,2,70,8|0|8,0:0|0:0|0:0,0:0:0:0:
198,114,111270,5,0,0:0:0:0:
219,130,111433,2,0,P|277:145|315:145,1,70,8|0,0:0|0:0,0:0:0:0:
396,301,111922,1,0,0:0:0:0:
396,301,112085,2,0,P|428:313|464:320,2,70
320,275,112575,2,0,B|273:247|273:247|184:252,1,140,8|0,0:0|0:0,0:0:0:0:
113,288,113064,1,0,0:0:0:0:
51,226,113227,2,0,P|37:189|39:151,1,70,8|0,0:0|0:0,0:0:0:0:
76,93,113553,1,0,0:0:0:0:
140,57,113716,1,8,0:0:0:0:
216,50,113879,1,0,0:0:0:0:
397,123,114205,6,0,B|444:155|444:155|464:216,1,105,8|0,0:0|0:0,0:0:0:0:
126,280,114857,2,0,L|67:322,2,70,0|8|0,0:0|0:0|0:0,0:0:0:0:
195,238,115346,1,0,0:0:0:0:
279,241,115509,2,0,B|347:213|347:213|399:164,1,140,8|0,0:0|0:0,0:0:0:0:
279,241,115998,1,0,0:0:0:0:
190,203,116161,2,0,P|153:182|110:141,2,70,8|0|8,0:0|0:0|0:0,0:0:0:0:
263,163,116651,1,0,0:0:0:0:
305,92,116814,2,0,P|376:58|395:51,1,70,8|0,0:0|0:0,0:0:0:0:
435,296,117466,5,0,0:0:0:0:
409,286,117629,2,0,P|366:274|320:274,1,70,8|0,0:0|0:0,0:0:0:0:
256,294,117955,1,8,0:0:0:0:
179,327,118118,2,0,P|127:334|104:323,1,70,0|8,0:0|0:0,0:0:0:0:
179,327,118444,1,0,0:0:0:0:
256,294,118607,2,0,P|302:274|329:250,2,70,8|0|8,0:0|0:0|0:0,0:0:0:0:
246,210,119096,2,0,P|279:184|331:167,1,70
384,148,119422,2,0,B|445:129|445:129|512:85,1,140
384,148,119911,5,0,0:0:0:0:
304,115,120075,2,0,P|265:88|168:74,1,140,8|0,0:0|0:0,0:0:0:0:
103,101,120564,1,0,0:0:0:0:
56,160,120727,1,0,0:0:0:0:
44,240,120890,2,0,P|53:275|80:300,2,70,8|0|0,0:0|0:0|0:0,0:0:0:0:
130,230,121379,2,8,B|223:209|223:209|277:158,1,140,8|0,0:0|0:0,0:0:0:0:
320,117,121868,1,0,0:0:0:0:
389,68,122031,2,0,B|434:61|434:61|477:83,2,70
320,117,122520,6,0,P|268:153|192:157,1,140,8|0,0:0|0:0,0:0:0:0:
111,137,123009,1,0,0:0:0:0:
43,180,123172,1,0,0:0:0:0:
111,137,123335,2,0,P|154:106|175:72,1,70,8|0,0:0|0:0,0:0:0:0:
226,44,123661,2,0,B|287:29|287:29|392:29,1,140,8|0,0:0|0:0,0:0:0:0:
449,295,124640,5,0,0:0:0:0:
421,285,124803,2,0,P|384:274|340:246,2,70
424,196,125292,2,0,B|427:145|427:145|401:106,1,70,8|0,0:0|0:0,0:0:0:0:
349,91,125618,2,0,B|308:74|308:74|211:73,1,140,8|0,0:0|0:0,0:0:0:0:
125,106,126107,1,0,0:0:0:0:
99,193,126270,2,0,P|73:231|67:266,1,70,8|0,0:0|0:0,0:0:0:0:
168,250,126596,2,0,P|212:247|313:195,1,140,8|0,0:0|0:0,0:0:0:0:
367,162,127085,1,0,0:0:0:0:
440,117,127248,2,0,P|458:87|461:50,1,70,8|0,0:0|0:0,0:0:0:0:
143,111,127738,6,0,L|72:89,2,70
221,136,128227,1,0,0:0:0:0:
293,166,128390,2,0,P|324:197|321:226,1,70
235,230,128716,2,0,B|157:266|157:266|128:316,1,140,8|0,0:0|0:0,0:0:0:0:
235,230,129205,1,0,0:0:0:0:
293,166,129368,1,0,0:0:0:0:
362,120,129531,2,0,B|432:116|432:116|503:150,1,140,8|0,0:0|0:0,0:0:0:0:
362,120,130020,1,0,0:0:0:0:
86,298,130509,5,0,0:0:0:0:
109,280,130672,2,0,B|136:248|136:248|183:243,2,70
185,324,131161,2,0,P|240:323|318:268,1,140,8|0,0:0|0:0,0:0:0:0:
380,219,131651,1,0,0:0:0:0:
452,173,131814,2,0,P|491:153|522:121,2,70,8|0|8,0:0|0:0|0:0,0:0:0:0:
452,173,132303,1,0,0:0:0:0:
96,80,132792,5,0,0:0:0:0:
118,97,132955,1,0,0:0:0:0:
139,115,133118,2,0,B|197:137|197:137|297:129,1,140,8|0,0:0|0:0,0:0:0:0:
356,139,133607,1,0,0:0:0:0:
384,58,133770,2,0,P|424:83|439:112,1,70,8|0,0:0|0:0,0:0:0:0:
384,58,134096,1,2,2:0:0:0:
510,297,134422,6,0,B|442:300|442:300|378:262,1,140,8|0,0:0|0:0,0:0:0:0:
318,216,134911,1,0,0:0:0:0:
242,185,135075,2,0,P|200:199|180:225,1,70,8|0,0:0|0:0,0:0:0:0:
242,185,135401,1,2,2:0:0:0:
61,52,135727,6,0,P|98:78|135:76,1,70
198,63,136053,1,8,0:0:0:0:
271,82,136216,1,0,0:0:0:0:
327,140,136379,2,0,P|372:151|410:157,1,70,8|0,0:0|0:0,0:0:0:0:
474,107,136705,2,0,P|485:164|448:241,1,140,8|0,0:0|0:0,0:0:0:0:
376,283,137194,1,0,0:0:0:0:
298,311,137357,2,0,B|261:322|261:322|213:291,1,70,8|0,0:0|0:0,0:0:0:0:
167,256,137683,1,0,0:0:0:0:
117,196,137846,5,8,0:0:0:0:
117,196,138009,2,0,B|83:134|83:134|107:64,1,140,8|0,0:0|0:0,0:0:0:0:
180,122,138498,1,0,0:0:0:0:
180,122,138661,2,0,P|239:141|322:130,1,140
399,105,139151,1,8,0:0:0:0:
399,105,139314,2,0,B|443:145|443:145|467:228,1,140,8|0,0:0|0:0,0:0:0:0:
447,297,139803,1,0,0:0:0:0:
379,334,139966,1,0,0:0:0:0:
307,319,140129,2,0,P|267:305|218:313,1,70,8|0,0:0|0:0,0:0:0:0:
92,70,140944,5,0,0:0:0:0:
113,83,141107,1,0,0:0:0:0:
138,91,141270,2,0,P|192:95|229:93,1,70,8|0,0:0|0:0,0:0:0:0:
289,95,141596,2,0,P|340:105|414:160,1,140,8|0,0:0|0:0,0:0:0:0:
289,95,142085,1,0,0:0:0:0:
226,151,142248,2,0,P|189:185|144:200,1,70,8|0,0:0|0:0,0:0:0:0:
154,276,142575,2,0,P|213:264|281:209,1,140,8|0,0:0|0:0,0:0:0:0:
342,172,143064,5,0,0:0:0:0:
416,147,143227,2,0,B|464:152|464:152|501:131,1,70
453,60,143553,2,0,P|413:44|360:39,1,70,8|0,0:0|0:0,0:0:0:0:
298,54,143879,1,8,0:0:0:0:
216,90,144042,2,0,P|180:100|140:103,2,70,0|8|0,0:0|0:0|0:0,0:0:0:0:
282,137,144531,1,8,0:0:0:0:
336,199,144694,1,0,0:0:0:0:
396,257,144857,2,0,P|429:272|467:276,2,70,8|0|8,0:0|0:0|0:0,0:0:0:0:
314,284,145346,1,0,0:0:0:0:
245,251,145509,2,0,P|189:266|111:305,1,140,8|0,0:0|0:0,0:0:0:0:
102,57,146161,6,0,P|137:76|227:88,1,112
283,103,146651,1,0,0:0:0:0:
367,113,146814,2,0,P|403:104|437:81,1,56
367,113,147140,1,0,0:0:0:0:
283,103,147303,2,0,P|293:169|353:194,1,112
400,240,147792,1,0,0:0:0:0:
191,294,148118,6,0,P|157:290|120:263,1,56
85,222,148444,1,0,0:0:0:0:
78,146,148607,2,0,B|118:99|118:99|180:66,1,112
247,57,149096,1,0,0:0:0:0:
321,96,149259,2,0,L|374:112,2,56
247,57,149748,1,0,0:0:0:0:
245,136,149911,2,0,B|222:187|202:210|154:233,1,112
245,136,150401,1,0,0:0:0:0:
326,306,150727,5,0,0:0:0:0:
354,287,150890,2,0,P|388:265|406:237,1,56
467,209,151216,2,0,B|493:163|493:163|483:92,1,112
421,51,151705,1,0,0:0:0:0:
342,61,151868,2,0,P|305:62|272:81,1,56
222,120,152194,2,0,B|181:153|181:153|113:161,1,112
222,120,152683,1,0,0:0:0:0:
298,156,152846,2,0,P|342:173|357:203,1,56
118,283,153335,6,0,P|157:305|241:296,1,112
300,279,153825,1,0,0:0:0:0:
385,269,153988,2,0,P|425:258|444:226,1,56
477,181,154314,1,0,0:0:0:0:
446,111,154477,5,0,0:0:0:0:
381,65,154640,1,0,0:0:0:0:
310,41,154803,1,0,0:0:0:0:
234,37,154966,1,0,0:0:0:0:
310,41,155129,2,0,B|293:104|293:104|243:150,1,112
203,189,155618,1,0,0:0:0:0:
456,290,155944,6,0,P|409:319|338:303,1,112
279,293,156433,1,0,0:0:0:0:
197,278,156596,2,0,B|132:269|132:269|80:232,1,112
58,171,157085,1,0,0:0:0:0:
117,113,157248,2,0,P|152:98|173:100,1,56
117,113,157575,1,0,0:0:0:0:
140,30,157738,6,0,P|179:49|203:110,1,112
229,186,158227,1,0,0:0:0:0:
307,228,158390,2,0,L|360:250,2,56
307,228,158879,1,0,0:0:0:0:
458,64,159205,6,0,B|411:93|411:93|338:99,1,112
281,81,159694,1,0,0:0:0:0:
209,57,159857,2,0,P|181:46|152:45,1,56
209,57,160183,1,0,0:0:0:0:
166,120,160346,2,0,B|144:155|144:155|60:184,1,112
166,120,160835,1,0,0:0:0:0:
444,312,161161,6,0,P|418:290|374:281,1,56
325,261,161488,1,0,0:0:0:0:
186,286,161814,2,0,B|134:303|134:303|56:293,1,112
186,286,162303,1,0,0:0:0:0:
127,220,162466,1,0,0:0:0:0:
68,163,162629,2,0,P|63:131|105:63,1,112
68,163,163118,1,0,0:0:0:0:
238,129,163444,1,0,0:0:0:0:
435,143,163770,5,0,0:0:0:0:
416,165,163933,1,0,0:0:0:0:
397,182,164096,2,0,P|353:206|324:203,1,56
273,230,164422,2,0,B|222:253|222:253|168:301,1,112
108,318,164911,1,0,0:0:0:0:
39,285,165075,2,0,P|0:243|-5:190,1,112
40,118,165564,1,0,0:0:0:0:
112,74,165727,2,0,P|143:66|193:70,1,56
112,74,166053,1,0,0:0:0:0:
231,200,166379,5,0,0:0:0:0:
260,189,166542,2,0,P|289:172|305:149,1,56
354,93,166868,2,0,B|410:64|410:64|481:52,1,112
354,93,167357,1,0,0:0:0:0:
142,269,167683,6,0,P|104:266|78:249,2,56
225,281,168172,2,0,B|281:248|281:248|350:239,1,112
404,239,168661,1,0,0:0:0:0:
476,201,168825,2,0,P|494:167|501:141,1,56
472,77,169151,1,0,0:0:0:0:
395,34,169314,2,0,B|353:57|348:94|282:81,1,112
217,87,169803,5,0,0:0:0:0:
136,123,169966,2,0,P|97:143|72:170,2,56
217,87,170455,1,0,0:0:0:0:
288,46,170618,1,0,0:0:0:0:
288,46,170781,2,0,P|324:90|401:102,1,112
438,151,171270,1,0,0:0:0:0:
367,296,171596,5,0,0:0:0:0:
335,290,171759,1,0,0:0:0:0:
307,285,171922,2,0,B|265:277|265:277|210:217,1,112
156,170,172411,1,0,0:0:0:0:
96,114,172575,2,0,P|117:87|189:49,1,112
270,52,173064,1,0,0:0:0:0:
335,108,173227,2,0,P|369:134|405:141,2,56
270,52,173716,2,0,B|226:93|226:93|166:114,1,112
99,144,174205,5,0,0:0:0:0:
73,227,174368,2,0,P|78:267|90:298,1,56
148,339,174694,2,0,B|205:321|205:321|267:282,2,112
148,339,175509,1,0,0:0:0:0:
188,266,175672,1,0,0:0:0:0:
242,208,175835,1,0,0:0:0:0:
310,174,175998,2,0,B|389:180|389:180|424:209,1,112
475,275,176488,1,0,0:0:0:0:
114,117,176814,6,0,B|166:79|166:79|226:65,1,112
293,72,177303,1,0,0:0:0:0:
374,111,177466,2,0,P|409:129|447:130,2,56
293,72,177955,1,0,0:0:0:0:
218,120,178118,2,0,P|178:150|108:176,1,112
61,250,178607,1,0,0:0:0:0:
147,299,178770,2,0,P|210:287|270:303,1,112
344,314,179259,1,0,0:0:0:0:
428,262,179422,2,0,P|461:246|485:212,2,56
374,182,179911,5,0,0:0:0:0:
353,171,180075,2,0,B|306:154|306:154|231:176,1,112
152,201,180564,1,0,0:0:0:0:
84,152,180727,1,0,0:0:0:0:
50,82,180890,1,0,0:0:0:0:
50,82,181053,2,0,P|90:59|159:60,1,112
268,143,181705,1,0,0:0:0:0:
444,220,182031,5,0,0:0:0:0:
430,232,182194,1,0,0:0:0:0:
413,244,182357,2,0,L|349:274,1,56
263,277,182683,2,0,P|208:251|170:198,1,112
124,129,183172,1,0,0:0:0:0:
315,104,183498,2,0,B|370:74|370:74|440:78,1,112
315,104,183988,1,0,0:0:0:0:
263,277,184314,1,0,0:0:0:0:
80,106,184640,5,0,0:0:0:0:
103,115,184803,1,0,0:0:0:0:
128,120,184966,2,0,P|183:135|204:134,1,56
278,168,185292,2,0,B|350:200|350:200|384:243,1,112
278,168,185781,1,0,0:0:0:0:
253,65,185944,2,0,P|329:73|356:112,1,112
395,184,186433,1,0,0:0:0:0:
396,276,186596,1,0,0:0:0:0:
313,321,186759,1,0,0:0:0:0:
209,303,186922,2,0,B|155:279|155:279|122:215,1,112
437,126,187901,6,0,B|392:77|392:77|326:64,1,112
481,237,189205,2,0,P|441:261|356:278,1,112
290,306,189694,1,0,0:0:0:0:
200,300,189857,1,0,0:0:0:0:
65,198,190183,1,0,0:0:0:0:
141,79,190509,2,0,P|203:72|238:89,1,84
242,86,190835,2,0,P|294:99|353:95,1,112
443,214,191488,1,0,0:0:0:0:
254,247,191814,2,0,B|185:253|101:216|160:151|264:207|133:280,1,224
256,119,192792,1,0,0:0:0:0:
365,328,193118,6,0,B|429:304|429:304|459:248,1,112
77,76,194422,2,0,B|111:108|111:108|184:128,1,112
258,138,194911,1,0,0:0:0:0:
345,125,195075,1,0,0:0:0:0:
468,241,195401,1,0,0:0:0:0:
320,275,195727,2,0,P|271:291|219:291,1,84
220,285,196053,2,0,P|170:264|106:264,1,112
102,93,196705,1,0,0:0:0:0:
120,101,196868,2,0,P|181:111|243:105,1,112
309,60,197357,1,0,0:0:0:0:
455,129,197683,1,0,0:0:0:0:
323,231,198009,1,0,0:0:0:0:
178,62,198335,6,0,B|114:104|114:104|87:159,1,112
429,267,199640,2,0,P|371:296|305:293,1,112
240,278,200129,1,0,0:0:0:0:
172,236,200292,1,0,0:0:0:0:
205,64,200618,1,0,0:0:0:0:
330,174,200944,2,0,P|382:149|398:123,1,84
404,109,201270,2,0,P|432:85|507:77,1,112
476,167,201759,1,0,0:0:0:0:
422,249,201922,2,0,B|375:287|375:287|301:300,1,112
186,267,202575,1,0,0:0:0:0:
85,181,202901,1,0,0:0:0:0:
59,53,203227,1,0,0:0:0:0:
365,68,203553,6,0,B|425:103|425:103|449:145,1,112
278,209,204857,2,0,P|239:240|172:253,1,112
22,161,205509,1,0,0:0:0:0:
175,90,205835,1,0,0:0:0:0:
307,34,206161,2,0,P|353:34|410:70,1,112
455,130,206651,1,0,0:0:0:0:
196,246,207303,1,0,0:0:0:0:
180,263,207466,2,0,P|133:295|55:302,1,112
466,133,208119,6,0,L|397:173,1,70
326,193,208445,1,0,0:0:0:0:
238,198,208607,2,0,B|173:180|173:180|118:125,1,140
238,198,209096,1,0,0:0:0:0:
435,284,209422,2,0,P|413:243|320:192,1,140
251,170,209911,1,0,0:0:0:0:
171,129,210075,2,0,P|137:117|120:79,1,70
212,53,210401,2,0,P|251:65|271:107,1,70
212,53,210727,5,0,0:0:0:0:
116,46,210890,1,0,0:0:0:0:
44,109,211053,2,0,P|28:152|30:180,1,70
116,161,211379,2,0,B|179:183|179:183|243:246,1,140
302,289,211868,1,0,0:0:0:0:
394,293,212031,2,0,P|433:279|453:253,1,70
374,205,212357,2,0,P|405:173|456:157,2,70
232,124,213009,1,0,0:0:0:0:
67,289,213335,6,0,P|117:271|149:249,1,70
225,287,213661,2,0,P|228:213|179:171,1,140
119,123,214151,1,0,0:0:0:0:
155,52,214314,1,0,0:0:0:0:
396,116,214640,2,0,P|429:100|449:72,2,70
313,142,215129,2,0,P|276:152|233:187,1,70
309,238,215455,2,0,P|272:265|162:284,1,140
104,262,215944,5,0,0:0:0:0:
60,196,216107,1,0,0:0:0:0:
70,121,216270,1,0,0:0:0:0:
70,121,216433,2,0,B|139:94|139:94|226:113,1,140
281,132,216922,1,0,0:0:0:0:
364,150,217085,2,0,P|400:152|458:142,2,70
281,132,217575,1,0,0:0:0:0:
207,176,217738,2,0,B|164:219|164:219|85:247,1,140
390,255,218553,5,0,0:0:0:0:
410,240,218716,1,0,0:0:0:0:
427,225,218879,1,0,0:0:0:0:
442,211,219042,2,0,P|469:160|458:124,1,70
378,109,219368,2,0,P|390:73|426:59,2,70
295,52,219857,2,0,B|250:66|250:66|171:135,1,140
124,224,220346,1,0,0:0:0:0:
138,238,220509,1,0,0:0:0:0:
157,247,220672,2,0,P|206:252|256:240,1,70
324,225,220998,1,0,0:0:0:0:
402,177,221161,2,0,P|458:171|486:185,1,70
119,64,221651,5,0,0:0:0:0:
138,77,221814,2,0,P|194:87|291:75,1,140
358,62,222303,1,0,0:0:0:0:
432,123,222466,2,0,P|458:149|471:186,2,70
373,196,222955,2,0,B|301:226|301:226|234:230,1,140
118,80,223770,6,0,L|58:31,2,70
118,80,224259,1,0,0:0:0:0:
205,109,224422,2,0,P|251:110|305:93,1,70
365,86,224748,1,0,0:0:0:0:
434,132,224911,2,0,B|492:193|492:193|501:262,1,140
428,311,225401,1,0,0:0:0:0:
353,255,225564,2,0,B|272:278|272:278|210:322,1,140
353,255,226053,1,0,0:0:0:0:
110,89,226379,6,0,P|147:61|199:56,1,70
186,143,226705,2,0,P|230:126|259:96,1,70
317,60,227031,2,0,B|404:49|404:49|479:74,1,140
317,60,227520,1,0,0:0:0:0:
254,116,227683,1,0,0:0:0:0:
361,284,228009,1,0,0:0:0:0:
156,280,228335,2,0,B|108:269|108:269|45:188,1,140
444,73,228988,5,0,0:0:0:0:
427,91,229151,1,0,0:0:0:0:
409,104,229314,2,0,P|345:123|277:93,1,140
198,59,229803,2,0,P|146:55|108:72,1,70
81,271,230292,5,0,0:0:0:0:
95,257,230455,1,0,0:0:0:0:
109,244,230618,2,0,P|155:216|263:204,1,140
333,227,231107,2,0,P|378:238|423:224,1,70
333,227,231433,1,0,0:0:0:0:
370,144,231596,2,0,P|363:107|335:79,2,70
273,133,232085,2,0,B|181:121|181:121|123:80,1,140
135,264,232738,6,0,L|62:291,2,70
216,263,233227,1,0,0:0:0:0:
305,252,233390,2,0,B|351:240|351:240|439:186,1,140
99,74,234205,1,0,0:0:0:0:
125,82,234368,1,0,0:0:0:0:
147,87,234532,1,0,0:0:0:0:
170,90,234694,2,0,P|232:85|302:48,1,140
394,40,235183,1,0,0:0:0:0:
475,91,235346,6,0,P|492:130|487:165,1,70
449,232,235672,1,0,0:0:0:0:
394,303,235835,2,0,B|313:313|313:313|242:286,1,140
182,248,236325,2,0,P|146:215|141:178,1,70
145,107,236651,1,0,0:0:0:0:
204,44,236814,2,0,P|253:34|298:42,2,70
249,122,237303,2,0,B|292:151|292:151|393:146,1,140
249,122,237792,1,0,0:0:0:0:
132,101,237955,2,0,L|62:144,2,70
400,55,238607,2,0,P|464:87|485:154,1,140
400,55,239096,1,0,0:0:0:0:
108,280,239422,5,0,0:0:0:0:
177,252,239585,1,0,0:0:0:0:
232,200,239748,1,0,0:0:0:0:
259,130,239911,2,0,B|266:84|266:84|204:8,2,140
232,200,240727,2,0,P|270:221|282:267,2,70
206,289,241216,2,0,P|232:331|330:347,2,140
157,224,242031,1,0,0:0:0:0:
158,149,242194,1,0,0:0:0:0:
197,84,242357,1,0,0:0:0:0:
263,43,242520,6,0,B|297:77|297:77|385:111,1,140
458,132,243009,1,0,0:0:0:0:
505,205,243172,2,0,P|520:242|516:275,2,70
505,205,243661,1,0,0:0:0:0:
433,250,243825,2,0,P|340:256|291:287,1,140
433,250,244314,1,0,0:0:0:0:
123,85,244640,5,0,0:0:0:0:
144,88,244803,1,0,0:0:0:0:
165,88,244966,2,0,P|207:84|240:62,1,70
314,36,245292,2,0,P|354:44|388:78,1,70
413,127,245618,1,0,0:0:0:0:
403,201,245781,1,0,0:0:0:0:
349,260,245944,2,0,B|314:283|314:283|208:283,1,140
138,258,246433,1,0,0:0:0:0:
63,224,246596,2,0,P|37:173|34:137,2,70
263,65,247248,5,0,0:0:0:0:
284,73,247411,1,0,0:0:0:0:
304,79,247575,2,0,P|364:85|401:81,1,70
453,103,247901,2,0,P|505:138|529:214,1,140
487,283,248390,1,0,0:0:0:0:
312,285,248716,1,0,0:0:0:0:
191,173,249042,2,0,B|129:156|99:56|244:63|166:145|64:136,1,210
326,306,249857,5,0,0:0:0:0:
346,310,250020,1,0,0:0:0:0:
365,310,250183,2,0,P|418:294|438:269,1,70
356,225,250509,2,0,P|401:200|420:159,1,70
458,116,250835,1,0,0:0:0:0:
435,32,250998,2,0,B|345:18|345:18|279:28,1,140
226,71,251488,1,0,0:0:0:0:
154,115,251651,2,0,P|90:140|58:140,2,70
154,115,252140,1,0,0:0:0:0:
448,174,252466,5,0,0:0:0:0:
434,191,252629,1,0,0:0:0:0:
417,206,252792,2,0,P|360:229|322:225,1,70
271,220,253118,2,0,B|205:237|205:237|143:284,1,140
271,220,253607,1,0,0:0:0:0:
169,155,253770,2,0,P|159:235|335:291,1,280
459,215,254748,1,0,0:0:0:0:
497,65,255075,1,0,0:0:0:0:
483,78,255238,1,0,0:0:0:0:
466,88,255401,2,0,P|376:134|315:135,1,140
